Bonnie Tyler - Rocks And Honey (2013)

Posted By: perfecta
Bonnie Tyler - Rocks And Honey (2013)

Bonnie Tyler - Rocks And Honey (2013)
EAC | FLAC with CUE & LOG - 359 MB | Full Scans | MP3 CBR 320 Kbps - 115 MB
Pop Rock | TT - 51:14 minutes | Label: ZYX Music GmbH | Cat. # ZYX 21010-2

2013 album, her first in 8 years, from the Welsh Pop vocalist, a return to the Country-influenced sound of her '70s recordings. Her voice gets better and better over the years, and with this stunning album Bonnie back to form! Recommend picking this up and listening to it.

Tracks:

01. This Is Gonna Hurt
02. Sunshine
03. Believe In Me
04. What You Need From Me (with Vince Gill)
05. Crying
06. Little Superstar
07. Flat On The Floor
08. All I Ever Wanted
09. Stubborn
10. Love Is The Knife
11. Lord Help Me
12. Mom
13. You Try
14. Believe In Me (Radio edit)

Exact Audio Copy V1.0 beta 3 from 29. August 2011

EAC extraction logfile from 20. April 2013, 18:11

Bonnie Tyler / Rocks And Honey (ZYX 21010-2)

Used drive : PLEXTOR DVDR PX-860A Adapter: 0 ID: 3

Read mode : Secure
Utilize accurate stream : Yes
Defeat audio cache : Yes
Make use of C2 pointers : No

Read offset correction : 96
Overread into Lead-In and Lead-Out : No
Fill up missing offset samples with silence : Yes
Delete leading and trailing silent blocks : No
Null samples used in CRC calculations : Yes
Used interface : Installed external ASPI interface

Used output format : User Defined Encoder
Selected bitrate : 1024 kBit/s
Quality : High
Add ID3 tag : Yes
Command line compressor : E:\Program Files (x86)\Exact Audio Copy\Flac\flac.exe
Additional command line options : -V -8 -T "Date=%year%" -T "Genre=%genre%" %source%


TOC of the extracted CD

Track | Start | Length | Start sector | End sector
––––––––––––––––––––––––––––-
1 | 0:00.00 | 3:08.17 | 0 | 14116
2 | 3:08.17 | 2:53.66 | 14117 | 27157
3 | 6:02.08 | 3:58.32 | 27158 | 45039
4 | 10:00.40 | 4:05.65 | 45040 | 63479
5 | 14:06.30 | 3:25.54 | 63480 | 78908
6 | 17:32.09 | 3:08.10 | 78909 | 93018
7 | 20:40.19 | 3:23.45 | 93019 | 108288
8 | 24:03.64 | 3:45.55 | 108289 | 125218
9 | 27:49.44 | 3:47.03 | 125219 | 142246
10 | 31:36.47 | 4:40.25 | 142247 | 163271
11 | 36:16.72 | 3:35.25 | 163272 | 179421
12 | 39:52.22 | 3:56.07 | 179422 | 197128
13 | 43:48.29 | 4:23.00 | 197129 | 216853
14 | 48:11.29 | 3:02.63 | 216854 | 230566


Range status and errors

Selected range

Filename D:\MUSIC\Bonnie Tyler - Rocks And Honey (ZYX 21010-2).wav

Peak level 99.1 %
Extraction speed 7.6 X
Range quality 100.0 %
Test CRC 9A4EEEAB
Copy CRC 9A4EEEAB
Copy OK

No errors occurred


AccurateRip summary

Track 1 not present in database
Track 2 not present in database
Track 3 not present in database
Track 4 not present in database
Track 5 not present in database
Track 6 not present in database
Track 7 not present in database
Track 8 not present in database
Track 9 not present in database
Track 10 not present in database
Track 11 not present in database
Track 12 not present in database
Track 13 not present in database
Track 14 not present in database

None of the tracks are present in the AccurateRip database

End of status report

==== Log checksum 22BE80318A9BC95D8C1E608C3FC8DFC170305F08BAE0C5DC52247E71640D9B84 ====


Thanks to rd!

FLAC lossless | MP3 320

All Covers included.