Tags
Language
Tags

Aoife O'Donovan - Age Of Apathy (Deluxe Edition) (2022)

Posted By: delpotro
Aoife O'Donovan - Age Of Apathy (Deluxe Edition) (2022)

Aoife O'Donovan - Age Of Apathy (Deluxe Edition) (2022)
XLD Rip | FLAC (tracks+log+.cue) - 366 Mb | MP3 CBR 320 kbps - 189 Mb | Covers included | 01:09:44
Folk Rock, Americana, Female Vocal | Label: Yep Roc Records

Grammy award-winner Aoife O’Donovan’s first solo studio album since 2016 was produced by Joe Henry and recorded at Full Sail Studios in Orlando, Florida. The co-founder of the trio, I’m With Her, continues her passion for collaboration on this album that includes guest appearances by Madison Cunningham and Allison Russell. The album’s singles include “Phoenix,” “Passengers,” and “Sister Starling.”
Tracklist:
Disc 1
1. Sister Darling
2. B61
3. Phoenix
4. Age Of Apathy
5. Elevators
6. Prodigal Daughter (feat. Allison Russell)
7. Galahad
8. Town Of Mercy
9. Lucky Star
10. What Do You Want From Yourself?
11. Passengers (feat. Madison Cunningham)

Disc 2
1. Phoenix (Acoustic)
2. Galahad (Acoustic)
3. Passengers (Acoustic)
4. B61 (Acoustic)
5. Age Of Apathy (Acoustic)
6. Elevators (Acoustic)
7. Sister Starling (Acoustic)
8. Town Of Mercy (Acoustic)

X Lossless Decoder version 20181019 (151.1)

XLD extraction logfile from 2022-01-28 19:26:20 -0500

Aoife O'Donovan / Age Of Apathy (Deluxe Edition)

Used drive : HL-DT-ST DVDRAM GP65NS60 (revision PF00)
Media type : Pressed CD

Ripper mode : XLD Secure Ripper
Disable audio cache : OK for the drive with a cache less than 1375KiB
Make use of C2 pointers : NO
Read offset correction : 6
Max retry count : 100
Gap status : Analyzed, Appended (except HTOA)

TOC of the extracted CD
Track | Start | Length | Start sector | End sector
––––––––––––––––––––––––––––-
1 | 00:00:00 | 04:38:58 | 0 | 20907
2 | 04:38:58 | 03:41:63 | 20908 | 37545
3 | 08:20:46 | 03:30:15 | 37546 | 53310
4 | 11:50:61 | 03:58:16 | 53311 | 71176
5 | 15:49:02 | 03:35:15 | 71177 | 87316
6 | 19:24:17 | 03:42:19 | 87317 | 103985
7 | 23:06:36 | 03:33:21 | 103986 | 119981
8 | 26:39:57 | 02:41:11 | 119982 | 132067
9 | 29:20:68 | 03:02:39 | 132068 | 145756
10 | 32:23:32 | 04:03:18 | 145757 | 163999
11 | 36:26:50 | 03:32:21 | 164000 | 179920

AccurateRip Summary
Disc not found in AccurateRip DB.

All Tracks
Album gain : -4.92 dB
Peak : 0.942841
Statistics
Read error : 0
Jitter error (maybe fixed) : 0
Retry sector count : 0
Damaged sector count : 0

Track 01
Filename : /Users/mydrive/Music/Aoife O'Donovan - Age Of Apathy (Deluxe Edition) (2022) [FLAC]/01 Sister Starling.flac
Pre-gap length : 00:02:00

Track gain : -4.89 dB
Peak : 0.941681
CRC32 hash (test run) : 6F8C7D3D
CRC32 hash : 6F8C7D3D
CRC32 hash (skip zero) : 58ECA279
AccurateRip v1 signature : 7AB9942E
AccurateRip v2 signature : 66408F30
->Track not present in AccurateRip database.
Statistics
Read error : 0
Jitter error (maybe fixed) : 0
Retry sector count : 0
Damaged sector count : 0

Track 02
Filename : /Users/mydrive/Music/Aoife O'Donovan - Age Of Apathy (Deluxe Edition) (2022) [FLAC]/02 B61.flac
Pre-gap length : 00:00:58

Track gain : -5.06 dB
Peak : 0.941345
CRC32 hash (test run) : 5E9ACD09
CRC32 hash : 5E9ACD09
CRC32 hash (skip zero) : 1F16EF0D
AccurateRip v1 signature : 8EFD6E8E
AccurateRip v2 signature : 13D045C6
->Track not present in AccurateRip database.
Statistics
Read error : 0
Jitter error (maybe fixed) : 0
Retry sector count : 0
Damaged sector count : 0

Track 03
Filename : /Users/mydrive/Music/Aoife O'Donovan - Age Of Apathy (Deluxe Edition) (2022) [FLAC]/03 Phoenix.flac
Pre-gap length : 00:02:49

Track gain : -5.39 dB
Peak : 0.941803
CRC32 hash (test run) : 1E14D174
CRC32 hash : 1E14D174
CRC32 hash (skip zero) : 6E7B11A9
AccurateRip v1 signature : 3E18841B
AccurateRip v2 signature : DC1D1B99
->Track not present in AccurateRip database.
Statistics
Read error : 0
Jitter error (maybe fixed) : 0
Retry sector count : 0
Damaged sector count : 0

Track 04
Filename : /Users/mydrive/Music/Aoife O'Donovan - Age Of Apathy (Deluxe Edition) (2022) [FLAC]/04 Age Of Apathy.flac
Pre-gap length : 00:00:71

Track gain : -3.43 dB
Peak : 0.940765
CRC32 hash (test run) : FB0FF8EA
CRC32 hash : FB0FF8EA
CRC32 hash (skip zero) : D8D1BBB8
AccurateRip v1 signature : BC67F2FB
AccurateRip v2 signature : 0B5A0A71
->Track not present in AccurateRip database.
Statistics
Read error : 0
Jitter error (maybe fixed) : 0
Retry sector count : 0
Damaged sector count : 0

Track 05
Filename : /Users/mydrive/Music/Aoife O'Donovan - Age Of Apathy (Deluxe Edition) (2022) [FLAC]/05 Elevators.flac
Pre-gap length : 00:02:44

Track gain : -5.53 dB
Peak : 0.942841
CRC32 hash (test run) : 07E1DA0A
CRC32 hash : 07E1DA0A
CRC32 hash (skip zero) : 04FBEB95
AccurateRip v1 signature : BE9023A9
AccurateRip v2 signature : 7CAD0CE4
->Track not present in AccurateRip database.
Statistics
Read error : 0
Jitter error (maybe fixed) : 0
Retry sector count : 0
Damaged sector count : 0

Track 06
Filename : /Users/mydrive/Music/Aoife O'Donovan - Age Of Apathy (Deluxe Edition) (2022) [FLAC]/06 Prodigal Daughter.flac
Pre-gap length : 00:01:74

Track gain : -4.03 dB
Peak : 0.941345
CRC32 hash (test run) : 39CF866F
CRC32 hash : 39CF866F
CRC32 hash (skip zero) : F4BF7277
AccurateRip v1 signature : A14020B4
AccurateRip v2 signature : 4F5A88D0
->Track not present in AccurateRip database.
Statistics
Read error : 0
Jitter error (maybe fixed) : 0
Retry sector count : 0
Damaged sector count : 0

Track 07
Filename : /Users/mydrive/Music/Aoife O'Donovan - Age Of Apathy (Deluxe Edition) (2022) [FLAC]/07 Galahad.flac
Pre-gap length : 00:02:38

Track gain : -5.30 dB
Peak : 0.941895
CRC32 hash (test run) : DFB24575
CRC32 hash : DFB24575
CRC32 hash (skip zero) : 31953E10
AccurateRip v1 signature : 100E79F7
AccurateRip v2 signature : B725BB47
->Track not present in AccurateRip database.
Statistics
Read error : 0
Jitter error (maybe fixed) : 0
Retry sector count : 0
Damaged sector count : 0

Track 08
Filename : /Users/mydrive/Music/Aoife O'Donovan - Age Of Apathy (Deluxe Edition) (2022) [FLAC]/08 Town Of Mercy.flac
Pre-gap length : 00:00:48

Track gain : -4.14 dB
Peak : 0.941406
CRC32 hash (test run) : 64E80FAD
CRC32 hash : 64E80FAD
CRC32 hash (skip zero) : 6533633E
AccurateRip v1 signature : 69534EA8
AccurateRip v2 signature : A29943EC
->Track not present in AccurateRip database.
Statistics
Read error : 0
Jitter error (maybe fixed) : 0
Retry sector count : 0
Damaged sector count : 0

Track 09
Filename : /Users/mydrive/Music/Aoife O'Donovan - Age Of Apathy (Deluxe Edition) (2022) [FLAC]/09 Lucky Star.flac
Pre-gap length : 00:00:61

Track gain : -5.23 dB
Peak : 0.940704
CRC32 hash (test run) : 3679D785
CRC32 hash : 3679D785
CRC32 hash (skip zero) : 45733453
AccurateRip v1 signature : 2D87710E
AccurateRip v2 signature : 0F983CC3
->Track not present in AccurateRip database.
Statistics
Read error : 0
Jitter error (maybe fixed) : 0
Retry sector count : 0
Damaged sector count : 0

Track 10
Filename : /Users/mydrive/Music/Aoife O'Donovan - Age Of Apathy (Deluxe Edition) (2022) [FLAC]/10 What Do You Want From Yourself.flac
Pre-gap length : 00:01:21

Track gain : -4.36 dB
Peak : 0.940948
CRC32 hash (test run) : 5543E6EF
CRC32 hash : 5543E6EF
CRC32 hash (skip zero) : 1BC2B03D
AccurateRip v1 signature : 3B468FD3
AccurateRip v2 signature : 5DF13955
->Track not present in AccurateRip database.
Statistics
Read error : 0
Jitter error (maybe fixed) : 0
Retry sector count : 0
Damaged sector count : 0

Track 11
Filename : /Users/mydrive/Music/Aoife O'Donovan - Age Of Apathy (Deluxe Edition) (2022) [FLAC]/11 Passengers.flac
Pre-gap length : 00:01:53

Track gain : -5.89 dB
Peak : 0.940918
CRC32 hash (test run) : C7AC85C6
CRC32 hash : C7AC85C6
CRC32 hash (skip zero) : FCF7D5C0
AccurateRip v1 signature : 64841089
AccurateRip v2 signature : 7709F601
->Track not present in AccurateRip database.
Statistics
Read error : 0
Jitter error (maybe fixed) : 0
Retry sector count : 0
Damaged sector count : 0

No errors occurred

End of status report

––-BEGIN XLD SIGNATURE––-
XHHJ_NEXaQaO5DasO04_3zLvIjriDtfWwE8tKXxceGLXY.rPXtoRUPiE_.Jg1HBPRU7nYcbD2sRxG1jmaFyp.fkjJIdQLKAO.XBCBXC
––-END XLD SIGNATURE––-
X Lossless Decoder version 20181019 (151.1)

XLD extraction logfile from 2022-01-28 20:02:05 -0500

Aoife O'Donovan / Age Of Apathy (Deluxe Edition)

Used drive : HL-DT-ST DVDRAM GP65NS60 (revision PF00)
Media type : Pressed CD

Ripper mode : XLD Secure Ripper
Disable audio cache : OK for the drive with a cache less than 1375KiB
Make use of C2 pointers : NO
Read offset correction : 6
Max retry count : 100
Gap status : Analyzed, Appended (except HTOA)

TOC of the extracted CD
Track | Start | Length | Start sector | End sector
––––––––––––––––––––––––––––-
1 | 00:00:00 | 03:28:38 | 0 | 15637
2 | 03:28:38 | 03:32:15 | 15638 | 31552
3 | 07:00:53 | 03:36:64 | 31553 | 47816
4 | 10:37:42 | 03:57:42 | 47817 | 65633
5 | 14:35:09 | 04:04:40 | 65634 | 83973
6 | 18:39:49 | 03:22:03 | 83974 | 99126
7 | 22:01:52 | 04:28:45 | 99127 | 119271
8 | 26:30:22 | 03:14:66 | 119272 | 133887

AccurateRip Summary
Disc not found in AccurateRip DB.

All Tracks
Album gain : -2.52 dB
Peak : 0.965088
Statistics
Read error : 0
Jitter error (maybe fixed) : 0
Retry sector count : 0
Damaged sector count : 0

Track 01
Filename : /Users/mydrive/Music/Aoife O'Donovan - Age Of Apathy (Deluxe Edition) (2022) [FLAC]/01 Phoenix (Acoustic).flac
Pre-gap length : 00:02:00

Track gain : -2.26 dB
Peak : 0.964813
CRC32 hash (test run) : D4B9193B
CRC32 hash : D4B9193B
CRC32 hash (skip zero) : 067ACFE7
AccurateRip v1 signature : D13CAE22
AccurateRip v2 signature : 45F1E904
->Track not present in AccurateRip database.
Statistics
Read error : 0
Jitter error (maybe fixed) : 0
Retry sector count : 0
Damaged sector count : 0

Track 02
Filename : /Users/mydrive/Music/Aoife O'Donovan - Age Of Apathy (Deluxe Edition) (2022) [FLAC]/02 Galahad (Acoustic).flac

Track gain : -3.34 dB
Peak : 0.964813
CRC32 hash (test run) : ADFC869F
CRC32 hash : ADFC869F
CRC32 hash (skip zero) : 9B75726D
AccurateRip v1 signature : 0ED25962
AccurateRip v2 signature : 55393FF0
->Track not present in AccurateRip database.
Statistics
Read error : 0
Jitter error (maybe fixed) : 0
Retry sector count : 0
Damaged sector count : 0

Track 03
Filename : /Users/mydrive/Music/Aoife O'Donovan - Age Of Apathy (Deluxe Edition) (2022) [FLAC]/03 Passengers (Acoustic).flac

Track gain : -1.29 dB
Peak : 0.964844
CRC32 hash (test run) : 19490F4C
CRC32 hash : 19490F4C
CRC32 hash (skip zero) : D2CACF71
AccurateRip v1 signature : 8EEE821A
AccurateRip v2 signature : 82CD2EDE
->Track not present in AccurateRip database.
Statistics
Read error : 0
Jitter error (maybe fixed) : 0
Retry sector count : 0
Damaged sector count : 0

Track 04
Filename : /Users/mydrive/Music/Aoife O'Donovan - Age Of Apathy (Deluxe Edition) (2022) [FLAC]/04 B61 (Acoustic).flac

Track gain : -3.39 dB
Peak : 0.965088
CRC32 hash (test run) : 4970D251
CRC32 hash : 4970D251
CRC32 hash (skip zero) : 1E21F581
AccurateRip v1 signature : CF0D4C5B
AccurateRip v2 signature : 14183222
->Track not present in AccurateRip database.
Statistics
Read error : 0
Jitter error (maybe fixed) : 0
Retry sector count : 0
Damaged sector count : 0

Track 05
Filename : /Users/mydrive/Music/Aoife O'Donovan - Age Of Apathy (Deluxe Edition) (2022) [FLAC]/05 Age Of Apathy (Acoustic).flac

Track gain : -4.37 dB
Peak : 0.965057
CRC32 hash (test run) : B7722A16
CRC32 hash : B7722A16
CRC32 hash (skip zero) : 8186CBF4
AccurateRip v1 signature : FF4294AC
AccurateRip v2 signature : 6E444751
->Track not present in AccurateRip database.
Statistics
Read error : 0
Jitter error (maybe fixed) : 0
Retry sector count : 0
Damaged sector count : 0

Track 06
Filename : /Users/mydrive/Music/Aoife O'Donovan - Age Of Apathy (Deluxe Edition) (2022) [FLAC]/06 Elevators (Acoustic).flac

Track gain : -1.18 dB
Peak : 0.964996
CRC32 hash (test run) : E88A29F9
CRC32 hash : E88A29F9
CRC32 hash (skip zero) : 06604D39
AccurateRip v1 signature : 6B3B2ED3
AccurateRip v2 signature : 71864F4C
->Track not present in AccurateRip database.
Statistics
Read error : 0
Jitter error (maybe fixed) : 0
Retry sector count : 0
Damaged sector count : 0

Track 07
Filename : /Users/mydrive/Music/Aoife O'Donovan - Age Of Apathy (Deluxe Edition) (2022) [FLAC]/07 Sister Starling (Acoustic).flac

Track gain : -1.86 dB
Peak : 0.965088
CRC32 hash (test run) : E2A77923
CRC32 hash : E2A77923
CRC32 hash (skip zero) : B6340200
AccurateRip v1 signature : 66ACA928
AccurateRip v2 signature : 61820D07
->Track not present in AccurateRip database.
Statistics
Read error : 0
Jitter error (maybe fixed) : 0
Retry sector count : 0
Damaged sector count : 0

Track 08
Filename : /Users/mydrive/Music/Aoife O'Donovan - Age Of Apathy (Deluxe Edition) (2022) [FLAC]/08 Town Of Mercy (Acoustic).flac

Track gain : -1.23 dB
Peak : 0.964874
CRC32 hash (test run) : F5EC1F1F
CRC32 hash : F5EC1F1F
CRC32 hash (skip zero) : 599C0372
AccurateRip v1 signature : 0CBBBFB4
AccurateRip v2 signature : 47EA1CE3
->Track not present in AccurateRip database.
Statistics
Read error : 0
Jitter error (maybe fixed) : 0
Retry sector count : 0
Damaged sector count : 0

No errors occurred

End of status report

––-BEGIN XLD SIGNATURE––-
iwNXz.2M.gSiGXBWYAAfJhPTPJhX1NqAnjCgFgplvbgMjfndFIZyhNsCpQmR1rEWUzSLULw57V9LYJmDwkSoi96CIT2RhFtVYRvWaBW
––-END XLD SIGNATURE––-

Thanks to the Original ripper !