Yngwie J. Malmsteen's Rising Force - Rising Force (1984) [Re-Up]

Posted By: uff
Yngwie J. Malmsteen's Rising Force - Rising Force (1984) [Re-Up]

Yngwie J. Malmsteen's Rising Force - Rising Force (1984)
Metal | 1cd | EAC Rip | Flac + Cue + Log | covers
Polydor 825324-2 | rel: 1988 | 305Mb

Rising Force was a revelation upon its release in 1984; Eddie Van Halen had introduced dazzling speed to the realm of rock guitar technique, and the compositions of Randy Rhoads had begun to fuse heavy metal with neo-classical influences, but no one before Yngwie Malmsteen was able to combine those elements with such blinding virtuosity. Malmsteen's innovative guitar style made Rising Force a mandatory primer for '80s metal guitarists, with its classical chord progressions and Malmsteen's use of harmonic minor scales, a wide vibrato imitative of classical violinists, and impossibly fast picking techniques, including the sweep-picked arpeggio (sort of a cross between strumming a chord and picking each note individually). Malmsteen's obsessions with Bach, Beethoven, and Paganini are used in the service of a dark, stately, gothic atmosphere and sent guitar students scurrying to learn their works as well as Malmsteen's own. The true inauguration of the age of the guitar shredder. ~Allmusic

Track listing
01. Black Star (4:54)
02. Far Beyond The Sun (5:53)
03. Now Your Ships Are Burned (4:12)
04. Evil Eye (5:14)
05. Icarus' Dream Suite Op.4 (8:34)
06. As Above, So Below (4:39)
07. Little Savage (5:23)
08. Farewell (0:50)
~ (39:38)

Personnel
Yngwie Malmsteen – guitar, Moog Taurus, bass
Jeff Scott Soto – vocals
Jens Johansson – keyboard
Barriemore Barlow – drums


Exact Audio Copy V0.99 prebeta 4 from 23. January 2008

Отчёт EAC об извлечении, выполненном 15. января 2010, 20:54

Yngwie J. Malmsteen's Rising Force / Rising Force

Дисковод: PIONEER DVD-RW DVR-115D Adapter: 1 ID: 1

Режим чтения : Достоверность
Использование точного потока : Да
Отключение кэша аудио : Да
Использование указателей C2 : Нет

Коррекция смещения при чтении : 48
Способность читать области Lead-in и Lead-out : Нет
Заполнение пропущенных сэмплов тишиной : Да
Удаление блоков с тишиной в начале и конце : Нет
При вычислениях CRC использовались нулевые сэмплы : Да
Интерфейс : Установленный внешний ASPI-интерфейс

Выходной формат : Внутренние WAV-операции
Формат сэмплов : 44.100 Гц; 16 бит; стерео


TOC извлечённого CD

Трек | Старт | Длительность | Начальный сектор | Конечный сектор
––––––––––––––––––––––––––––––––––-
1 | 0:00.32 | 4:53.43 | 32 | 22049
2 | 4:54.00 | 5:52.50 | 22050 | 48499
3 | 10:46.50 | 4:11.62 | 48500 | 67386
4 | 14:58.37 | 5:14.13 | 67387 | 90949
5 | 20:12.50 | 8:33.50 | 90950 | 129474
6 | 28:46.25 | 4:39.20 | 129475 | 150419
7 | 33:25.45 | 5:22.47 | 150420 | 174616
8 | 38:48.17 | 0:49.53 | 174617 | 178344


Характеристики диапазона извлечения и сообщения об ошибках

Выбранный диапазон

Имя файла C:\MTemp\Yngwie J. Malmsteen's Rising Force - Rising Force.wav

Пиковый уровень 82.4 %
Качество диапазона 99.9 %
CRC теста B319EFCC
CRC копии B319EFCC
Копирование… OK

Ошибок не произошло


AccurateRip: сводка

Трек 1 точное извлечение (доверие 17) [E2956719]
Трек 2 точное извлечение (доверие 17) [A91D8DF3]
Трек 3 точное извлечение (доверие 17) [9EBDAC9A]
Трек 4 точное извлечение (доверие 17) [0D2ED98A]
Трек 5 точное извлечение (доверие 17) [5319D6C7]
Трек 6 точное извлечение (доверие 17) [EE2AC509]
Трек 7 точное извлечение (доверие 17) [D654608F]
Трек 8 точное извлечение (доверие 8) [C2471D8C]

Все треки извлечены точно

Конец отчёта



[CUETools log; Date: 2014.12.28. 19:22:52; Version: 2.1.4]
Pregap length 00:00:32.
[CTDB TOCID: fDGP6NDDm6e_59196CJMIM5w7xE-] found.
Track | CTDB Status
1 | (14/29) Accurately ripped
2 | (12/29) Accurately ripped
3 | (14/29) Accurately ripped
4 | (14/29) Accurately ripped
5 | (14/29) Accurately ripped
6 | (13/29) Accurately ripped
7 | (14/29) Accurately ripped
8 | (14/29) Accurately ripped
[AccurateRip ID: 000d2650-0057ac61-59094908] found.
Track [ CRC | V2 ] Status
01 [e2956719|f4c4c2b7] (039+026/233) Accurately ripped
02 [a91d8df3|2f5c18a9] (039+027/236) Accurately ripped
03 [9ebdac9a|7bcb4a39] (038+026/231) Accurately ripped
04 [0d2ed98a|75ba9b04] (039+027/234) Accurately ripped
05 [5319d6c7|6b4abcd9] (039+026/232) Accurately ripped
06 [ee2ac509|0887099b] (038+027/232) Accurately ripped
07 [d654608f|cab18efd] (038+027/230) Accurately ripped
08 [c2471d8c|b5ec405f] (025+026/229) Accurately ripped
Offsetted by -1331:
01 [3457efad] (023/233) Accurately ripped
02 [06db4f2d] (023/236) Accurately ripped
03 [f21d64c1] (023/231) Accurately ripped
04 [2b6ea5a2] (023/234) Accurately ripped
05 [0886a006] (023/232) Accurately ripped
06 [0cc69c0e] (023/232) Accurately ripped
07 [f849b94d] (023/230) Accurately ripped
08 [6c7eae25] (020/229) Accurately ripped
Offsetted by -667:
01 [bc05c8ec] (015/233) Accurately ripped
02 [b9e2e80e] (015/236) Accurately ripped
03 [ca1f3155] (015/231) Accurately ripped
04 [4eec0714] (015/234) Accurately ripped
05 [1725feb6] (014/232) Accurately ripped
06 [7d68fad2] (015/232) Accurately ripped
07 [5b22395d] (016/230) Accurately ripped
08 [057f9e5d] (014/229) Accurately ripped
Offsetted by -117:
01 [48bdb688] (002/233) Accurately ripped
02 [9766492e] (002/236) Accurately ripped
03 [390d4eaa] (002/231) Accurately ripped
04 [6d561585] (002/234) Accurately ripped
05 [938f9002] (002/232) Accurately ripped
06 [96e0107a] (002/232) Accurately ripped
07 [20abea61] (002/230) Accurately ripped
08 [4f0755eb] (002/229) Accurately ripped
Offsetted by 121:
01 [fc8570a7] (060/233) Accurately ripped
02 [04e4919e] (061/236) Accurately ripped
03 [3d01bba8] (059/231) Accurately ripped
04 [ca76d486] (059/234) Accurately ripped
05 [625ef4ab] (059/232) Accurately ripped
06 [821932a1] (058/232) Accurately ripped
07 [01c9b595] (057/230) Accurately ripped
08 [0fe4f921] (040/229) Accurately ripped

Track Peak [ CRC32 ] [W/O NULL]
– 82,4 [B319EFCC] [2FBB2C02]
01 82,4 [D737E5EC] [339D01F3]
02 76,0 [8C9C6BED] [EE556E93]
03 75,6 [61897756] [40DFB2D7]
04 75,9 [B99D6E2C] [B6B9CADD]
05 65,7 [6C01DEE2] [956957FE]
06 73,1 [054B0C6D] [D5308F7A]
07 76,5 [BA56F999] [E4FFCDED]
08 44,1 [05BC5D86] [39AD389B]


Thx to AntonieS