Subcategories

Vytas Brenner - Hermanos (1974) [Reissue 2001]

Posted By: gribovar
Vytas Brenner - Hermanos (1974) [Reissue 2001]

Vytas Brenner - Hermanos (1974) [Reissue 2001]
EAC Rip | FLAC (image+.cue+log) - 187 MB | MP3 CBR 320 kbps (LAME 3.93) - 77 MB | Covers (5 MB) included
Genre: Progressive Rock | RAR 3% Rec. | Label: Anes Records (CD-01160)

Vytas Brenner was a German born Venezuelan pianist, keyboardist and composer. His career started in the late 1960s and released his first album in 1973. His music took Latin American rhythms, as well as from unique Venezuelan tradition and combined them with Progressive Rock, to create delightful Symphonic prog, with elements of fusion, space rock and acoustic folk.

Tracklist:
01. Agua Clara
02. Madrugada
03. Amanecer
04. Danza con Pajaros
05. Gavilán
06. Pastos
07. Ganado
08. Estampida
09. Ana Karina Rote
10. Sentado en una Piedra

Total time: 30:31

Exact Audio Copy V0.99 prebeta 4 from 23. January 2008

Отчёт EAC об извлечении, выполненном 19. октября 2009, 17:50

Vytas Brenner / Hermanos

Дисковод: ASUS DRW-2014S1T Adapter: 1 ID: 0

Режим чтения : Достоверность
Использование точного потока : Да
Отключение кэша аудио : Да
Использование указателей C2 : Нет

Коррекция смещения при чтении : 6
Способность читать области Lead-in и Lead-out : Нет
Заполнение пропущенных сэмплов тишиной : Да
Удаление блоков с тишиной в начале и конце : Нет
При вычислениях CRC использовались нулевые сэмплы : Да
Интерфейс : Встроенный Win32-интерфейс для Win NT/2000

Выходной формат : Пользовательский кодировщик
Выбранный битрейт : 1024 kBit/s
Качество : Высокий
Добавление ID3-тэга : Нет
Утилита сжатия : C:\Program Files\Exact Audio Copy\Flac\flac.exe
Дополнительные параметры : -8 -V %s


TOC извлечённого CD

Трек | Старт | Длительность | Начальный сектор | Конечный сектор
––––––––––––––––––––––––––––––––––-
1 | 0:00.00 | 4:07.47 | 0 | 18571
2 | 4:07.47 | 1:41.43 | 18572 | 26189
3 | 5:49.15 | 1:43.30 | 26190 | 33944
4 | 7:32.45 | 1:41.72 | 33945 | 41591
5 | 9:14.42 | 5:24.08 | 41592 | 65899
6 | 14:38.50 | 2:10.12 | 65900 | 75661
7 | 16:48.62 | 3:25.60 | 75662 | 91096
8 | 20:14.47 | 1:31.73 | 91097 | 97994
9 | 21:46.45 | 4:51.37 | 97995 | 119856
10 | 26:38.07 | 3:53.00 | 119857 | 137331


Характеристики диапазона извлечения и сообщения об ошибках

Выбранный диапазон

Имя файла E:\Losless\Download\Vytas Brenner - Hermanos\Vytas Brenner - Hermanos.wav

Пиковый уровень 99.9 %
Качество диапазона 99.9 %
CRC теста 9DA30A72
CRC копии 9DA30A72
Копирование… OK

Ошибок не произошло


AccurateRip: сводка

Трек 1 нет в базе данных
Трек 2 нет в базе данных
Трек 3 нет в базе данных
Трек 4 нет в базе данных
Трек 5 нет в базе данных
Трек 6 нет в базе данных
Трек 7 нет в базе данных
Трек 8 нет в базе данных
Трек 9 нет в базе данных
Трек 10 нет в базе данных

Ни одного трека нет в базе AccurateRip

Конец отчёта

[CUETools log; Date: 10.01.2017 4:52:06; Version: 2.1.4]
[CTDB TOCID: Q3jUfSbB4iyR5D9Yt7MjeRZEbvg-] found.
Track | CTDB Status
1 | (3/3) Accurately ripped
2 | (3/3) Accurately ripped
3 | (3/3) Accurately ripped
4 | (3/3) Accurately ripped
5 | (3/3) Accurately ripped
6 | (3/3) Accurately ripped
7 | (3/3) Accurately ripped
8 | (3/3) Accurately ripped
9 | (3/3) Accurately ripped
10 | (3/3) Accurately ripped
[AccurateRip ID: 000ace2e-00570afa-6607270a] found.
Track [ CRC | V2 ] Status
01 [09e195f4|984179c7] (2+0/2) Accurately ripped
02 [35b551fe|5612c555] (2+0/2) Accurately ripped
03 [f91fead2|e9248822] (2+0/2) Accurately ripped
04 [b1619f5d|32b49b89] (2+0/2) Accurately ripped
05 [243b0918|fe81dd97] (2+0/2) Accurately ripped
06 [c6194967|44f561ba] (2+0/2) Accurately ripped
07 [189ff0b0|02ac8d85] (2+0/2) Accurately ripped
08 [eafc6cc8|ca7ed463] (2+0/2) Accurately ripped
09 [a7ec31ac|c57896d1] (2+0/2) Accurately ripped
10 [d2af7899|2058ef37] (2+0/2) Accurately ripped

Track Peak [ CRC32 ] [W/O NULL] [ LOG ]
– 99,9 [9DA30A72] [A95ABA88] CRC32
01 99,9 [51FA638C] [92E1255E]
02 99,9 [4A59674E] [5CB1C3D2]
03 99,9 [751B8C7C] [212BE492]
04 99,9 [AB2729FD] [44941A2C]
05 99,9 [66DFB3EB] [CE39977C]
06 99,9 [EAE602CB] [8E1251DB]
07 99,9 [887DB6F9] [E5DDF992]
08 94,7 [B9874DC5] [51C16633]
09 97,0 [7B339C40] [B0225443]
10 99,9 [13240B41] [883439CA]

Thanks to Бертольд Шварц