Subcategories

The Future Sound Of London - The Pulse EPs (2008)

Posted By: gribovar
The Future Sound Of London - The Pulse EPs (2008)

The Future Sound Of London - The Pulse EPs (2008)
EAC Rip | FLAC (image+.cue+log) - 595 MB | MP3 CBR 320 kbps (LAME 3.93) - 186 MB | Covers - 75 MB
Genre: IDM, Techno, Ambient | RAR 3% Rec. | Label: Jumpin' & Pumpin' (CD TOT 57)

The Pulse EPs gathers together some of the strongest tracks FSOL recorded before the release of Accelerator (1991). Originally pressed as four 12" EPs between 1991 and 1992, the record collects 16 pieces under the band's more well known aliases of Mental Cube, Indo Tribe, Yage and Smart Systems, plus the first ever Future Sound of London tracks (which, "Hardhead" in particular, are far removed from the layered, abstract work the name is most famous for). On that level, there is little here for those wanting another Lifeforms or Dead Cities, but any fans of Accelerator are urged to get ahold of this, and it works as a more singular and focussed effort than the similar Earthbeat compilation, which veers jarringly from vocal house to ambient breaks and acid house. Highlights are the opening two Indo Tribe tracks "Bring In The Pulse" and "In The Mind Of A Child", the surprisingly melodic Mental Cube piece "I'm Not Gonna Let You Do It" and any of the utterly silly Smart Systems rave workouts.
With an artwork booklet featuring the original 12" sleeves to complete the package, The Pulse EPs is a strong and worthwhile addition to the recent trawl through the band's extensive back catalogue.
Tracklist:
01. Indo Tribe - Bring In The Pulse (MFK Mix)
02. Indo Tribe - In The Mind Of A Child (First Born Mix) (5:05)
03. The Future Sound Of London - Hardhead (Frothin' At The Mouth Mix)
04. The Future Sound Of London - Pulse State (831 AM Mix)
05. The Future Sound Of London - Stolen Documents (Jazz Dub)
06. Smart Systems - Zip Code (Stress Ball Mix)
07. The Future Sound Of London - 1-In-8
08. Indo Tribe - I've Become What You Were (Insider Mix)
09. Smart Systems - Tingler (Four By Four Mix)
10. Indo Tribe - Owl (I Can See You Mix)
11. Indo Tribe - Bite The Bullet Baby (Jaques Reynoix Mix)
12. Yage - Calcium (Elemental Mix)
13. Mental Cube - I'm Not Gonna Let You Do It
14. Smart Systems - The Creator
15. Indo Tribe - Shrink
16. Smart Systems - Space Virus

Total time: 01:19:12

Exact Audio Copy V0.99 prebeta 4 from 23. January 2008

EAC extraction logfile from 24. June 2009, 23:35

The Future Sound Of London / The Pulse EPs

Used drive : Optiarc DVD RW AD-7220A Adapter: 1 ID: 2

Read mode : Secure
Utilize accurate stream : Yes
Defeat audio cache : Yes
Make use of C2 pointers : No

Read offset correction : 6
Overread into Lead-In and Lead-Out : No
Fill up missing offset samples with silence : Yes
Delete leading and trailing silent blocks : No
Null samples used in CRC calculations : Yes
Used interface : Installed external ASPI interface

Used output format : User Defined Encoder
Selected bitrate : 320 kBit/s
Quality : High
Add ID3 tag : No
Command line compressor : C:\Program Files\Exact Audio Copy\Flac\flac.exe
Additional command line options : –fast -T "ARTIST=%a" -T "TITLE=%t" -T "ALBUM=%g" -T "DATE=%y" -T "TRACKNUMBER=%n" -T "GENRE=%m" %s


TOC of the extracted CD

Track | Start | Length | Start sector | End sector
––––––––––––––––––––––––––––-
1 | 0:00.00 | 5:11.62 | 0 | 23386
2 | 5:11.62 | 5:04.50 | 23387 | 46236
3 | 10:16.37 | 6:05.58 | 46237 | 73669
4 | 16:22.20 | 7:19.16 | 73670 | 106610
5 | 23:41.36 | 5:23.22 | 106611 | 130857
6 | 29:04.58 | 5:16.48 | 130858 | 154605
7 | 34:21.31 | 4:43.40 | 154606 | 175870
8 | 39:04.71 | 4:18.49 | 175871 | 195269
9 | 43:23.45 | 4:35.04 | 195270 | 215898
10 | 47:58.49 | 4:56.10 | 215899 | 238108
11 | 52:54.59 | 4:32.68 | 238109 | 258576
12 | 57:27.52 | 4:52.61 | 258577 | 280537
13 | 62:20.38 | 3:49.29 | 280538 | 297741
14 | 66:09.67 | 4:22.25 | 297742 | 317416
15 | 70:32.17 | 4:13.64 | 317417 | 336455
16 | 74:46.06 | 4:25.64 | 336456 | 356394


Range status and errors

Selected range

Filename Y:\_EAC_New\The Future Sound Of London - The Pulse EPs.wav

Peak level 100.0 %
Range quality 100.0 %
Test CRC 7ED4834C
Copy CRC 7ED4834C
Copy OK

No errors occurred


AccurateRip summary

Track 1 accurately ripped (confidence 3) [43F685E4]
Track 2 accurately ripped (confidence 3) [4EADC28E]
Track 3 accurately ripped (confidence 3) [F20EC290]
Track 4 accurately ripped (confidence 3) [4C1B4B5F]
Track 5 accurately ripped (confidence 3) [E2B02C4C]
Track 6 accurately ripped (confidence 3) [3E8D2EAF]
Track 7 accurately ripped (confidence 3) [6AE9FE1A]
Track 8 accurately ripped (confidence 3) [A43663EE]
Track 9 accurately ripped (confidence 3) [E0DE7579]
Track 10 accurately ripped (confidence 3) [0F95712A]
Track 11 accurately ripped (confidence 3) [00772C63]
Track 12 accurately ripped (confidence 3) [D48572A5]
Track 13 accurately ripped (confidence 3) [AFAB841C]
Track 14 accurately ripped (confidence 3) [3BB11A2A]
Track 15 accurately ripped (confidence 3) [33D92D79]
Track 16 accurately ripped (confidence 3) [A6A863C5]

All tracks accurately ripped

End of status report

[CUETools log; Date: 10.11.2016 0:28:58; Version: 2.1.4]
[CTDB TOCID: DisSxwEHnijMYhfX1ZZimCutUUQ-] found.
Track | CTDB Status
1 | (11/11) Accurately ripped
2 | (11/11) Accurately ripped
3 | (11/11) Accurately ripped
4 | (11/11) Accurately ripped
5 | (11/11) Accurately ripped
6 | (11/11) Accurately ripped
7 | (11/11) Accurately ripped
8 | (11/11) Accurately ripped
9 | (11/11) Accurately ripped
10 | (11/11) Accurately ripped
11 | (11/11) Accurately ripped
12 | (11/11) Accurately ripped
13 | (11/11) Accurately ripped
14 | (11/11) Accurately ripped
15 | (11/11) Accurately ripped
16 | (11/11) Accurately ripped
[AccurateRip ID: 0030f1db-0242fdc2-f0128f10] found.
Track [ CRC | V2 ] Status
01 [43f685e4|a863bd43] (10+09/19) Accurately ripped
02 [4eadc28e|aa9e39e5] (10+09/19) Accurately ripped
03 [f20ec290|3aea7d81] (10+09/19) Accurately ripped
04 [4c1b4b5f|9a4aa1a3] (08+09/17) Accurately ripped
05 [e2b02c4c|b090f4b7] (10+09/19) Accurately ripped
06 [3e8d2eaf|1fde4770] (10+09/19) Accurately ripped
07 [6ae9fe1a|b73968a7] (10+09/19) Accurately ripped
08 [a43663ee|1d5e0d40] (10+09/19) Accurately ripped
09 [e0de7579|830ca3d5] (10+09/19) Accurately ripped
10 [0f95712a|87ab3dcc] (10+09/19) Accurately ripped
11 [00772c63|d453bb7b] (10+09/19) Accurately ripped
12 [d48572a5|6b74c0b0] (09+09/18) Accurately ripped
13 [afab841c|d4cedc85] (10+09/19) Accurately ripped
14 [3bb11a2a|3c6fc90d] (10+09/19) Accurately ripped
15 [33d92d79|72bed62d] (10+08/18) Accurately ripped
16 [a6a863c5|0d757494] (10+08/18) Accurately ripped

Track Peak [ CRC32 ] [W/O NULL] [ LOG ]
– 100,0 [7ED4834C] [DD4C051E] CRC32
01 92,4 [F8C21850] [FF9B51C1]
02 97,1 [121A0199] [05052B71]
03 100,0 [794C2C23] [EB8A0E80]
04 89,2 [9F484242] [41F0DF98]
05 98,2 [2A2A0718] [B4F22AF2]
06 95,5 [0FC241AA] [A51C8996]
07 98,9 [06F17BB4] [C29BCAD3]
08 93,0 [6C3ADC48] [C7988836]
09 98,6 [9EACB0A2] [A6465B39]
10 100,0 [CB30BB74] [AE3DB759]
11 92,6 [196C11DA] [4991A647]
12 100,0 [CE728395] [D5385272]
13 94,1 [334D620B] [564183C4]
14 87,0 [88502DAD] [75A28D8F]
15 99,8 [8FDF3411] [B9E36624]
16 93,4 [A88CC041] [3CC39542]

Thanks to EPSmuz

See also:


LOSSLESS:
Nitroflare.com
_______________

MP3 320 kbps:
Nitroflare.com
_______________

Covers:
Nitroflare.com

LOSSLESS:
Rapidgator.net
_______________

MP3 320 kbps:
Rapidgator.net
_______________

Covers:
Rapidgator.net