Subcategories

The Corrs - Best of The Corrs (2001)

Posted By: TmanHome
The Corrs - Best of The Corrs (2001)

The Corrs - Best of The Corrs (2001)
EAC | FLAC | Tracks (Cue & Log) ~543 mb | MP3 320 kbps CBR ~ 213 mb | Scans included | 71 min
Rock, Folk Rock | Label: Atlantic Records | Rel: 2001

The Corrs are an Irish band that combines rock with traditional Celtic Irish folk themes within their music. The group consists of the Corr siblings, Andrea (lead vocals, tin whistle); Sharon (violin, vocals); Caroline (drums, percussion, piano, bodhrán, vocals) and Jim (guitar, piano, keyboards, vocals). They are from Dundalk, Co. Louth, in Ireland. The Corrs have released six studio albums and numerous singles, which have reached platinum in many countries. Talk on Corners, their most successful album to date, reached multi-platinum status in Australia and in the UK it was the highest selling album of 1998. The band is one of only a handful of acts who have held the top two positions simultaneously in the UK album charts, with Talk on Corners at number one and Forgiven, Not Forgotten at number two. The latter was the second highest selling album in Australia in 1996, behind Alanis Morissette's Jagged Little Pill. Their third studio album, In Blue, went to number one in seventeen countries.

The Best of the Corrs features many of the Irish band's best-known songs from the mid- to late '90s, conveniently compiled onto one disc. Featured songs include "Right Time," "Dreams," "What Can I Do," and "Runaway," in addition to 15 others. Since the Corrs only released a handful of albums during the era captured on this disc, The Best of the Corrs isn't quite a vast as you'd expect a best-of collection to be. However, it's still a nice one-stop album for casual fans as well as those curious about the Corrs and not yet ready to begin exploring the group's LPs.

Tracklist:

01 - Would You Be Happier
02 - So Young (K-Klass remix)
03 - Runaway
04 - Breathless
05 - Radio (unplugged)
06 - What Can I Do (Tin Tin Out remix)
07 - The Right Time
08 - I Never Loved You Anyway
09 - Irresistible
10 - Forgiven, Not Forgotten
11 - Lough Erin Shore (unplugged)
12 - Only When I Sleep
13 - Love to Love You
14 - All the Love in the World (remix)
15 - Everybody Hurts (unplugged)
16 - Give Me a Reason
17 - Dreams
18 - Make You Mine

Exact Audio Copy V1.0 beta 4 from 7. December 2014

EAC extraction logfile from 11. April 2015, 10:30

The Corrs / Best Of The Corrs

Used drive : TSSTcorpCDDVDW SN-208FB Adapter: 1 ID: 0

Read mode : Secure
Utilize accurate stream : Yes
Defeat audio cache : Yes
Make use of C2 pointers : No

Read offset correction : 6
Overread into Lead-In and Lead-Out : No
Fill up missing offset samples with silence : Yes
Delete leading and trailing silent blocks : No
Null samples used in CRC calculations : Yes
Used interface : Native Win32 interface for Win NT & 2000
Gap handling : Appended to previous track

Used output format : User Defined Encoder
Selected bitrate : 1024 kBit/s
Quality : High
Add ID3 tag : No
Command line compressor : C:\Program Files (x86)\Kodeki za Glasbo\FLAC\flac.exe
Additional command line options : -8 -V -T "ARTIST=%artist%" -T "TITLE=%title%" -T "ALBUM=%albumtitle%" -T "DATE=%year%" -T "TRACKNUMBER=%tracknr%" -T "TOTALTRACKS=%numtracks%" -T "GENRE=%genre%" -T "ALBUMARTIST=%albumartist%" -T "ALBUM ARTIST=%albumartist%" -T "COMMENT=EAC Secure Mode, Test & Copy, AccurateRip, FLAC -8" %source%


TOC of the extracted CD

Track | Start | Length | Start sector | End sector
––––––––––––––––––––––––––––-
1 | 0:00.00 | 3:26.30 | 0 | 15479
2 | 3:26.30 | 4:14.27 | 15480 | 34556
3 | 7:40.57 | 3:47.13 | 34557 | 51594
4 | 11:27.70 | 3:26.55 | 51595 | 67099
5 | 14:54.50 | 4:14.52 | 67100 | 86201
6 | 19:09.27 | 4:15.25 | 86202 | 105351
7 | 23:24.52 | 4:07.63 | 105352 | 123939
8 | 27:32.40 | 3:54.15 | 123940 | 141504
9 | 31:26.55 | 3:40.02 | 141505 | 158006
10 | 35:06.57 | 4:17.33 | 158007 | 177314
11 | 39:24.15 | 4:28.57 | 177315 | 197471
12 | 43:52.72 | 3:51.40 | 197472 | 214836
13 | 47:44.37 | 3:23.18 | 214837 | 230079
14 | 51:07.55 | 3:56.37 | 230080 | 247816
15 | 55:04.17 | 5:49.48 | 247817 | 274039
16 | 60:53.65 | 3:29.57 | 274040 | 289771
17 | 64:23.47 | 4:01.38 | 289772 | 307884
18 | 68:25.10 | 3:15.02 | 307885 | 322511


Track 1

Filename M:\2. my rip in preparation\3 - in treatment\The Corrs - Best Of The Corrs (2001) [FLAC] {143 Records, Lava, Atlantic 7567 93073-2}\01 - Would You Be Happier.wav

Pre-gap length 0:00:02.00

Peak level 98.8 %
Extraction speed 2.5 X
Track quality 100.0 %
Test CRC 14AC2134
Copy CRC 14AC2134
Accurately ripped (confidence 200) [4676458A] (AR v2)
Copy OK

Track 2

Filename M:\2. my rip in preparation\3 - in treatment\The Corrs - Best Of The Corrs (2001) [FLAC] {143 Records, Lava, Atlantic 7567 93073-2}\02 - So Young (K-Klass remix).wav

Pre-gap length 0:00:01.73

Peak level 98.8 %
Extraction speed 3.1 X
Track quality 100.0 %
Test CRC DFBBEFC7
Copy CRC DFBBEFC7
Accurately ripped (confidence 200) [782CE90F] (AR v2)
Copy OK

Track 3

Filename M:\2. my rip in preparation\3 - in treatment\The Corrs - Best Of The Corrs (2001) [FLAC] {143 Records, Lava, Atlantic 7567 93073-2}\03 - Runaway.wav

Pre-gap length 0:00:01.66

Peak level 98.8 %
Extraction speed 3.3 X
Track quality 100.0 %
Test CRC AFD1B61B
Copy CRC AFD1B61B
Accurately ripped (confidence 200) [76CEDB72] (AR v2)
Copy OK

Track 4

Filename M:\2. my rip in preparation\3 - in treatment\The Corrs - Best Of The Corrs (2001) [FLAC] {143 Records, Lava, Atlantic 7567 93073-2}\04 - Breathless.wav

Pre-gap length 0:00:00.24

Peak level 98.8 %
Extraction speed 3.4 X
Track quality 100.0 %
Test CRC 0F6FD9BF
Copy CRC 0F6FD9BF
Accurately ripped (confidence 200) [87090AD5] (AR v2)
Copy OK

Track 5

Filename M:\2. my rip in preparation\3 - in treatment\The Corrs - Best Of The Corrs (2001) [FLAC] {143 Records, Lava, Atlantic 7567 93073-2}\05 - Radio (unplugged).wav

Pre-gap length 0:00:00.44

Peak level 91.4 %
Extraction speed 3.8 X
Track quality 100.0 %
Test CRC CC1FD9B2
Copy CRC CC1FD9B2
Accurately ripped (confidence 200) [ABD70C23] (AR v2)
Copy OK

Track 6

Filename M:\2. my rip in preparation\3 - in treatment\The Corrs - Best Of The Corrs (2001) [FLAC] {143 Records, Lava, Atlantic 7567 93073-2}\06 - What Can I Do (Tin Tin Out remix).wav

Pre-gap length 0:00:00.38

Peak level 98.8 %
Extraction speed 3.9 X
Track quality 100.0 %
Test CRC 65E51BA4
Copy CRC 65E51BA4
Accurately ripped (confidence 200) [8F5D8B4D] (AR v2)
Copy OK

Track 7

Filename M:\2. my rip in preparation\3 - in treatment\The Corrs - Best Of The Corrs (2001) [FLAC] {143 Records, Lava, Atlantic 7567 93073-2}\07 - The Right Time.wav

Pre-gap length 0:00:00.86

Peak level 98.8 %
Extraction speed 4.2 X
Track quality 100.0 %
Test CRC 49F1401A
Copy CRC 49F1401A
Accurately ripped (confidence 200) [DDEEEDEE] (AR v2)
Copy OK

Track 8

Filename M:\2. my rip in preparation\3 - in treatment\The Corrs - Best Of The Corrs (2001) [FLAC] {143 Records, Lava, Atlantic 7567 93073-2}\08 - I Never Loved You Anyway.wav

Pre-gap length 0:00:00.46

Peak level 98.7 %
Extraction speed 4.3 X
Track quality 100.0 %
Test CRC A876A313
Copy CRC A876A313
Accurately ripped (confidence 200) [6DF56625] (AR v2)
Copy OK

Track 9

Filename M:\2. my rip in preparation\3 - in treatment\The Corrs - Best Of The Corrs (2001) [FLAC] {143 Records, Lava, Atlantic 7567 93073-2}\09 - Irresistible.wav

Pre-gap length 0:00:00.64

Peak level 98.8 %
Extraction speed 4.4 X
Track quality 100.0 %
Test CRC 2D21B097
Copy CRC 2D21B097
Accurately ripped (confidence 200) [FD799474] (AR v2)
Copy OK

Track 10

Filename M:\2. my rip in preparation\3 - in treatment\The Corrs - Best Of The Corrs (2001) [FLAC] {143 Records, Lava, Atlantic 7567 93073-2}\10 - Forgiven, Not Forgotten.wav

Pre-gap length 0:00:00.73

Peak level 98.7 %
Extraction speed 4.6 X
Track quality 100.0 %
Test CRC 520E1EFA
Copy CRC 520E1EFA
Accurately ripped (confidence 200) [36B10DDF] (AR v2)
Copy OK

Track 11

Filename M:\2. my rip in preparation\3 - in treatment\The Corrs - Best Of The Corrs (2001) [FLAC] {143 Records, Lava, Atlantic 7567 93073-2}\11 - Lough Erin Shore (unplugged).wav

Pre-gap length 0:00:01.50

Peak level 97.7 %
Extraction speed 4.8 X
Track quality 100.0 %
Test CRC 3BBECD65
Copy CRC 3BBECD65
Accurately ripped (confidence 200) [76B2F732] (AR v2)
Copy OK

Track 12

Filename M:\2. my rip in preparation\3 - in treatment\The Corrs - Best Of The Corrs (2001) [FLAC] {143 Records, Lava, Atlantic 7567 93073-2}\12 - Only When I Sleep.wav

Pre-gap length 0:00:00.93

Peak level 98.8 %
Extraction speed 4.9 X
Track quality 100.0 %
Test CRC 5B7A229E
Copy CRC 5B7A229E
Accurately ripped (confidence 200) [F10D6D7F] (AR v2)
Copy OK

Track 13

Filename M:\2. my rip in preparation\3 - in treatment\The Corrs - Best Of The Corrs (2001) [FLAC] {143 Records, Lava, Atlantic 7567 93073-2}\13 - Love to Love You.wav

Pre-gap length 0:00:01.22

Peak level 97.7 %
Extraction speed 4.9 X
Track quality 100.0 %
Test CRC E6E02F41
Copy CRC E6E02F41
Accurately ripped (confidence 200) [43254D16] (AR v2)
Copy OK

Track 14

Filename M:\2. my rip in preparation\3 - in treatment\The Corrs - Best Of The Corrs (2001) [FLAC] {143 Records, Lava, Atlantic 7567 93073-2}\14 - All the Love in the World (remix).wav

Pre-gap length 0:00:01.17

Peak level 94.9 %
Extraction speed 5.2 X
Track quality 100.0 %
Test CRC BF3A13AA
Copy CRC BF3A13AA
Accurately ripped (confidence 200) [EF17C122] (AR v2)
Copy OK

Track 15

Filename M:\2. my rip in preparation\3 - in treatment\The Corrs - Best Of The Corrs (2001) [FLAC] {143 Records, Lava, Atlantic 7567 93073-2}\15 - Everybody Hurts (unplugged).wav

Pre-gap length 0:00:01.02

Peak level 97.5 %
Extraction speed 5.6 X
Track quality 100.0 %
Test CRC 31C76B44
Copy CRC 31C76B44
Accurately ripped (confidence 200) [D73E41FE] (AR v2)
Copy OK

Track 16

Filename M:\2. my rip in preparation\3 - in treatment\The Corrs - Best Of The Corrs (2001) [FLAC] {143 Records, Lava, Atlantic 7567 93073-2}\16 - Give Me a Reason.wav

Peak level 97.7 %
Extraction speed 3.6 X
Track quality 99.9 %
Test CRC 9CEE174D
Copy CRC 9CEE174D
Accurately ripped (confidence 200) [6DB68090] (AR v2)
Copy OK

Track 17

Filename M:\2. my rip in preparation\3 - in treatment\The Corrs - Best Of The Corrs (2001) [FLAC] {143 Records, Lava, Atlantic 7567 93073-2}\17 - Dreams.wav

Pre-gap length 0:00:00.26

Peak level 90.1 %
Extraction speed 4.4 X
Track quality 100.0 %
Test CRC 22687E98
Copy CRC 22687E98
Accurately ripped (confidence 200) [E83CE5AA] (AR v2)
Copy OK

Track 18

Filename M:\2. my rip in preparation\3 - in treatment\The Corrs - Best Of The Corrs (2001) [FLAC] {143 Records, Lava, Atlantic 7567 93073-2}\18 - Make You Mine.wav

Pre-gap length 0:00:01.06

Peak level 93.4 %
Extraction speed 2.9 X
Track quality 100.0 %
Test CRC 192F6CE3
Copy CRC 192F6CE3
Accurately ripped (confidence 200) [C9BA177B] (AR v2)
Copy OK


All tracks accurately ripped

No errors occurred

End of status report

–– CUETools DB Plugin V2.1.4

[CTDB TOCID: 3vCOdM4JK2FQjQdGBAE8ChwJLoY-] found
Submit result: 3vCOdM4JK2FQjQdGBAE8ChwJLoY- has been confirmed
Track | CTDB Status
1 | (250/252) Accurately ripped
2 | (250/252) Accurately ripped
3 | (250/252) Accurately ripped
4 | (250/252) Accurately ripped
5 | (250/252) Accurately ripped
6 | (250/252) Accurately ripped
7 | (249/252) Accurately ripped
8 | (249/252) Accurately ripped
9 | (249/252) Accurately ripped
10 | (251/252) Accurately ripped
11 | (250/252) Accurately ripped
12 | (250/252) Accurately ripped
13 | (250/252) Accurately ripped
14 | (250/252) Accurately ripped
15 | (250/252) Accurately ripped
16 | (250/252) Accurately ripped
17 | (250/252) Accurately ripped
18 | (249/252) Accurately ripped


==== Log checksum D03E7E3C21A6DDB86D8F22D46421B9ADDAB0198A982087C5F1E2F19AD2CFB9D2 ====


All thanks to the original uploader: Tilzzy