Subcategories

The Byrds - Ballad Of Easy Rider (1969) [1997 Legacy Expanded Remaster]

Posted By: hill0
b
The Byrds - Ballad Of Easy Rider (1969) [1997 Legacy Expanded Remaster]

The Byrds - Ballad Of Easy Rider (1969) [1997 Legacy Expanded Remaster]
EAC Rip | FLAC (tracks & cue & log) | 332 MB | MP3 CBR 320 kbps | 130 MB | Artwork (JPG) | 51 MB | 56:54
Genre: Psychedelic Rock / Country Rock / Folk Rock | Country: USA | Label: Columbia/ Legacy | CK 65114

Ballad of Easy Rider was one of two great Byrds’ albums to be released after the groups’ acknowledged heyday (Mr. Tambourine Man to Sweetheart of the Rodeo). Released in 1969, before the excellent double set Untitled, Ballad of Easy Rider was a quiet, tranquil record with good songs and fine, professional performances. By this time Clarence White was a full-time member and the group was looking to rebound from their prior release, the uneven Dr. Byrds and Mr. Hyde. Ballad of Easy Rider kicked off with the title track, two minutes of beautiful countrified folk-rock that was notable for its stately orchestration. This was definitely one of the latter group’s finest performances and legend has it that Dylan wrote half the lyrics down on a napkin (McGuinn naturally finished up the song). Perhaps the album’s most popular track was the gospel influenced “Jesus Is Just Alright,” a fine pop number in it’s own right that reached the lower regions of the charts. There were great covers of “Tulsa Country” (country-rock with excellent guitar work from Clarence White), “There Must Be Someone I Can Turn To” (a classic Gosdin Brothers‘ track), “Jack Tarr The Sailor” (a sea shanty folk-rocker with stinging electric guitar and banjo) and Woody Guthrie’s “Deportee.” The story behind “There Must Be Someone I Can Turn To” is rather interesting. One night Vern Gosdin came home after playing a gig to find his house completely empty. His wife and kids were gone along with the furniture and there was a goodbye note from his wife. With this in mind, Vern sat down and wrote “There Must Be Someone I Can Turn To.” The Byrds decided to include this number into their set because of its meaning and emotional power.
The Byrds - Ballad Of Easy Rider (1969) [1997 Legacy Expanded Remaster]



Tracklist :

1. Ballad of Easy Rider
2. Fido
3. Oil in My Lamp
4. Tulsa County
5. Jack Tarr the Sailor
6. Jesus Is Just Alright
7. It's All Over Now, Baby Blue
8. There Must Be Someone (I Can Turn To)
9. Gunga Din (Gene Parsons)
10. Deportee (Plane Wreck at Los Gatos)
11. Armstrong, Aldrin and Collins
bonus tracks:
12. Way Beyond the Sun
13. Mae Jean Goes to Hollywood
14. Oil in My Lamp (alternate version)
15. Tulsa County (alternate version)
16. Fiddler a Dram (Moog Experiment)
17. Ballad of Easy Rider (long version)
18. Build It Up (plus radio spots)

EAC extraction logfile from 5. April 2009, 23:10 for CD
The Byrds / Ballad of Easy Rider [Legacy]

Used drive : TSSTcorpCDDVDW TS-H653N Adapter: 0 ID: 1
Read mode : Secure with NO C2, accurate stream, disable cache
Read offset correction : 6
Overread into Lead-In and Lead-Out : No

Used output format : C:\Program Files\FLAC\flac.exe (User Defined Encoder)
320 kBit/s
Additional command line options : -8 -V -T "ARTIST=%a" -T "TITLE=%t" -T "ALBUM=%g" -T "DATE=%y" -T "TRACKNUMBER=%n" -T "GENRE=%m" -T "COMMENT=EAC FLAC -8" %s

Other options :
Fill up missing offset samples with silence : Yes
Delete leading and trailing silent blocks : No
Installed external ASPI interface


Track 1
Filename C:\Rips\The Byrds - Ballad Of Easy Rider (1969) [FLAC] {1997 Legacy Expanded Remaster}\01 - Ballad Of Easy Rider.wav

Pre-gap length 0:00:02.00

Peak level 98.8 %
Track quality 99.9 %
Test CRC 15AB8B2E
Copy CRC 15AB8B2E
Copy OK

Track 2
Filename C:\Rips\The Byrds - Ballad Of Easy Rider (1969) [FLAC] {1997 Legacy Expanded Remaster}\02 - Fido.wav

Pre-gap length 0:00:03.17

Peak level 98.8 %
Track quality 100.0 %
Test CRC 391FF008
Copy CRC 391FF008
Copy OK

Track 3
Filename C:\Rips\The Byrds - Ballad Of Easy Rider (1969) [FLAC] {1997 Legacy Expanded Remaster}\03 - Oil In My Lamp.wav

Pre-gap length 0:00:02.93

Peak level 98.8 %
Track quality 100.0 %
Test CRC 2A13C46A
Copy CRC 2A13C46A
Copy OK

Track 4
Filename C:\Rips\The Byrds - Ballad Of Easy Rider (1969) [FLAC] {1997 Legacy Expanded Remaster}\04 - Tulsa County.wav

Pre-gap length 0:00:03.02

Peak level 90.1 %
Track quality 100.0 %
Test CRC 671FA2FF
Copy CRC 671FA2FF
Copy OK

Track 5
Filename C:\Rips\The Byrds - Ballad Of Easy Rider (1969) [FLAC] {1997 Legacy Expanded Remaster}\05 - Jack Tarr The Sailor.wav

Pre-gap length 0:00:02.69

Peak level 82.2 %
Track quality 100.0 %
Test CRC 9431F985
Copy CRC 9431F985
Copy OK

Track 6
Filename C:\Rips\The Byrds - Ballad Of Easy Rider (1969) [FLAC] {1997 Legacy Expanded Remaster}\06 - Jesus Is Just Alright.wav

Pre-gap length 0:00:02.84

Peak level 98.8 %
Track quality 100.0 %
Test CRC 04BE8FBC
Copy CRC 04BE8FBC
Copy OK

Track 7
Filename C:\Rips\The Byrds - Ballad Of Easy Rider (1969) [FLAC] {1997 Legacy Expanded Remaster}\07 - It's All Over Now, Baby Blue.wav

Pre-gap length 0:00:01.70

Peak level 98.8 %
Track quality 100.0 %
Test CRC 1D9D3A9B
Copy CRC 1D9D3A9B
Copy OK

Track 8
Filename C:\Rips\The Byrds - Ballad Of Easy Rider (1969) [FLAC] {1997 Legacy Expanded Remaster}\08 - There Must Be Someone (I Can Turn To).wav

Pre-gap length 0:00:03.33

Peak level 98.8 %
Track quality 100.0 %
Test CRC 6E33E51A
Copy CRC 6E33E51A
Copy OK

Track 9
Filename C:\Rips\The Byrds - Ballad Of Easy Rider (1969) [FLAC] {1997 Legacy Expanded Remaster}\09 - Gunga Din.wav

Pre-gap length 0:00:03.46

Peak level 98.8 %
Track quality 100.0 %
Test CRC 81EFF4AD
Copy CRC 81EFF4AD
Copy OK

Track 10
Filename C:\Rips\The Byrds - Ballad Of Easy Rider (1969) [FLAC] {1997 Legacy Expanded Remaster}\10 - Deportee (Plane Wreck At Los Gatos).wav

Pre-gap length 0:00:02.33

Peak level 92.4 %
Track quality 100.0 %
Test CRC F78ADB3B
Copy CRC F78ADB3B
Copy OK

Track 11
Filename C:\Rips\The Byrds - Ballad Of Easy Rider (1969) [FLAC] {1997 Legacy Expanded Remaster}\11 - Armstrong, Aldrin And Collins.wav

Peak level 98.8 %
Track quality 100.0 %
Test CRC 2091781C
Copy CRC 2091781C
Copy OK

Track 12
Filename C:\Rips\The Byrds - Ballad Of Easy Rider (1969) [FLAC] {1997 Legacy Expanded Remaster}\12 - Way Beyond The Sun.wav

Pre-gap length 0:00:09.84

Peak level 98.8 %
Track quality 99.9 %
Test CRC 776F575C
Copy CRC 776F575C
Copy OK

Track 13
Filename C:\Rips\The Byrds - Ballad Of Easy Rider (1969) [FLAC] {1997 Legacy Expanded Remaster}\13 - Mae Jean Goes To Hollywood.wav

Pre-gap length 0:00:02.82

Peak level 97.0 %
Track quality 100.0 %
Test CRC CC474B30
Copy CRC CC474B30
Copy OK

Track 14
Filename C:\Rips\The Byrds - Ballad Of Easy Rider (1969) [FLAC] {1997 Legacy Expanded Remaster}\14 - Oil In My Lamp (alt).wav

Pre-gap length 0:00:02.84

Peak level 98.8 %
Track quality 100.0 %
Test CRC 9C8F644D
Copy CRC 9C8F644D
Copy OK

Track 15
Filename C:\Rips\The Byrds - Ballad Of Easy Rider (1969) [FLAC] {1997 Legacy Expanded Remaster}\15 - Tulsa County (alt).wav

Pre-gap length 0:00:02.86

Peak level 98.8 %
Track quality 99.9 %
Test CRC C86494E7
Copy CRC C86494E7
Copy OK

Track 16
Filename C:\Rips\The Byrds - Ballad Of Easy Rider (1969) [FLAC] {1997 Legacy Expanded Remaster}\16 - Fiddler A Dram (Moog Experiment).wav

Pre-gap length 0:00:02.82

Peak level 98.8 %
Track quality 100.0 %
Test CRC ED766835
Copy CRC ED766835
Copy OK

Track 17
Filename C:\Rips\The Byrds - Ballad Of Easy Rider (1969) [FLAC] {1997 Legacy Expanded Remaster}\17 - Ballad Of Easy Rider (long version).wav

Pre-gap length 0:00:03.06

Peak level 98.8 %
Track quality 100.0 %
Test CRC 18128504
Copy CRC 18128504
Copy OK

Track 18
Filename C:\Rips\The Byrds - Ballad Of Easy Rider (1969) [FLAC] {1997 Legacy Expanded Remaster}\18 - Build It Up (inst).wav

Pre-gap length 0:00:02.82

Peak level 98.8 %
Track quality 100.0 %
Test CRC DBFB57E7
Copy CRC DBFB57E7
Copy OK

No errors occured


End of status report

[CUETools log; Date: 11.08.2016 18:40:03; Version: 2.1.5]
[CTDB TOCID: 5hKZVTQ8PcvO302vooDpqmuH8z4-] found.
Track | CTDB Status
1 | (28/28) Accurately ripped
2 | (27/28) Accurately ripped
3 | (27/28) Accurately ripped
4 | (27/28) Accurately ripped
5 | (27/28) Accurately ripped
6 | (27/28) Accurately ripped
7 | (27/28) Accurately ripped
8 | (27/28) Accurately ripped
9 | (25/28) Accurately ripped, or (1/28) differs in 2 samples @02:36:12,02:36:73
10 | (27/28) Accurately ripped
11 | (27/28) Accurately ripped
12 | (27/28) Accurately ripped
13 | (27/28) Accurately ripped
14 | (27/28) Accurately ripped
15 | (27/28) Accurately ripped
16 | (27/28) Accurately ripped
17 | (27/28) Accurately ripped
18 | (27/28) Accurately ripped
[AccurateRip ID: 0023b8a2-01dfd0cb-d90d5412] found.
Track [ CRC | V2 ] Status
01 [b6b9117a|a2aba338] (06+02/58) Accurately ripped
02 [77b1c65e|64fd47a6] (06+02/55) Accurately ripped
03 [9bbcd897|1c19d452] (06+02/56) Accurately ripped
04 [61e94bdd|1062f7aa] (06+02/56) Accurately ripped
05 [9134eb05|648a7d19] (06+02/55) Accurately ripped
06 [89b17560|7dd300d5] (06+02/57) Accurately ripped
07 [eebc6210|88cdb021] (06+02/57) Accurately ripped
08 [fadbfa58|a4a18361] (06+02/56) Accurately ripped
09 [76ca7e25|b123a9ac] (06+02/56) Accurately ripped
10 [24c6ccca|3658900e] (06+02/56) Accurately ripped
11 [665499b6|20463843] (06+02/55) Accurately ripped
12 [42b70378|af536f7f] (06+02/53) Accurately ripped
13 [f4212adb|9db3e019] (06+02/55) Accurately ripped
14 [fc6eef3d|91bbe992] (06+02/54) Accurately ripped
15 [1d5194c4|52a5e90c] (06+02/54) Accurately ripped
16 [3e0e8e08|bd908fba] (06+02/54) Accurately ripped
17 [0b69fa4f|87d1988d] (06+02/56) Accurately ripped
18 [53400437|f3661856] (05+02/52) Accurately ripped
Offsetted by -2416:
01 [9a1fe11a] (03/58) Accurately ripped
02 [3dfbc0de] (02/55) Accurately ripped
03 [75447077] (02/56) Accurately ripped
04 [9077c8bd] (02/56) Accurately ripped
05 [d41e28e5] (02/55) Accurately ripped
06 [e104b4a0] (02/57) Accurately ripped
07 [a7560940] (03/57) Accurately ripped
08 [c84a6b48] (03/56) Accurately ripped
09 [c6ad7cd5] (03/56) Accurately ripped
10 [a377cbfe] (02/56) Accurately ripped
11 [3fa4588e] (02/55) Accurately ripped
12 [26b07458] (02/53) Accurately ripped
13 [344ab76b] (03/55) Accurately ripped
14 [185fb81d] (02/54) Accurately ripped
15 [76d82f24] (02/54) Accurately ripped
16 [74fe47d8] (02/54) Accurately ripped
17 [d9d68bcf] (02/56) Accurately ripped
18 [894865f7] (02/52) Accurately ripped
Offsetted by -1642:
01 [68cbde96] (06/58) Accurately ripped
02 [23f7f94e] (06/55) Accurately ripped
03 [201bc14b] (06/56) Accurately ripped
04 [a8559471] (06/56) Accurately ripped
05 [9591bdf9] (06/55) Accurately ripped
06 [e9b46b98] (06/57) Accurately ripped
07 [bbe0ff22] (06/57) Accurately ripped
08 [f87db692] (06/56) Accurately ripped
09 [7668cb07] (06/56) Accurately ripped
10 [9063e53e] (06/56) Accurately ripped
11 [e42a2b4e] (06/55) Accurately ripped
12 [60d54f8c] (06/53) Accurately ripped
13 [cca9e8b1] (06/55) Accurately ripped
14 [6910ac51] (06/54) Accurately ripped
15 [7acca368] (06/54) Accurately ripped
16 [dd093756] (06/54) Accurately ripped
17 [9d0153df] (06/56) Accurately ripped
18 [6e6fac5f] (06/52) Accurately ripped
Offsetted by -1403:
01 [d29e6a0c] (04/58) Accurately ripped
02 [e758b566] (04/55) Accurately ripped
03 [4f91d69d] (04/56) Accurately ripped
04 [19dfdaf3] (04/56) Accurately ripped
05 [1fb121eb] (04/55) Accurately ripped
06 [a34a9884] (04/57) Accurately ripped
07 [49d456f7] (04/57) Accurately ripped
08 [cd7e566b] (04/56) Accurately ripped
09 [32f4fca4] (04/56) Accurately ripped
10 [3c12877f] (04/56) Accurately ripped
11 [3761022f] (04/55) Accurately ripped
12 [182974ce] (04/53) Accurately ripped
13 [d3082140] (04/55) Accurately ripped
14 [ba8a2013] (04/54) Accurately ripped
15 [1184f052] (04/54) Accurately ripped
16 [fbd702f1] (04/54) Accurately ripped
17 [ca62e107] (04/56) Accurately ripped
18 [bf72dee3] (04/52) Accurately ripped
Offsetted by -609:
01 [131de5d0] (03/58) Accurately ripped
02 [7d4799f6] (03/55) Accurately ripped
03 [0d60d389] (03/56) Accurately ripped
04 [2e6376ff] (03/56) Accurately ripped
05 [ae938697] (03/55) Accurately ripped
06 [d537140c] (03/57) Accurately ripped
07 [29fbb275] (03/57) Accurately ripped
08 [be1ccc01] (03/56) Accurately ripped
09 [35f2a6d2] (03/56) Accurately ripped
10 [a6ab9b7f] (03/56) Accurately ripped
11 [1728203f] (03/55) Accurately ripped
12 [0d07295a] (03/53) Accurately ripped
13 [7f37821a] (03/55) Accurately ripped
14 [d1c7eb9f] (03/54) Accurately ripped
15 [fa7476ce] (03/54) Accurately ripped
16 [ea359413] (03/54) Accurately ripped
17 [1b86d3f7] (03/56) Accurately ripped
18 [6e53b7fb] (03/52) Accurately ripped

Track Peak [ CRC32 ] [W/O NULL] [ LOG ]
– 98,8 [F4CA8CE3] [669BB6BD]
01 98,8 [15AB8B2E] [334CDF6D] CRC32
02 98,8 [391FF008] [8BF323C8] CRC32
03 98,8 [2A13C46A] [C517717B] CRC32
04 90,1 [671FA2FF] [95A004A3] CRC32
05 82,2 [9431F985] [A928F09F] CRC32
06 98,8 [04BE8FBC] [BCCFB055] CRC32
07 98,8 [1D9D3A9B] [DCD63121] CRC32
08 98,8 [6E33E51A] [267CF981] CRC32
09 98,8 [81EFF4AD] [9A84B34D] CRC32
10 92,4 [F78ADB3B] [9E0257A3] CRC32
11 98,8 [2091781C] [290437EC] CRC32
12 98,8 [776F575C] [94A7A7F2] CRC32
13 97,0 [CC474B30] [F1DB1AD0] CRC32
14 98,8 [9C8F644D] [B1F307DD] CRC32
15 98,8 [C86494E7] [31C42E94] CRC32
16 98,8 [ED766835] [15601B51] CRC32
17 98,8 [18128504] [4EC6B9B4] CRC32
18 98,8 [DBFB57E7] [4809C4E7] CRC32


Musicians

Roger McGuinn - lead vocals, guitar
Clarence White - lead guitar, vocals
John York - bass, vocals
Gene Parsons - drums, vocals

The Byrds - Ballad Of Easy Rider (1969) [1997 Legacy Expanded Remaster]

All thanks goes to the original releaser
=====