Tags
Language
Tags

The Crusaders - Live In Japan (1981) Reissue 1993

Posted By: Designol
The Crusaders - Live In Japan (1981) Reissue 1993

The Crusaders - Live In Japan (1981) Reissue 1993
EAC | FLAC | Image (Cue&Log) ~ 462 Mb | Mp3 (CBR320) ~ 188 Mb | Scans included
Fusion, Jazz-Funk, Soul Jazz | Label: GRP Records | # GRP97462 | Time: 01:18:06

This CD contains selections from a triumphant Japanese tour which saw three-fourths of the original lineup augmented by such guest stars as guitarists Barry Finnerty and Roland Bautista, percussionist Rafael Cruz, and bassist Alphonso Johnson. But the interaction and contributions of Joe Sample, Wilton Felder, and Stix Hooper make this memorable, plus the fact that this is the first time the complete concert has ever been available on a domestic release. It's really a "greatest-hits live" CD, with such familiar numbers as "Spiral," "Rainbow Seeker," "So Far Away" and "Put It Where You Want It" part of the menu. While not in the class of such classic releases as 1, Scratch, or Second Crusade, this is still a welcome addition to the legacy of a sorely underrated group.

Review by Ron Wynn, Allmusic.com

The Crusaders - Live In Japan (1981) Reissue 1993



Tracklist:

01. Introduction (02:08)
02. Rainbow Seeker (08:07)
03. The Hustler (09:04)
04. Sweet Gentle Love (05:43)
05. Drum Introduction (02:28)
06. Spiral (06:15)
07. Melodies Of Love (12:29)
08. Carmel (06:14)
09. So Far Away (08:20)
10. Brazos River Breakdown (06:00)
11. In All My Wildest Dreams (07:02)
12. Put It Where You Want It (04:11)


Exact Audio Copy V1.0 beta 2 from 29. April 2011

Отчёт EAC об извлечении, выполненном 4. марта 2015, 23:02

The Crusaders / Live In Japan

Дисковод: PLEXTOR BDDVDRPX-B330SA Adapter: 0 ID: 1

Режим чтения : Достоверность
Использование точного потока : Да
Отключение кэша аудио : Да
Использование указателей C2 : Нет

Коррекция смещения при чтении : 702
Способность читать области Lead-in и Lead-out : Нет
Заполнение пропущенных сэмплов тишиной : Да
Удаление блоков с тишиной в начале и конце : Нет
При вычислениях CRC использовались нулевые сэмплы : Да
Интерфейс : Встроенный Win32-интерфейс для Win NT/2000

Выходной формат : Пользовательский кодировщик
Выбранный битрейт : 128 kBit/s
Качество : Высокий
Добавление ID3-тега : Нет
Утилита сжатия : C:\Program Files\Exact Audio Copy\FLAC\FLAC.EXE
Дополнительные параметры : -6 -V -T "ARTIST=%artist%" -T "TITLE=%title%" -T "ALBUM=%albumtitle%" -T "DATE=%year%" -T "TRACKNUMBER=%tracknr%" -T "GENRE=%genre%" -T "COMMENT=%comment%" -T "BAND=%albuminterpret%" -T "COMPOSER=%composer%" %haslyrics%–tag-from-


TOC извлечённого CD

Трек | Старт | Длительность | Начальный сектор | Конечный сектор
––––––––––––––––––––––––––––––––––-
1 | 0:00.33 | 2:08.67 | 33 | 9699
2 | 2:09.25 | 8:07.00 | 9700 | 46224
3 | 10:16.25 | 9:04.05 | 46225 | 87029
4 | 19:20.30 | 5:43.25 | 87030 | 112779
5 | 25:03.55 | 2:28.45 | 112780 | 123924
6 | 27:32.25 | 6:15.45 | 123925 | 152094
7 | 33:47.70 | 12:29.58 | 152095 | 208327
8 | 46:17.53 | 6:14.25 | 208328 | 236402
9 | 52:32.03 | 8:20.27 | 236403 | 273929
10 | 60:52.30 | 6:00.43 | 273930 | 300972
11 | 66:52.73 | 7:02.45 | 300973 | 332667
12 | 73:55.43 | 4:11.55 | 332668 | 351547


Характеристики диапазона извлечения и сообщения об ошибках

Выбранный диапазон

Имя файла D:\FLAC\The Crusaders - Live In Japan.wav

Пиковый уровень 100.0 %
Скорость извлечения 1.2 X
Качество диапазона 100.0 %
CRC теста 95BAF05D
CRC копии 95BAF05D
Копирование… OK

Ошибок не произошло


AccurateRip: сводка

Трек 1 : извлечено точно (доверие 8) [F187926B] (AR v2)
Трек 2 : извлечено точно (доверие 7) [DE2E2619] (AR v2)
Трек 3 : извлечено точно (доверие 7) [1F635B5A] (AR v2)
Трек 4 : извлечено точно (доверие 7) [96EB2880] (AR v2)
Трек 5 : извлечено точно (доверие 7) [37F97467] (AR v2)
Трек 6 : извлечено точно (доверие 7) [D2A766B2] (AR v2)
Трек 7 : извлечено точно (доверие 7) [D20032A9] (AR v2)
Трек 8 : извлечено точно (доверие 7) [521DD476] (AR v2)
Трек 9 : извлечено точно (доверие 7) [85CDAF49] (AR v2)
Трек 10 : извлечено точно (доверие 7) [CBA53C84] (AR v2)
Трек 11 : извлечено точно (доверие 7) [F1A6827F] (AR v2)
Трек 12 точность не определена (достоверность 14) [7AA020E1], AccurateRip вернул [4E6379F2] (AR v2)

11 трек(и) скопированы точно
1 трек(и) не удалось проверить на точность

Некоторые треки не прошли проверку на точность

Конец отчёта

–– CUETools DB Plugin V2.1.4

[CTDB TOCID: N.jBHSIJcLw7MfZNYNzZ.3nyDsQ-] found
Submit result: N.jBHSIJcLw7MfZNYNzZ.3nyDsQ- has been uploaded
Track | CTDB Status
1 | (1/1) Accurately ripped
2 | (1/1) Accurately ripped
3 | (1/1) Accurately ripped
4 | (1/1) Accurately ripped
5 | (1/1) Accurately ripped
6 | (1/1) Accurately ripped
7 | (1/1) Accurately ripped
8 | (1/1) Accurately ripped
9 | (1/1) Accurately ripped
10 | (1/1) Accurately ripped
11 | (1/1) Accurately ripped
12 | (1/1) Differs in 97 samples @03:58:45-03:58:46,03:58:68-03:58:69
If you are sure that your rip contains errors, you can use CUETools to repair it.


==== Контрольная сумма отчёта CC86AE91045F29BB04504E30A31812EA4ED9F871F515A6D7DA45D1BCB12F0F89 ====

foobar2000 1.2 / Dynamic Range Meter 1.1.1
log date: 2015-03-10 16:23:21

––––––––––––––––––––––––––––––––––––––––
Analyzed: Crusaders / Live In Japan (1)
The Crusaders / Live In Japan (2-12)
––––––––––––––––––––––––––––––––––––––––

DR Peak RMS Duration Track
––––––––––––––––––––––––––––––––––––––––
DR16 -1.12 dB -22.81 dB 2:09 01-Introduction
DR12 0.00 dB -14.05 dB 8:07 02-Rainbow Seeker
DR12 0.00 dB -14.21 dB 9:04 03-The Hustler
DR13 0.00 dB -17.35 dB 5:43 04-Sweet Gentle Love
DR18 0.00 dB -22.88 dB 2:29 05-Drum Introduction
DR12 0.00 dB -13.34 dB 6:16 06-Spiral
DR16 -0.14 dB -21.00 dB 12:30 07-Melodies Of Love
DR13 0.00 dB -14.63 dB 6:14 08-Carmel
DR12 0.00 dB -14.94 dB 8:20 09-So Far Away
DR11 0.00 dB -12.76 dB 6:01 10-Brazos River Breakdown
DR15 -0.26 dB -19.04 dB 7:03 11-In All My Wildest Dreams
DR11 -0.04 dB -13.53 dB 4:12 12-Put It Where You Want It
––––––––––––––––––––––––––––––––––––––––

Number of tracks: 12
Official DR value: DR13

Samplerate: 44100 Hz
Channels: 2
Bits per sample: 16
Bitrate: 810 kbps
Codec: FLAC
================================================================================

The Crusaders - Live In Japan (1981) Reissue 1993

The Crusaders - Live In Japan (1981) Reissue 1993

All thanks to original releaser

More interesting music in My Blog