Tags
Language
Tags

The Who - Tommy (1969) [2013, Super Deluxe Box Set]

Posted By: v3122
The Who - Tommy (1969) [2013, Super Deluxe Box Set]

The Who - Tommy (1969)
EAC | Flac(Image) + Cue + Log & MP3 CBR 320Kbps
3CD | Polydor / Universal, 3747396 | ~ 1335 or 580 Mb | Artwork(png) -> 868 Mb
Classic Rock, Hard Rock, Rock Opera

The Who's defining, breakthrough concept album - a full-blown rock opera about a deaf, dumb and blind boy that launched the band to international superstardom, written almost entirely by Pete Townshend is now available as a new LIMITED EDITION Super Deluxe version that that includes 4 audio discs, an 80 page hardback book and a poster.

The audio features the original album re-mastered along with a wealth of previously unheard material in the form of 20 demos from Pete Townshend's archive and also a full live performance of Tommy from 1969 taken from tapes that infamously Townshend asked the band's sound engineer to burn. 18 of the previously unheard and thought to be long lost live tracks are taken from a live show at the Capital Theatre, Ottowa, Canada on October the 15th 1969. Three others, 'I'm Free,' 'Tommy's Holiday Camp,' and 'We're Not Gonna Take It' were lost due to tape reels being changed during the show so are taken from later shows of the same era. As discussed at length in Pete Townshend's autobiography the tapes were all supposed to be destroyed but were kept by long time Who sound man Bob Pridden despite Pete's instructions.

The Super Deluxe box also features a 5.1 mix featuring the complete album remixed in surround sound on new Hi Fidelity Pure Audio Blu-ray format.

The hardback 80-page full-colour book features rare period photos, memorabilia, a 20,000-word essay by legendary Who aficionado Richard Barnes and a rare facsimile Tommy poster housed in a hard-back deluxe slip-case.

(Disc 1) The original album digitally re-matsered in HD.
(Disc 2) The demos and out-takes. Features 25 tracks (20 previously-unreleased) from Pete Townshend's archive. Tracks 1-23 - Pete Townshend original demos.
All previously unreleased except 2, 11 and 12 - released in 2003.
Track 24 - The Who studio demo/out-take.
Track 25 - The Who studio recording. (NOTE: This version was previously only available on 'The House That Track Built' vinyl sampler).
(Disc 3) The 5.1 album mix - Hi Fidelity Pure Audio Blu-ray.
(Disc 4) The live 'bootleg' album - Features 21 previously-unreleased tracks from various live shows from 1969.
The Who - Tommy (1969):

The Who - Tommy (1969) [2013, Super Deluxe Box Set]

Tracklist CD1 - The Original Album 2013 Re-master:

01. Overture - 5:21
02. It's a boy - 0:39
03. 1921 - 2:49
04. Amazing Journey - 5:04
05. Sparks - 2:05
06. The hawker - 2:15
07. Christmas - 4:35
08. Cousin Kevin - 4:06
09. The acid queen - 3:34
10. Underture - 10:04
11. Do you think it's alright? - 0:24
12. Fiddle about - 1:31
13. Pinball wizard - 3:01
14. There's a doctor - 0:24
15. Go to the mirror! - 3:48
16. Tommy can you hear me? - 1:35
17. Smash the mirror - 1:35
18. Sensation - 2:27
19. Miracle cure - 0:13
20. Sally Simpson - 4:10
21. I'm free - 2:39
22. Welcome - 4:32
23. Tommy's holiday camp - 0:57
24. We're not gonna take it - 7:08

Exact Audio Copy V1.0 beta 3 from 29. August 2011

EAC extraction logfile from 4. December 2013, 20:38

The Who / Tommy CD1 - The Original Album 2013 Re-master

Used drive : ATAPI iHAS124 B Adapter: 2 ID: 0

Read mode : Secure
Utilize accurate stream : Yes
Defeat audio cache : Yes
Make use of C2 pointers : No

Read offset correction : 6
Overread into Lead-In and Lead-Out : No
Fill up missing offset samples with silence : Yes
Delete leading and trailing silent blocks : No
Null samples used in CRC calculations : Yes
Used interface : Native Win32 interface for Win NT & 2000

Used output format : User Defined Encoder
Selected bitrate : 1024 kBit/s
Quality : High
Add ID3 tag : No
Command line compressor : C:\Program Files (x86)\Exact Audio Copy\FLAC\FLAC.EXE
Additional command line options : -8 -V -T "ARTIST=%artist%" -T "TITLE=%title%" -T "ALBUM=%albumtitle%" -T "DATE=%year%" -T "TRACKNUMBER=%tracknr%" -T "GENRE=%genre%" -T "PERFORMER=%albuminterpret%" -T "COMPOSER=%composer%" %haslyrics%–tag-from-file=LYRICS="%lyricsfile%"%haslyrics% -T "ALBUMARTIST=%albumartist%" -T "DISCNUMBER=%cdnumber%" -T "TOTALDISCS=%totalcds%" -T "TOTALTRACKS=%numtracks%" -T "COMMENT=%comment%" %source% -o %dest%


TOC of the extracted CD

Track | Start | Length | Start sector | End sector
––––––––––––––––––––––––––––-
1 | 0:00.00 | 5:21.02 | 0 | 24076
2 | 5:21.02 | 0:38.41 | 24077 | 26967
3 | 5:59.43 | 2:49.02 | 26968 | 39644
4 | 8:48.45 | 5:04.17 | 39645 | 62461
5 | 13:52.62 | 2:05.04 | 62462 | 71840
6 | 15:57.66 | 2:14.73 | 71841 | 81963
7 | 18:12.64 | 4:34.68 | 81964 | 102581
8 | 22:47.57 | 4:06.32 | 102582 | 121063
9 | 26:54.14 | 3:34.36 | 121064 | 137149
10 | 30:28.50 | 10:04.13 | 137150 | 182462
11 | 40:32.63 | 0:24.32 | 182463 | 184294
12 | 40:57.20 | 1:31.11 | 184295 | 191130
13 | 42:28.31 | 3:01.06 | 191131 | 204711
14 | 45:29.37 | 0:23.56 | 204712 | 206492
15 | 45:53.18 | 3:47.46 | 206493 | 223563
16 | 49:40.64 | 1:35.31 | 223564 | 230719
17 | 51:16.20 | 1:34.66 | 230720 | 237835
18 | 52:51.11 | 2:26.54 | 237836 | 248839
19 | 55:17.65 | 0:12.39 | 248840 | 249778
20 | 55:30.29 | 4:10.36 | 249779 | 268564
21 | 59:40.65 | 2:39.20 | 268565 | 280509
22 | 62:20.10 | 4:32.36 | 280510 | 300945
23 | 66:52.46 | 0:57.22 | 300946 | 305242
24 | 67:49.68 | 7:08.12 | 305243 | 337354


Range status and errors

Selected range

Filename G:\CD\The Who - Tommy CD1.wav

Peak level 99.8 %
Extraction speed 6.5 X
Range quality 100.0 %
Test CRC DDCFC530
Copy CRC DDCFC530
Copy OK

No errors occurred


AccurateRip summary

Track 1 accurately ripped (confidence 6) [C832DEA6] (AR v2)
Track 2 accurately ripped (confidence 6) [53769F69] (AR v2)
Track 3 accurately ripped (confidence 6) [35A19D52] (AR v2)
Track 4 accurately ripped (confidence 6) [31934330] (AR v2)
Track 5 accurately ripped (confidence 6) [1CB9B145] (AR v2)
Track 6 accurately ripped (confidence 6) [9DA7B7B3] (AR v2)
Track 7 accurately ripped (confidence 6) [4CA05D92] (AR v2)
Track 8 accurately ripped (confidence 6) [3A129964] (AR v2)
Track 9 accurately ripped (confidence 6) [46E4CFDB] (AR v2)
Track 10 accurately ripped (confidence 6) [02519804] (AR v2)
Track 11 accurately ripped (confidence 6) [FA81D133] (AR v2)
Track 12 accurately ripped (confidence 6) [E5505710] (AR v2)
Track 13 accurately ripped (confidence 6) [72D8D07F] (AR v2)
Track 14 accurately ripped (confidence 6) [D27A120D] (AR v2)
Track 15 accurately ripped (confidence 6) [D5A49CB3] (AR v2)
Track 16 accurately ripped (confidence 6) [06D1F66D] (AR v2)
Track 17 accurately ripped (confidence 6) [459A0742] (AR v2)
Track 18 accurately ripped (confidence 6) [00881A18] (AR v2)
Track 19 accurately ripped (confidence 6) [F362724F] (AR v2)
Track 20 accurately ripped (confidence 6) [56E4C246] (AR v2)
Track 21 accurately ripped (confidence 6) [7E0B3ED2] (AR v2)
Track 22 accurately ripped (confidence 6) [DBB35A33] (AR v2)
Track 23 accurately ripped (confidence 6) [00573EA6] (AR v2)
Track 24 accurately ripped (confidence 6) [DB383E89] (AR v2)

All tracks accurately ripped

End of status report

==== Log checksum 9CE7F42BBEA98760960910DBCC7E84D39AD6F4F155A0CDBDAC31F8A7E74C71D4 ====


[CUETools log; Date: 06.01.2020 16:37:40; Version: 2.1.6]
[CTDB TOCID: 352.wGC4WTkZNm2ozCp9otJ.W1c-] found.
Track | CTDB Status
1 | (521/523) Accurately ripped
2 | (522/523) Accurately ripped
3 | (522/523) Accurately ripped
4 | (522/523) Accurately ripped
5 | (522/523) Accurately ripped
6 | (521/523) Accurately ripped
7 | (515/523) Accurately ripped, or (5/523) differs in 180 samples @01:36:47
8 | (522/523) Accurately ripped
9 | (522/523) Accurately ripped
10 | (522/523) Accurately ripped
11 | (520/523) Accurately ripped
12 | (520/523) Accurately ripped
13 | (521/523) Accurately ripped
14 | (520/523) Accurately ripped
15 | (520/523) Accurately ripped
16 | (519/523) Accurately ripped
17 | (519/523) Accurately ripped
18 | (519/523) Accurately ripped
19 | (522/523) Accurately ripped
20 | (522/523) Accurately ripped
21 | (521/523) Accurately ripped
22 | (521/523) Accurately ripped
23 | (520/523) Accurately ripped
24 | (520/523) Accurately ripped
[AccurateRip ID: 0041ebcd-04624708-52119218] found.
Track [ CRC | V2 ] Status
01 [32b37c7c|c832dea6] (000+016/136) Accurately ripped
02 [0e84702d|53769f69] (000+016/136) Accurately ripped
03 [ede16918|35a19d52] (000+016/136) Accurately ripped
04 [1d12cfda|31934330] (000+016/136) Accurately ripped
05 [f2f3c704|1cb9b145] (000+016/136) Accurately ripped
06 [f437a50e|9da7b7b3] (000+016/136) Accurately ripped
07 [1bf3ff2f|4ca05d92] (000+016/134) Accurately ripped
08 [3b5a1d9c|3a129964] (000+016/136) Accurately ripped
09 [a669f489|46e4cfdb] (000+016/135) Accurately ripped
10 [d5a6536c|02519804] (000+016/136) Accurately ripped
11 [a38088c5|fa81d133] (000+016/135) Accurately ripped
12 [0177f5b4|e5505710] (000+016/136) Accurately ripped
13 [a2c72a32|72d8d07f] (000+016/136) Accurately ripped
14 [f960a736|d27a120d] (000+016/136) Accurately ripped
15 [f2b056ab|d5a49cb3] (000+016/136) Accurately ripped
16 [a7a1c171|06d1f66d] (000+016/136) Accurately ripped
17 [3086d479|459a0742] (000+016/136) Accurately ripped
18 [d6dc2aab|00881a18] (000+016/136) Accurately ripped
19 [ebf046ac|f362724f] (000+016/136) Accurately ripped
20 [92a68b26|56e4c246] (000+016/136) Accurately ripped
21 [7da6558c|7e0b3ed2] (000+016/136) Accurately ripped
22 [51e86f17|dbb35a33] (000+016/136) Accurately ripped
23 [35bd6676|00573ea6] (000+016/136) Accurately ripped
24 [d754fb44|db383e89] (000+016/133) Accurately ripped
Offsetted by 12:
01 [84f2a45f] (003/136) Accurately ripped
02 [540ccf19] (003/136) Accurately ripped
03 [71769672] (003/136) Accurately ripped
04 [5c0be609] (003/136) Accurately ripped
05 [e7de822a] (003/136) Accurately ripped
06 [d235553c] (003/136) Accurately ripped
07 [d466706f] (002/134) Accurately ripped
08 [2c2d27ed] (003/136) Accurately ripped
09 [95c91bd2] (002/135) Accurately ripped
10 [b45c92ea] (003/136) Accurately ripped
11 [450aceab] (003/135) Accurately ripped
12 [e5b605d2] (003/136) Accurately ripped
13 [ab5fb666] (003/136) Accurately ripped
14 [66077c9a] (003/136) Accurately ripped
15 [ba2aa0cc] (003/136) Accurately ripped
16 [d7b46eca] (003/136) Accurately ripped
17 [485a13ff] (003/136) Accurately ripped
18 [e72a10ad] (003/136) Accurately ripped
19 [047dc821] (003/136) Accurately ripped
20 [9c2cc1eb] (003/136) Accurately ripped
21 [e0cc5ff3] (003/136) Accurately ripped
22 [84565063] (003/136) Accurately ripped
23 [496b5984] (003/136) Accurately ripped
24 [4d37f2b7] (003/133) Accurately ripped
Offsetted by -24:
01 [f1ed54b6] (000/136) No match (V2 was not tested)
02 [a729638c] (000/136) No match (V2 was not tested)
03 [dc2dc65c] (000/136) No match (V2 was not tested)
04 [e4e3afa2] (000/136) No match (V2 was not tested)
05 [e8683cce] (000/136) No match (V2 was not tested)
06 [94fc7cef] (000/136) No match (V2 was not tested)
07 [72c449d4] (000/134) No match (V2 was not tested)
08 [fc29ec30] (000/136) No match (V2 was not tested)
09 [48b22a6f] (000/135) No match (V2 was not tested)
10 [2966b105] (000/136) No match (V2 was not tested)
11 [d6bcde8d] (000/135) No match (V2 was not tested)
12 [0ba6c764] (000/136) No match (V2 was not tested)
13 [42f1d124] (000/136) No match (V2 was not tested)
14 [e510e745] (000/136) No match (V2 was not tested)
15 [d4178474] (000/136) No match (V2 was not tested)
16 [7b29e21c] (000/136) No match (V2 was not tested)
17 [10dcfb53] (000/136) No match (V2 was not tested)
18 [a759be0e] (000/136) No match (V2 was not tested)
19 [46d8b72c] (000/136) No match (V2 was not tested)
20 [b1025c09] (000/136) No match (V2 was not tested)
21 [e8e0f184] (000/136) No match (V2 was not tested)
22 [f67a02f9] (000/136) No match (V2 was not tested)
23 [71d8a8d9] (000/136) No match (V2 was not tested)
24 [51e0f72e] (000/133) No match (V2 was not tested)
Offsetted by 6:
01 [b1851e81] (000/136) No match (V2 was not tested)
02 [745d369c] (000/136) No match (V2 was not tested)
03 [471b39af] (000/136) No match (V2 was not tested)
04 [9bd1440c] (000/136) No match (V2 was not tested)
05 [b170589a] (000/136) No match (V2 was not tested)
06 [5f477ccd] (000/136) No match (V2 was not tested)
07 [fece1888] (000/134) No match
08 [6f7aa22f] (000/136) No match
09 [9aa97553] (000/135) No match (V2 was not tested)
10 [c3cbf366] (000/136) No match (V2 was not tested)
11 [e7928b9c] (000/135) No match (V2 was not tested)
12 [f4c77e9f] (000/136) No match (V2 was not tested)
13 [862d8354] (000/136) No match (V2 was not tested)
14 [40e9e98d] (000/136) No match (V2 was not tested)
15 [90cd97fe] (000/136) No match (V2 was not tested)
16 [a0e53353] (000/136) No match (V2 was not tested)
17 [df672e16] (000/136) No match
18 [b145e8ad] (000/136) No match (V2 was not tested)
19 [51bf0765] (000/136) No match (V2 was not tested)
20 [5da06000] (000/136) No match (V2 was not tested)
21 [bd671a71] (000/136) No match
22 [453234cb] (000/136) No match (V2 was not tested)
23 [3cca5c3f] (000/136) No match
24 [172379b6] (000/133) No match (V2 was not tested)

Track Peak [ CRC32 ] [W/O NULL] [ LOG ]
– 99,8 [DDCFC530] [6D604164] CRC32
01 99,7 [0C8A9EAD] [CD1E84F1]
02 89,8 [8798AB1E] [2E173FCC]
03 98,8 [B5501A2F] [BA257708]
04 99,8 [C9018B7A] [5C188A06]
05 99,3 [9A968B95] [43C441F4]
06 99,6 [303A2B75] [6822E225]
07 99,3 [D2A88252] [15C4CB45]
08 94,3 [57DD28BE] [0E599F8A]
09 92,6 [5613E79F] [3D2CBD79]
10 99,8 [EC3D58C3] [8E402BAE]
11 76,4 [91D368A3] [AB13624A]
12 99,2 [65919753] [2AC573BE]
13 99,8 [65AAAFA0] [6840983D]
14 90,1 [D6D8B89D] [071D98B5]
15 99,8 [CEAD4E69] [8296F296]
16 83,9 [1F16F005] [F3569DF7]
17 96,4 [1802A675] [914E7E26]
18 99,0 [DDF549C1] [EDD48E64]
19 85,3 [A5D88AF4] [6CBE8E1A]
20 86,8 [2E6B01C8] [7099A2AB]
21 99,8 [99E2B1AF] [BFC2809A]
22 96,4 [EEB57C0A] [FAFDAF62]
23 65,7 [0D1DAA56] [2380CF4F]
24 99,8 [EF54C48F] [5FE79821]


The Who - Tommy (1969) [2013, Super Deluxe Box Set]

Tracklist CD2 - The Demos And Out-takes:

01. Overture - Demo - 4:07
02. It's A Boy - Demo - 0:41
03. 1921 - Demo - 3:12
04. Amazing Journey - Demo - 4:47
05. Dream One - Demo - 3:08
06. Sparks - Demo - 7:39
07. The Hawker (Eyesight To The Blind) - Demo - 4:46
08. Christmas - Demo - 4:40
09. The Acid Queen - Demo - 3:34
10. Underture (Dream Two) - Demo - 1:49
11. Do You Think It's Alright? - Demo - 0:26
12. Pinball Wizard - Demo - 3:42
13. There's A Doctor - Demo - 0:24
14. Go To The Mirror! - Demo - 4:33
15. Success - Demo - 0:10
16. Tommy Can You Hear Me? - Demo - 1:15
17. Smash The Mirror - Demo - 1:35
18. Sensation - Demo - 2:45
19. Miracle Cure - Demo - 0:11
20. Sally Simpson - Demo - 4:51
21. I'm Free - Demo - 2:29
22. Welcome - Demo - 3:26
23. We're Not Gonna Take It - Demo - 5:04
24. Trying To Get Through - Studio Demo - 2:11
25. Young Man Blues - 2:50

Exact Audio Copy V1.0 beta 3 from 29. August 2011

EAC extraction logfile from 4. December 2013, 21:59

The Who / Tommy CD2 - The Demos And Out-takes

Used drive : ATAPI iHAS124 B Adapter: 2 ID: 0

Read mode : Secure
Utilize accurate stream : Yes
Defeat audio cache : Yes
Make use of C2 pointers : No

Read offset correction : 6
Overread into Lead-In and Lead-Out : No
Fill up missing offset samples with silence : Yes
Delete leading and trailing silent blocks : No
Null samples used in CRC calculations : Yes
Used interface : Native Win32 interface for Win NT & 2000

Used output format : User Defined Encoder
Selected bitrate : 1024 kBit/s
Quality : High
Add ID3 tag : No
Command line compressor : C:\Program Files (x86)\Exact Audio Copy\FLAC\FLAC.EXE
Additional command line options : -8 -V -T "ARTIST=%artist%" -T "TITLE=%title%" -T "ALBUM=%albumtitle%" -T "DATE=%year%" -T "TRACKNUMBER=%tracknr%" -T "GENRE=%genre%" -T "PERFORMER=%albuminterpret%" -T "COMPOSER=%composer%" %haslyrics%–tag-from-file=LYRICS="%lyricsfile%"%haslyrics% -T "ALBUMARTIST=%albumartist%" -T "DISCNUMBER=%cdnumber%" -T "TOTALDISCS=%totalcds%" -T "TOTALTRACKS=%numtracks%" -T "COMMENT=%comment%" %source% -o %dest%


TOC of the extracted CD

Track | Start | Length | Start sector | End sector
––––––––––––––––––––––––––––-
1 | 0:00.00 | 4:06.43 | 0 | 18492
2 | 4:06.43 | 0:41.28 | 18493 | 21595
3 | 4:47.71 | 3:12.34 | 21596 | 36029
4 | 8:00.30 | 4:47.01 | 36030 | 57555
5 | 12:47.31 | 3:08.27 | 57556 | 71682
6 | 15:55.58 | 7:39.01 | 71683 | 106108
7 | 23:34.59 | 4:46.22 | 106109 | 127580
8 | 28:21.06 | 4:39.41 | 127581 | 148546
9 | 33:00.47 | 3:34.30 | 148547 | 164626
10 | 36:35.02 | 1:48.62 | 164627 | 172788
11 | 38:23.64 | 0:25.62 | 172789 | 174725
12 | 38:49.51 | 3:42.06 | 174726 | 191381
13 | 42:31.57 | 0:23.68 | 191382 | 193174
14 | 42:55.50 | 4:32.70 | 193175 | 213644
15 | 47:28.45 | 0:10.06 | 213645 | 214400
16 | 47:38.51 | 1:15.33 | 214401 | 220058
17 | 48:54.09 | 1:34.64 | 220059 | 227172
18 | 50:28.73 | 2:45.37 | 227173 | 239584
19 | 53:14.35 | 0:11.03 | 239585 | 240412
20 | 53:25.38 | 4:50.55 | 240413 | 262217
21 | 58:16.18 | 2:28.46 | 262218 | 273363
22 | 60:44.64 | 3:25.73 | 273364 | 288811
23 | 64:10.62 | 5:04.26 | 288812 | 311637
24 | 69:15.13 | 2:10.60 | 311638 | 321447
25 | 71:25.73 | 2:50.02 | 321448 | 334199


Range status and errors

Selected range

Filename D:\CD\The Who - Tommy CD2.wav

Peak level 99.9 %
Extraction speed 6.3 X
Range quality 100.0 %
Test CRC A4267D72
Copy CRC A4267D72
Copy OK

No errors occurred


AccurateRip summary

Track 1 accurately ripped (confidence 5) [0C513FBB] (AR v2)
Track 2 accurately ripped (confidence 5) [C3597FD0] (AR v2)
Track 3 accurately ripped (confidence 5) [2F8BD7AD] (AR v2)
Track 4 accurately ripped (confidence 5) [34B16730] (AR v2)
Track 5 accurately ripped (confidence 5) [C3619A76] (AR v2)
Track 6 accurately ripped (confidence 5) [6198DB29] (AR v2)
Track 7 accurately ripped (confidence 5) [4CA3905C] (AR v2)
Track 8 accurately ripped (confidence 5) [4D96F3CD] (AR v2)
Track 9 accurately ripped (confidence 5) [87B2913A] (AR v2)
Track 10 accurately ripped (confidence 5) [6629EE43] (AR v2)
Track 11 accurately ripped (confidence 5) [56EC62D1] (AR v2)
Track 12 accurately ripped (confidence 5) [AC4A7666] (AR v2)
Track 13 accurately ripped (confidence 5) [BBE46DAB] (AR v2)
Track 14 accurately ripped (confidence 5) [B5A95113] (AR v2)
Track 15 accurately ripped (confidence 5) [14941718] (AR v2)
Track 16 accurately ripped (confidence 5) [32F2F19E] (AR v2)
Track 17 accurately ripped (confidence 5) [B092CDB2] (AR v2)
Track 18 accurately ripped (confidence 5) [01EFF14B] (AR v2)
Track 19 accurately ripped (confidence 5) [35812D55] (AR v2)
Track 20 accurately ripped (confidence 5) [6A118F71] (AR v2)
Track 21 accurately ripped (confidence 5) [02674313] (AR v2)
Track 22 accurately ripped (confidence 5) [023A1FF8] (AR v2)
Track 23 accurately ripped (confidence 5) [4C3632EC] (AR v2)
Track 24 accurately ripped (confidence 5) [AF600CCB] (AR v2)
Track 25 accurately ripped (confidence 5) [B2B38FC6] (AR v2)

All tracks accurately ripped

End of status report

==== Log checksum F96F9D53BA11F478142C00408DAA7CD03EA3D7E83F9AA536BE10823D5F145C59 ====


[CUETools log; Date: 06.01.2020 16:40:48; Version: 2.1.6]
[CTDB TOCID: EC9Jf0FrnBEHCPHu5XzeMfsBw4Q-] found.
Track | CTDB Status
1 | (50/50) Accurately ripped
2 | (50/50) Accurately ripped
3 | (49/50) Accurately ripped
4 | (49/50) Accurately ripped
5 | (49/50) Accurately ripped
6 | (49/50) Accurately ripped
7 | (49/50) Accurately ripped
8 | (49/50) Accurately ripped
9 | (49/50) Accurately ripped
10 | (49/50) Accurately ripped
11 | (49/50) Accurately ripped
12 | (48/50) Accurately ripped
13 | (48/50) Accurately ripped
14 | (48/50) Accurately ripped
15 | (48/50) Accurately ripped
16 | (48/50) Accurately ripped
17 | (48/50) Accurately ripped
18 | (48/50) Accurately ripped
19 | (48/50) Accurately ripped
20 | (48/50) Accurately ripped
21 | (48/50) Accurately ripped
22 | (48/50) Accurately ripped
23 | (48/50) Accurately ripped
24 | (48/50) Accurately ripped
25 | (48/50) Accurately ripped
[AccurateRip ID: 0046aad2-04d5646d-8d116819] found.
Track [ CRC | V2 ] Status
01 [a26ee8b7|0c513fbb] (00+30/32) Accurately ripped
02 [97208289|c3597fd0] (00+30/32) Accurately ripped
03 [2f8de7f1|2f8bd7ad] (00+30/32) Accurately ripped
04 [083f9f18|34b16730] (00+30/32) Accurately ripped
05 [56f808ac|c3619a76] (00+30/32) Accurately ripped
06 [96c046e2|6198db29] (00+30/32) Accurately ripped
07 [e250a45f|4ca3905c] (00+30/32) Accurately ripped
08 [7b2d1ee3|4d96f3cd] (00+30/32) Accurately ripped
09 [fe923e44|87b2913a] (00+30/32) Accurately ripped
10 [50045d9d|6629ee43] (00+30/32) Accurately ripped
11 [414f4a1a|56ec62d1] (00+30/32) Accurately ripped
12 [14a90eea|ac4a7666] (00+30/32) Accurately ripped
13 [aeac3cfa|bbe46dab] (00+30/32) Accurately ripped
14 [8f7d3830|b5a95113] (00+30/32) Accurately ripped
15 [f22f1a9f|14941718] (00+30/32) Accurately ripped
16 [8019eb75|32f2f19e] (00+30/32) Accurately ripped
17 [13498d6c|b092cdb2] (00+30/32) Accurately ripped
18 [47e1526e|01eff14b] (00+30/32) Accurately ripped
19 [c50738c3|35812d55] (00+30/32) Accurately ripped
20 [05fff813|6a118f71] (00+30/32) Accurately ripped
21 [1e9122e8|02674313] (00+30/32) Accurately ripped
22 [1e320c79|023a1ff8] (00+30/32) Accurately ripped
23 [8f1886cc|4c3632ec] (00+30/32) Accurately ripped
24 [05076db7|af600ccb] (00+30/32) Accurately ripped
25 [184c3c4e|b2b38fc6] (00+30/32) Accurately ripped
Offsetted by 12:
01 [95d4ae72] (00/32) No match (V2 was not tested)
02 [515a2d21] (00/32) No match (V2 was not tested)
03 [762a6988] (00/32) No match (V2 was not tested)
04 [32ea7516] (00/32) No match (V2 was not tested)
05 [e077ad72] (00/32) No match (V2 was not tested)
06 [f9d67953] (00/32) No match (V2 was not tested)
07 [63d1320c] (00/32) No match (V2 was not tested)
08 [55b49b4a] (00/32) No match (V2 was not tested)
09 [b5aba494] (00/32) No match (V2 was not tested)
10 [1fb02112] (00/32) No match (V2 was not tested)
11 [6ca60358] (00/32) No match (V2 was not tested)
12 [a677c201] (00/32) No match (V2 was not tested)
13 [d77504e5] (00/32) No match (V2 was not tested)
14 [1035f234] (00/32) No match (V2 was not tested)
15 [cdbc0fa5] (00/32) No match (V2 was not tested)
16 [8b69d4dd] (00/32) No match (V2 was not tested)
17 [0ab31b3d] (00/32) No match (V2 was not tested)
18 [67bfc08b] (00/32) No match (V2 was not tested)
19 [b3fb73f9] (00/32) No match (V2 was not tested)
20 [c37c201d] (00/32) No match (V2 was not tested)
21 [42cba5c0] (00/32) No match (V2 was not tested)
22 [028ee715] (00/32) No match (V2 was not tested)
23 [b2d7efe0] (00/32) No match (V2 was not tested)
24 [0b7538a3] (00/32) No match (V2 was not tested)
25 [50336222] (00/32) No match (V2 was not tested)

Track Peak [ CRC32 ] [W/O NULL] [ LOG ]
– 99,9 [A4267D72] [5C9F91B9] CRC32
01 99,9 [7AE10AB1] [2A8F7276]
02 95,9 [408C949B] [4B4EDA69]
03 92,8 [F1F337B6] [1611186A]
04 99,9 [C6E53FD0] [70D05F5A]
05 99,8 [C3CB992F] [5A3E9C14]
06 99,9 [01A96F1A] [61F6688B]
07 99,7 [A3E147A8] [146AE4F7]
08 99,8 [5333CCDD] [1CD97E42]
09 99,8 [63609D0E] [6A80D94F]
10 99,7 [817D03B5] [5D1E4D2E]
11 99,1 [BDEF2F47] [31B2A96C]
12 99,8 [8C12208C] [BDD5DEC3]
13 92,8 [1691D2BB] [427E8860]
14 93,6 [C26CD04F] [4825E94F]
15 99,7 [1E4E77EE] [7E7CC4BB]
16 99,8 [FDCD3103] [D0DCE2B4]
17 99,8 [F82C2B19] [9430D926]
18 99,8 [B5D0DD65] [E4319F9F]
19 87,4 [44CB73E4] [1F05C19B]
20 99,8 [BE67EB0F] [1B299249]
21 99,9 [00110C54] [5EEC4587]
22 99,8 [6D31A805] [682EDC24]
23 99,8 [7E49ADA8] [52999869]
24 99,9 [E08411A6] [1DF95F05]
25 99,9 [D55E2052] [ADAB1D1C]


The Who - Tommy (1969) [2013, Super Deluxe Box Set]

Tracklist CD3 - The Live Bootleg Album:

01. Overture (Including Introduction) - Live / Canada 1969 - 7:02
02. It's A Boy - Live / Canada 1969 - 0:40
03. 1921- Live / Canada 1969 - 2:29
04. Amazing Journey - Live / Canada 1969 - 5:08
05. Sparks - Live / Canada 1969 - 2:49
06. The Hawker (Eyesight To The Blind) - Live / Canada 1969 - 1:55
07. Christmas - Live / Canada 1969 - 3:11
08. The Acid Queen - Live / Canada 1969 - 3:30
09. Pinball Wizard - Live / Canada 1969 - 2:47
10. Do You Think It's Alright? - Live / Canada 1969 - 0:22
11. Fiddle About - Live / Canada 1969 - 1:13
12. Tommy You Hear Me? - Live / Canada 1969 - 0:56
13. There's A Doctor - Live / Canada 1969 - 0:24
14. Go To The Mirror! - Live / Canada 1969 - 3:23
15. Smash The Mirror - Live / Canada 1969 - 1:11
16. Miracle Cure - Live / Canada 1969 - 0:12
17. Sally Simpson - Live / Canada 1969 - 4:02
18. I'm Free - Live / Canada 1969 - 2:12
19. Tommy's Holiday Camp - Live / Canada 1969 - 0:48
20. We're Not Gonna Take It - Live / Canada 1969 - 3:29
21. See Me, Feel Me / Listening To You - Live / Canada 1969 - 7:54

Exact Audio Copy V1.0 beta 3 from 29. August 2011

EAC extraction logfile from 4. December 2013, 22:19

The Who / Tommy CD3 - The Live Bootleg Album

Used drive : ATAPI iHAS124 B Adapter: 2 ID: 0

Read mode : Secure
Utilize accurate stream : Yes
Defeat audio cache : Yes
Make use of C2 pointers : No

Read offset correction : 6
Overread into Lead-In and Lead-Out : No
Fill up missing offset samples with silence : Yes
Delete leading and trailing silent blocks : No
Null samples used in CRC calculations : Yes
Used interface : Native Win32 interface for Win NT & 2000

Used output format : User Defined Encoder
Selected bitrate : 1024 kBit/s
Quality : High
Add ID3 tag : No
Command line compressor : C:\Program Files (x86)\Exact Audio Copy\FLAC\FLAC.EXE
Additional command line options : -8 -V -T "ARTIST=%artist%" -T "TITLE=%title%" -T "ALBUM=%albumtitle%" -T "DATE=%year%" -T "TRACKNUMBER=%tracknr%" -T "GENRE=%genre%" -T "PERFORMER=%albuminterpret%" -T "COMPOSER=%composer%" %haslyrics%–tag-from-file=LYRICS="%lyricsfile%"%haslyrics% -T "ALBUMARTIST=%albumartist%" -T "DISCNUMBER=%cdnumber%" -T "TOTALDISCS=%totalcds%" -T "TOTALTRACKS=%numtracks%" -T "COMMENT=%comment%" %source% -o %dest%


TOC of the extracted CD

Track | Start | Length | Start sector | End sector
––––––––––––––––––––––––––––-
1 | 0:00.00 | 7:01.55 | 0 | 31629
2 | 7:01.55 | 0:39.68 | 31630 | 34622
3 | 7:41.48 | 2:28.70 | 34623 | 45792
4 | 10:10.43 | 5:07.53 | 45793 | 68870
5 | 15:18.21 | 2:49.31 | 68871 | 81576
6 | 18:07.52 | 1:54.53 | 81577 | 90179
7 | 20:02.30 | 3:11.37 | 90180 | 104541
8 | 23:13.67 | 3:30.33 | 104542 | 120324
9 | 26:44.25 | 2:47.25 | 120325 | 132874
10 | 29:31.50 | 0:21.41 | 132875 | 134490
11 | 29:53.16 | 1:12.47 | 134491 | 139937
12 | 31:05.63 | 0:55.39 | 139938 | 144101
13 | 32:01.27 | 0:24.12 | 144102 | 145913
14 | 32:25.39 | 3:22.40 | 145914 | 161103
15 | 35:48.04 | 1:10.67 | 161104 | 166420
16 | 36:58.71 | 0:12.13 | 166421 | 167333
17 | 37:11.09 | 4:01.70 | 167334 | 185478
18 | 41:13.04 | 2:12.05 | 185479 | 195383
19 | 43:25.09 | 0:48.00 | 195384 | 198983
20 | 44:13.09 | 3:28.58 | 198984 | 214641
21 | 47:41.67 | 7:53.60 | 214642 | 250176


Range status and errors

Selected range

Filename D:\CD\The Who - Tommy CD3.wav

Peak level 99.9 %
Extraction speed 5.7 X
Range quality 100.0 %
Test CRC D45E89AE
Copy CRC D45E89AE
Copy OK

No errors occurred


AccurateRip summary

Track 1 accurately ripped (confidence 5) [7C2A9E22] (AR v2)
Track 2 accurately ripped (confidence 5) [F85EE0CB] (AR v2)
Track 3 accurately ripped (confidence 5) [E3274B35] (AR v2)
Track 4 accurately ripped (confidence 5) [86C1B421] (AR v2)
Track 5 accurately ripped (confidence 5) [E26E1EC7] (AR v2)
Track 6 accurately ripped (confidence 5) [6AA920CE] (AR v2)
Track 7 accurately ripped (confidence 5) [0B4628A6] (AR v2)
Track 8 accurately ripped (confidence 5) [F9B11B9F] (AR v2)
Track 9 accurately ripped (confidence 5) [29FCA640] (AR v2)
Track 10 accurately ripped (confidence 5) [AEFCA4B7] (AR v2)
Track 11 accurately ripped (confidence 5) [4F02F0E8] (AR v2)
Track 12 accurately ripped (confidence 5) [E0C91DFD] (AR v2)
Track 13 accurately ripped (confidence 5) [03098222] (AR v2)
Track 14 accurately ripped (confidence 5) [76E75D32] (AR v2)
Track 15 accurately ripped (confidence 5) [C1F5CD0D] (AR v2)
Track 16 accurately ripped (confidence 5) [9C229E63] (AR v2)
Track 17 accurately ripped (confidence 5) [CEA33667] (AR v2)
Track 18 accurately ripped (confidence 5) [62EBA97E] (AR v2)
Track 19 accurately ripped (confidence 5) [4A01816D] (AR v2)
Track 20 accurately ripped (confidence 5) [28EE5652] (AR v2)
Track 21 accurately ripped (confidence 5) [407B18DC] (AR v2)

All tracks accurately ripped

End of status report

==== Log checksum FF1ED753C12B23B481F001B2D7981D1C06699A832494BE37E3761CCD2F365C2E ====


[CUETools log; Date: 06.01.2020 16:53:07; Version: 2.1.6]
[CTDB TOCID: tLhkdp9Xfchtv7xVAUDFSQLP80c-] database access error: ¬рем¤ ожидани¤ операции истекло.
[AccurateRip ID: 002af1b2-027332f5-250d0715] database access error: Ќевозможно соединитьс¤ с удаленным сервером.

Track Peak [ CRC32 ] [W/O NULL] [ LOG ]
– 99,9 [D45E89AE] [5859FE51] CRC32
01 99,8 [1B07A220] [EE17BA3F]
02 99,8 [9DDAEE5F] [84CC1505]
03 99,9 [4B2CF53A] [CC068E85]
04 99,9 [CC142F02] [3A61A994]
05 99,8 [C775AFF2] [3D933BE7]
06 99,8 [DA5E1315] [8A8AF104]
07 99,8 [11B8F5CF] [850B91CA]
08 99,9 [D3A195A2] [86D03DEA]
09 99,9 [D4CBB5D6] [D3CBA905]
10 99,8 [363A07CB] [720192FE]
11 99,8 [1CCF0A22] [68EB6793]
12 99,8 [EE18559C] [C68ED0C1]
13 99,8 [BE6A3F5F] [5CA9F240]
14 99,8 [A5FD6B0B] [1F362155]
15 99,8 [66031AEE] [D55D0F23]
16 99,8 [2F67EB39] [94ADBEBA]
17 99,8 [F643347D] [47F308AC]
18 99,8 [38F402CF] [AFD30570]
19 99,7 [4152EB62] [D199D1B6]
20 99,8 [7F8D1FE8] [1AAFE6C9]
21 99,8 [A0273734] [950FBB7A]


The Who - Tommy (1969) [2013, Super Deluxe Box Set]

All thanks go to gerrV

The Who in my Blog

Blu-ray by HDV

Download The Who - Tommy (1969):