Tags
Language
Tags

The Michael Schenker Group - Assault Attack (1982) {1995, Japanese Reissue}

Posted By: popsakov
The Michael Schenker Group - Assault Attack (1982) {1995, Japanese Reissue}

The Michael Schenker Group - Assault Attack (1982) {1995, Japanese Reissue}
EAC Rip | WavPack (Img) + Cue + Log ~ 303 Mb | MP3 CBR320 ~ 122 Mb
Full Scans | 00:40:11 | RAR 5% Recovery
Hard Rock, Heavy Metal | Chrysalis / Toshiba-EMI Ltd. #TOCP-3096

Michael Schenker's pairing with former Rainbow wailer Graham Bonnet made perfect sense, since Schenker's facile, classically flavored Euro metal guitar style is a graceful extension of Ritchie Blackmore's innovations. The results on Assault Attack are pleasing; while Schenker predictably delivers top-notch performances, Bonnet's vocals are edgier and more engaging than those of former MSG singer Gary Barden.

~ Andy Hinds, All Music

***************

Track List:

01. Assault Attack [0:04:19.00]
02. Rock You to the Ground [0:05:49.65]
03. Dancer [0:04:42.70]
04. Samurai [0:05:18.17]
05. Desert Song [0:05:52.70]
06. Broken Promises [0:06:23.60]
07. Searching for a Reason [0:03:49.33]
08. Ulcer [0:03:54.52]

Personnel:
Michael Schenker - guitars
Graham Bonnet - lead & backing vocals
Chris Glen - bass
Ted McKenna - drums, percussion

Exact Audio Copy V1.1 from 23. June 2015

EAC extraction logfile from 27. February 2016, 19:50

MSG / Assault Attack [TOCP-3096]

Used drive : HL-DT-STBD-RE BH10LS38 Adapter: 1 ID: 1

Read mode : Secure
Utilize accurate stream : Yes
Defeat audio cache : Yes
Make use of C2 pointers : No

Read offset correction : 667
Overread into Lead-In and Lead-Out : No
Fill up missing offset samples with silence : Yes
Delete leading and trailing silent blocks : No
Null samples used in CRC calculations : Yes
Used interface : Installed external ASPI interface

Used output format : User Defined Encoder
Selected bitrate : 128 kBit/s
Quality : High
Add ID3 tag : No
Command line compressor : C:\Program Files (x86)\Exact Audio Copy\wavpack-4.60.1\wavpack.exe
Additional command line options : -hm -w "Year=%year%" -w "Genre=%genre%" %source% %dest%


TOC of the extracted CD

Track | Start | Length | Start sector | End sector
––––––––––––––––––––––––––––-
1 | 0:00.00 | 4:19.00 | 0 | 19424
2 | 4:19.00 | 5:49.65 | 19425 | 45664
3 | 10:08.65 | 4:42.70 | 45665 | 66884
4 | 14:51.60 | 5:18.17 | 66885 | 90751
5 | 20:10.02 | 5:52.70 | 90752 | 117221
6 | 26:02.72 | 6:23.60 | 117222 | 146006
7 | 32:26.57 | 3:49.33 | 146007 | 163214
8 | 36:16.15 | 3:54.52 | 163215 | 180816


Range status and errors

Selected range

Filename G:\Rips by Alder\MSG - Assault Attack [TOCP-3096].wav

Peak level 100.0 %
Extraction speed 7.0 X
Range quality 100.0 %
Test CRC CA7783F8
Copy CRC CA7783F8
Copy OK

No errors occurred


AccurateRip summary

Track 1 accurately ripped (confidence 3) [86D7F978] (AR v1)
Track 2 accurately ripped (confidence 3) [2E97D381] (AR v1)
Track 3 accurately ripped (confidence 3) [AC11B965] (AR v1)
Track 4 accurately ripped (confidence 3) [EA214F5F] (AR v1)
Track 5 accurately ripped (confidence 3) [28E259C3] (AR v1)
Track 6 accurately ripped (confidence 3) [0C5E91D6] (AR v1)
Track 7 accurately ripped (confidence 3) [9A3A4AC1] (AR v1)
Track 8 accurately ripped (confidence 3) [65FA64A8] (AR v1)

All tracks accurately ripped

End of status report

–– CUETools DB Plugin V2.1.6

[CTDB TOCID: wqVNcfPIk6SdVpWE7kUOyKvPPeg-] found
Submit result: wqVNcfPIk6SdVpWE7kUOyKvPPeg- has been confirmed
Track | CTDB Status
1 | (12/16) Accurately ripped
2 | (15/16) Accurately ripped
3 | (16/16) Accurately ripped
4 | (16/16) Accurately ripped
5 | (16/16) Accurately ripped
6 | (15/16) Accurately ripped
7 | (16/16) Accurately ripped
8 | (16/16) Accurately ripped


==== Log checksum 753465A7E964A499011D1922716D00A40667FE80BA08C8501F47F728068B09B6 ====

[CUETools log; Date: 30.03.2018 18:27:31; Version: 2.1.6]
[CTDB TOCID: wqVNcfPIk6SdVpWE7kUOyKvPPeg-] found.
Track | CTDB Status
1 | (32/39) Accurately ripped
2 | (37/39) Accurately ripped
3 | (38/39) Accurately ripped
4 | (38/39) Accurately ripped
5 | (38/39) Accurately ripped
6 | (37/39) Accurately ripped
7 | (38/39) Accurately ripped
8 | (38/39) Accurately ripped
[AccurateRip ID: 000caa24-0054c590-64096a08] found.
Track [ CRC | V2 ] Status
01 [86d7f978|81bc6335] (03+02/14) Accurately ripped
02 [2e97d381|f477b4f4] (03+02/14) Accurately ripped
03 [ac11b965|4361ffde] (03+03/15) Accurately ripped
04 [ea214f5f|040b82d8] (03+03/15) Accurately ripped
05 [28e259c3|006e9635] (03+03/15) Accurately ripped
06 [0c5e91d6|8cdda8b1] (03+03/15) Accurately ripped
07 [9a3a4ac1|35220fab] (03+03/15) Accurately ripped
08 [65fa64a8|cf765756] (03+03/15) Accurately ripped
Offsetted by -1163:
01 [2477c05e] (00/14) No match (V2 was not tested)
02 [7980843d] (00/14) No match (V2 was not tested)
03 [5295035d] (00/15) No match (V2 was not tested)
04 [defa1d99] (00/15) No match (V2 was not tested)
05 [e6f20adf] (00/15) No match (V2 was not tested)
06 [56c26caa] (00/15) No match (V2 was not tested)
07 [07f0708a] (00/15) No match (V2 was not tested)
08 [683ef14d] (00/15) No match (V2 was not tested)
Offsetted by 249:
01 [e3ea4478] (00/14) No match (V2 was not tested)
02 [eba66ea1] (00/14) No match (V2 was not tested)
03 [71803ca0] (00/15) No match (V2 was not tested)
04 [730eea53] (00/15) No match (V2 was not tested)
05 [fb2b6705] (00/15) No match (V2 was not tested)
06 [532666b5] (00/15) No match (V2 was not tested)
07 [c4734129] (00/15) No match (V2 was not tested)
08 [c9ba71b7] (00/15) No match (V2 was not tested)
Offsetted by 277:
01 [8ae146f2] (00/14) No match (V2 was not tested)
02 [a07ba794] (00/14) No match (V2 was not tested)
03 [a5a92557] (00/15) No match (V2 was not tested)
04 [fa293890] (00/15) No match (V2 was not tested)
05 [0cfe7fa0] (00/15) No match (V2 was not tested)
06 [d6e4c1b2] (00/15) No match (V2 was not tested)
07 [666b2f74] (00/15) No match (V2 was not tested)
08 [7acea8a3] (00/15) No match (V2 was not tested)
Offsetted by 543:
01 [1619ceec] (00/14) No match (V2 was not tested)
02 [217589c3] (02/14) Accurately ripped
03 [f118ad92] (02/15) Accurately ripped
04 [a6485faf] (02/15) Accurately ripped
05 [08e11ceb] (02/15) Accurately ripped
06 [12c2f6af] (02/15) Accurately ripped
07 [d5a63e7f] (02/15) Accurately ripped
08 [fdbf71b5] (02/15) Accurately ripped

Track Peak [ CRC32 ] [W/O NULL] [ LOG ]
– 100,0 [CA7783F8] [206BFFF7] CRC32
01 100,0 [29914EA2] [C4808447]
02 94,1 [D37DE8C9] [2A14ED3F]
03 100,0 [51265B6C] [2AC0FB27]
04 100,0 [3DD1AD7D] [6B790762]
05 100,0 [C2F6D3E4] [F3651CF9]
06 100,0 [4D76AE41] [85685030]
07 100,0 [DA5C6ACF] [F6A3A872]
08 100,0 [FBC8B417] [71F268CC]

The Michael Schenker Group - Assault Attack (1982) {1995, Japanese Reissue}


All thanks go to Alder

>>> The Michael Schenker Group in my Blog <<<

DOWNLOAD: