Tags
Language
Tags
March 2023
Su Mo Tu We Th Fr Sa
26 27 28 1 2 3 4
5 6 7 8 9 10 11
12 13 14 15 16 17 18
19 20 21 22 23 24 25
26 27 28 29 30 31 1

The London Symphony Orchestra Featuring Ian Anderson - A Classic Case: The Music Of Jethro Tull (1985) {1987, Japan 1st Press}

Posted By: popsakov
The London Symphony Orchestra Featuring Ian Anderson - A Classic Case: The Music Of Jethro Tull (1985) {1987, Japan 1st Press}

The London Symphony Orchestra Featuring Ian Anderson - A Classic Case: The London Symphony Orchestra Plays The Music Of Jethro Tull (1985) {1987, Japan 1st Press}
EAC Rip | FLAC (Img) + Cue + Log ~ 258 Mb | MP3 CBR320 ~ 109 Mb
Covers Included | 00:42:57 | RAR 5% Recovery
Modern Classical / Symphonyc Rock / Art Rock / Progressive Rock
RCA Red Seal / RVC Corporation #R32P-1100

A Classic Case is an album by Jethro Tull, playing with the London Symphony Orchestra, released in 1985. The music was arranged and conducted by David Palmer, who had been a member of the group from 1976 to 1980. The album features band members Ian Anderson, Martin Barre, Dave Pegg and Peter-John Vettese. The album was recorded during the summer of 1984 at the CBS Studios in London. It was released on 31 December 1985 in the United States, where it reached #93 in the charts.

***************

The London Symphony Orchestra Featuring Ian Anderson - A Classic Case: The Music Of Jethro Tull (1985) {1987, Japan 1st Press}

The London Symphony Orchestra Featuring Ian Anderson - A Classic Case: The Music Of Jethro Tull (1985) {1987, Japan 1st Press}

Track List:

01. Locomotive Breath [0:04:24.00]
02. Thick as a Brick [0:04:31.38]
03. Elegy [0:03:48.00]
04. Bourre [0:03:14.37]
05. Fly by Night [0:04:18.00]
06. Aqualung [0:06:27.00]
07. Too Old to Rock'n'Roll, Too Young to Die [0:03:33.00]
08. Medley [0:04:04.38]
09. Living in the Past [0:03:37.00]
10. Warchild [0:04:59.62]

Personnel:
Ian Anderson - flute, acoustic guitar
Martin Barre - electric guitar
Dave Pegg - bass guitar
Peter-John Vettese - keyboards
Paul Burgess - drums, percussion
London Symphony Orchestra
David Palmer - orchestral arrangements

Exact Audio Copy V1.3 from 2. September 2016

EAC extraction logfile from 9. May 2019, 14:07

London Symphony Orchestra / A Classic Case - The London Symphony Orchestra plays the Music of Jethro Tull[R32P-1100]

Used drive : HL-DT-STBD-RE BH10LS38 Adapter: 1 ID: 0

Read mode : Secure
Utilize accurate stream : Yes
Defeat audio cache : Yes
Make use of C2 pointers : No

Read offset correction : 667
Overread into Lead-In and Lead-Out : No
Fill up missing offset samples with silence : Yes
Delete leading and trailing silent blocks : No
Null samples used in CRC calculations : Yes
Used interface : Native Win32 interface for Win NT & 2000

Used output format : User Defined Encoder
Selected bitrate : 128 kBit/s
Quality : High
Add ID3 tag : No
Command line compressor : C:\Program Files (x86)\Exact Audio Copy\Flac\flac.exe
Additional command line options : -V -8 -T "Date=%year%" -T "Genre=%genre%" %source%


TOC of the extracted CD

Track | Start | Length | Start sector | End sector
––––––––––––––––––––––––––––-
1 | 0:00.37 | 4:24.00 | 37 | 19836
2 | 4:24.37 | 4:31.38 | 19837 | 40199
3 | 8:56.00 | 3:48.00 | 40200 | 57299
4 | 12:44.00 | 3:14.37 | 57300 | 71886
5 | 15:58.37 | 4:18.00 | 71887 | 91236
6 | 20:16.37 | 6:27.00 | 91237 | 120261
7 | 26:43.37 | 3:33.00 | 120262 | 136236
8 | 30:16.37 | 4:04.38 | 136237 | 154574
9 | 34:21.00 | 3:37.00 | 154575 | 170849
10 | 37:58.00 | 4:59.62 | 170850 | 193336


Range status and errors

Selected range

Filename D:\Rips by Alder\London Symphony Orchestra - A Classic Case - The London Symphony Orchestra plays the Music of Jethro Tull[R32P-1100].wav

Peak level 100.0 %
Extraction speed 7.3 X
Range quality 100.0 %
Test CRC 3ED56F4F
Copy CRC 3ED56F4F
Copy OK

No errors occurred


AccurateRip summary

Track 1 not present in database
Track 2 not present in database
Track 3 not present in database
Track 4 not present in database
Track 5 not present in database
Track 6 not present in database
Track 7 not present in database
Track 8 not present in database
Track 9 not present in database
Track 10 not present in database

None of the tracks are present in the AccurateRip database

End of status report

–– CUETools DB Plugin V2.1.6

[CTDB TOCID: Tig3ouGAuOQThY5MIbzJft2BqPA-] disk not present in database
Submit result: Tig3ouGAuOQThY5MIbzJft2BqPA- has been uploaded


==== Log checksum E28754D7F396BF26E905864A2C71CBCC5B147D54F1FBE6A7B77E4B9C43CE73B7 ====

The London Symphony Orchestra Featuring Ian Anderson - A Classic Case: The Music Of Jethro Tull (1985) {1987, Japan 1st Press}