Subcategories

The Lens - Regeneration (2010)

Posted By: popsakov
The Lens - Regeneration (2010)

The Lens - Regeneration (2010)
EAC Rip | FLAC (Img) + Cue + Log ~ 400 Mb | MP3 CBR320 ~ 143 Mb
Scans (JPG, 300 dpi) ~ 41 Mb | RAR 5% Recovery
Neo Progressive Rock | Giant Electric Pea #GEPCD 1041

To find the roots of a "modest" band called THE LENS, we have to go back to 1976, when guitarist Mike Holmes, Peter Nicholls (vocals) and Niall Hayden (drums) met when according to the urban myth, searching for a GENESIS ticket, so they decide to form a band called THE GILN almost out of nothing.

They soon recruit bass player Rob Thompson and keyboardist Peter Blackler and changed the name to THE LENS. They start to play in small venues. Really this was an amateur attempt, to the point that Niall Hayden often was replaced by Brian Marshall, or when the two were together, both played, something similar happened with Peter Nichol's position.

The first revolution starts when Thompson and Blackler leave and the excellent keyboardist Martin Orford joins the band, his first appearance with THE LENS was the last one with two drummers, because Niall quitted after a show in Nettley Abbey.

After some changes, in 1978 the band turns into a four piece, but despite the problems and constant changes they kept growing, until 1981 came and THE LENS vanished, but………..IQ took it's place, the rest is history for anybody who knows a bit of Neo Prog.
~ Prog Archives

***************

The Lens - Regeneration (2010)

Track List:

01. Choosing A Farmer Part IV [7:13]
02. …To The Power Of Five [8:30]
03. Twenty Eight [2:53]
04. Dreams [10:10]
05. Sequential [7:18]
06. Full Of Stars [10:51]
07. A Little Robot Juice [4:31]
08. Slowdown [8:17]

Personnel:
Paul Cook - drums, percussions
Niall Hayden - drums
Tony Wright - Sax
Mike Holmes ( IQ ) - all other instuments

Exact Audio Copy V1.3 from 2. September 2016

EAC extraction logfile from 5. January 2017, 23:33

The Lens / Regeneration

Used drive : ASUS DRW-24B1LT Adapter: 1 ID: 2

Read mode : Secure
Utilize accurate stream : Yes
Defeat audio cache : Yes
Make use of C2 pointers : No

Read offset correction : 6
Overread into Lead-In and Lead-Out : No
Fill up missing offset samples with silence : Yes
Delete leading and trailing silent blocks : No
Null samples used in CRC calculations : Yes
Used interface : Native Win32 interface for Win NT & 2000

Used output format : User Defined Encoder
Selected bitrate : 1024 kBit/s
Quality : High
Add ID3 tag : Yes
Command line compressor : C:\Program Files (x86)\FLAC_1.3.1\win64\flac.exe
Additional command line options : -6 -V -T "ARTIST=%artist%" -T "TITLE=%title%" -T "ALBUM=%albumtitle%" -T "DATE=%year%" -T "TRACKNUMBER=%tracknr%" -T "GENRE=%genre%" -T "COMMENT=ripped by wurensh for rutracker.org" %source% -o %dest%


TOC of the extracted CD

Track | Start | Length | Start sector | End sector
––––––––––––––––––––––––––––-
1 | 0:00.00 | 7:13.02 | 0 | 32476
2 | 7:13.02 | 8:30.31 | 32477 | 70757
3 | 15:43.33 | 2:53.01 | 70758 | 83733
4 | 18:36.34 | 10:09.66 | 83734 | 129474
5 | 28:46.25 | 7:18.25 | 129475 | 162349
6 | 36:04.50 | 10:50.45 | 162350 | 211144
7 | 46:55.20 | 4:30.59 | 211145 | 231453
8 | 51:26.04 | 8:17.04 | 231454 | 268732


Range status and errors

Selected range

Filename Y:\EAC\wurensh\The Lens\The Lens - Regeneration.wav

Peak level 100.0 %
Extraction speed 8.4 X
Range quality 100.0 %
Test CRC A72AAEF8
Copy CRC A72AAEF8
Copy OK

No errors occurred


AccurateRip summary

Track 1 accurately ripped (confidence 11) [F451D2FB] (AR v2)
Track 2 accurately ripped (confidence 11) [AA031CEC] (AR v2)
Track 3 accurately ripped (confidence 11) [7C5ED74D] (AR v2)
Track 4 accurately ripped (confidence 11) [FA119ECD] (AR v2)
Track 5 accurately ripped (confidence 11) [664375EB] (AR v2)
Track 6 accurately ripped (confidence 11) [D54486BB] (AR v2)
Track 7 accurately ripped (confidence 11) [A27063B6] (AR v2)
Track 8 accurately ripped (confidence 11) [82F7D7C6] (AR v2)

All tracks accurately ripped

End of status report

–– CUETools DB Plugin V2.1.6

[CTDB TOCID: nkbheSj0R7tHMKOrUOY1D5Ij7hU-] found
Submit result: already submitted
Track | CTDB Status
1 | (9/9) Accurately ripped
2 | (9/9) Accurately ripped
3 | (9/9) Accurately ripped
4 | (9/9) Accurately ripped
5 | (9/9) Accurately ripped
6 | (9/9) Accurately ripped
7 | (9/9) Accurately ripped
8 | (9/9) Accurately ripped


==== Log checksum 47BDB68FEDB71B8D089F47A90EDF196A44364C3D133A49D19134D8D33015C0AD ====

foobar2000 1.2.6 / Dynamic Range Meter 1.1.1
log date: 2017-01-11 19:58:09

––––––––––––––––––––––––––––––––––––––––
Analyzed: The Lens / Regeneration
––––––––––––––––––––––––––––––––––––––––

DR Peak RMS Duration Track
––––––––––––––––––––––––––––––––––––––––
DR5 -0.05 dB -8.25 dB 7:13 01-Choosing A Farmer Part IV
DR5 -0.05 dB -6.95 dB 8:30 02-…To The Power Of Five
DR9 -0.82 dB -12.73 dB 2:53 03-Twenty Eight
DR5 -0.05 dB -7.17 dB 10:10 04-Dreams
DR8 -0.05 dB -10.08 dB 7:18 05-Sequential
DR5 0.00 dB -6.42 dB 10:51 06-Full Of Stars
DR7 -0.05 dB -9.34 dB 4:31 07-A Little Robot Juice
DR5 -0.05 dB -9.72 dB 8:17 08-Slowdown
––––––––––––––––––––––––––––––––––––––––

Number of tracks: 8
Official DR value: DR6

Samplerate: 44100 Hz
Channels: 2
Bits per sample: 16
Bitrate: 890 kbps
Codec: FLAC
================================================================================

[CUETools log; Date: 11.01.2017 19:58:10; Version: 2.1.5]
[CTDB TOCID: nkbheSj0R7tHMKOrUOY1D5Ij7hU-] found.
Track | CTDB Status
1 | (9/9) Accurately ripped
2 | (9/9) Accurately ripped
3 | (9/9) Accurately ripped
4 | (9/9) Accurately ripped
5 | (9/9) Accurately ripped
6 | (9/9) Accurately ripped
7 | (9/9) Accurately ripped
8 | (9/9) Accurately ripped
[AccurateRip ID: 001228ee-0079cb3c-710dff08] found.
Track [ CRC | V2 ] Status
01 [28d8f510|f451d2fb] (09+11/20) Accurately ripped
02 [60ac4bbb|aa031cec] (09+11/20) Accurately ripped
03 [8fd956c9|7c5ed74d] (09+11/20) Accurately ripped
04 [3c0a3d8f|fa119ecd] (09+11/20) Accurately ripped
05 [90ab1601|664375eb] (09+11/20) Accurately ripped
06 [03ea187e|d54486bb] (09+11/20) Accurately ripped
07 [d3561dbd|a27063b6] (09+11/20) Accurately ripped
08 [0a4d9441|82f7d7c6] (09+11/20) Accurately ripped

Track Peak [ CRC32 ] [W/O NULL] [ LOG ]
– 99,9 [A72AAEF8] [43E90568] CRC32
01 99,4 [90AE8EEC] [C8DDDE68]
02 99,4 [9A8D52B6] [4FDB0EBB]
03 91,0 [3DB7486E] [A9F0D484]
04 99,4 [6D8CA03F] [0F2BD001]
05 99,4 [8896185F] [F5BF8B40]
06 99,9 [037DFC44] [8822D250]
07 99,4 [A45D3FD4] [AE1739C8]
08 99,4 [EE8696A2] [C37764B6]

The Lens - Regeneration (2010)

See also:
IQ - Dark Matter (2004)
IQ - Live On The Road Of Bones (2015)

All thanks go to wurensh

> Visit my blog <