Tags
Language
Tags
May 2024
Su Mo Tu We Th Fr Sa
28 29 30 1 2 3 4
5 6 7 8 9 10 11
12 13 14 15 16 17 18
19 20 21 22 23 24 25
26 27 28 29 30 31 1

The Everly Brothers - Heartaches and Harmonies (4CD, 1994)

Posted By: ciklon5
The Everly Brothers - Heartaches and Harmonies (4CD, 1994)

The Everly Brothers - Heartaches and Harmonies (4CD, 1994)
FLAC (tracks+.cue,log,scans) | 4:26:51 | 1,7 Gb
Genre: Rock & Roll, Rockabilly, Country, Country Rock

The Everly Brothers were American country-influenced rock and roll singers, known for steel-string guitar and close harmony singing, formed by brothers Don Everly (born February 1, 1937 - died August 21, 2021) and Phil Everly (born January 19, 1939 - died January 3, 2014). They had their greatest success between 1957 and 1964. They were inducted into Rock And Roll Hall of Fame in 1986 (Performer).

Track List:
Disc: 1
1. Don't Let Our Love Die (1951 Version)
2. Keep A'lovin' Me
3. Bye Bye Love
4. I Wonder If I Care As Much
5. Hey Doll Baby (Demo Version)
6. Wake Up Little Susie
7. Maybe Tomorrow
8. All I Have To Do Is Dream
9. Claudette
10. Brand New Heartache
11. Bird Dog
12. Devoted To You
13. Problems
14. Long Time Gone
15. I'm Here To Get My Baby Out Of Jail
16. Kentucky
17. Poor Jenny
18. Take A Message To Mary
19. ('Til) I Kissed You
20. Let It Be Me
21. Since You Broke My Heart
22. When Will I Be Loved
23. Like Strangers

Disc: 2
1. Cathy's Clown
2. Always It's You
3. So Sad (To Watch Good Love Go Bad)
4. That's What You Do To Me
5. Sleepless Nights
6. Carol Jane
7. Lucille
8. Made To Love
9. Stick With Me Baby
10. Love Hurts
11. So How Come (No One Loves Me)
12. Donna Donna
13. Ebony Eyes
14. Walk Right Back
15. Why Not
16. Temptation
17. Don't Blame Me
18. Muskrat (Single Version)
19. Crying In The Rain
20. I'm Not Angry
21. Step It Up And Go
22. That's Old Fashioned (That's The Way Love Should Be)
23. How Can I Meet Her?
24. Nancy's Minuet (Alt. Version)
25. Nice Guy (Alt. Version)
26. Don't Ask Me To Be Friends
27. No One Can Make My Sunshine Smile
28. (So It Was…So It Is) So It Always Will Be
29. I'm Afraid
30. The Girl Sang The Blues
31. Love Her
32. The Ferris Wheel
33. Things Go Better With Coke

Disc: 3
1. Gone Gone Gone
2. Torture
3. You're My Girl
4. The Price Of Love
5. It Only Costs A Dime
6. Love Is Strange
7. Man With Money
8. To Show I Love You
9. I'll See Your Light
10. It's All Over
11. I Used To Love You
12. And I'll Go
13. (You Got) The Power Of Love
14. Leave My Girl Alone
15. Somebody Help Me
16. So Lonely
17. Kiss Your Man Goodbye
18. The Collector
19. Even If I Hold It In My Hand (Hard Luck Story)
20. Bowling Green
21. I Don't Want To Love You
22. Mary Jane
23. Love Of The Common People
24. You're Just What I Was Looking For Today

Disc: 4
1. Empty Boxes
2. Love With Your Heart
3. Milk Train
4. Lord Of The Manor
5. Mama Tried
6. T For Texas
7. I Wonder Of O Care As Much (Version Two)
8. You Done Me Wrong
9. Turn Around
10. Omaha
11. I'm On My Way Home Again
12. Cuckoo Bird
13. Carolina In My Mind
14. My Little Yellow Bird
15. Stories We Could Tell
16. Green River
17. Poems Prayers And Promises
18. Paradise
19. On The Wings Of A Nightingale
20. Why Worry
21. Arms Of Mary
22. Born Yesterday
23. Don't Let Our Love Die (1990 Version)
Exact Audio Copy V0.99 prebeta 5 from 4. May 2009

EAC extraction logfile from 30. September 2011, 16:15

Everly Brothers / Heartaches & Harmonies (disc 1)

Used drive : TSSTcorpCDDVDW TS-L633Y Adapter: 0 ID: 1

Read mode : Secure
Utilize accurate stream : Yes
Defeat audio cache : No
Make use of C2 pointers : No

Read offset correction : 6
Overread into Lead-In and Lead-Out : No
Fill up missing offset samples with silence : Yes
Delete leading and trailing silent blocks : No
Null samples used in CRC calculations : No
Used interface : Native Win32 interface for Win NT & 2000
Gap handling : Not detected, thus appended to previous track

Used output format : User Defined Encoder
Selected bitrate : 768 kBit/s
Quality : High
Add ID3 tag : No
Command line compressor : C:\Program Files (x86)\Exact Audio Copy\FLAC\FLAC.EXE
Additional command line options : -6 -V -T "ARTIST=%a" -T "TITLE=%t" -T "ALBUM=%g" -T "DATE=%y" -T "TRACKNUMBER=%n" -T "GENRE=%m" -T "COMMENT=%e" %s -o %d


TOC of the extracted CD

Track | Start | Length | Start sector | End sector
––––––––––––––––––––––––––––-
1 | 0:00.32 | 3:11.60 | 32 | 14416
2 | 3:12.17 | 2:27.28 | 14417 | 25469
3 | 5:39.45 | 2:23.02 | 25470 | 36196
4 | 8:02.47 | 2:16.65 | 36197 | 46461
5 | 10:19.37 | 2:16.65 | 46462 | 56726
6 | 12:36.27 | 2:03.60 | 56727 | 66011
7 | 14:40.12 | 2:08.23 | 66012 | 75634
8 | 16:48.35 | 2:21.65 | 75635 | 86274
9 | 19:10.25 | 2:16.20 | 86275 | 96494
10 | 21:26.45 | 2:18.02 | 96495 | 106846
11 | 23:44.47 | 2:17.35 | 106847 | 117156
12 | 26:02.07 | 2:25.05 | 117157 | 128036
13 | 28:27.12 | 1:58.68 | 128037 | 136954
14 | 30:26.05 | 2:26.52 | 136955 | 147956
15 | 32:52.57 | 3:37.35 | 147957 | 164266
16 | 36:30.17 | 3:09.60 | 164267 | 178501
17 | 39:40.02 | 2:11.53 | 178502 | 188379
18 | 41:51.55 | 2:28.20 | 188380 | 199499
19 | 44:20.00 | 2:24.65 | 199500 | 210364
20 | 46:44.65 | 2:38.32 | 210365 | 222246
21 | 49:23.22 | 1:57.20 | 222247 | 231041
22 | 51:20.42 | 2:03.45 | 231042 | 240311
23 | 53:24.12 | 2:00.10 | 240312 | 249321


Track 1

Filename C:\Users\David Hartigan\Music\Flac Rips\The Everly Brothers - Heartaches and Harmonies Box Set [Flac]\The Everly Brothers - Heartaches and Harmonies (Disc 1) [Flac]\01 Don't Let Our Love Die (1951 Version).wav

Peak level 100.0 %
Track quality 100.0 %
Copy CRC 5E302350
Accurately ripped (confidence 12) [1330D01C]
Copy OK

Track 2

Filename C:\Users\David Hartigan\Music\Flac Rips\The Everly Brothers - Heartaches and Harmonies Box Set [Flac]\The Everly Brothers - Heartaches and Harmonies (Disc 1) [Flac]\02 Keep A' Lovin' Me.wav

Peak level 97.2 %
Track quality 100.0 %
Copy CRC 462C73CD
Accurately ripped (confidence 12) [4D1C993E]
Copy OK

Track 3

Filename C:\Users\David Hartigan\Music\Flac Rips\The Everly Brothers - Heartaches and Harmonies Box Set [Flac]\The Everly Brothers - Heartaches and Harmonies (Disc 1) [Flac]\03 Bye Bye Love.wav

Peak level 100.0 %
Track quality 100.0 %
Copy CRC C63E1885
Accurately ripped (confidence 12) [8C8CC752]
Copy OK

Track 4

Filename C:\Users\David Hartigan\Music\Flac Rips\The Everly Brothers - Heartaches and Harmonies Box Set [Flac]\The Everly Brothers - Heartaches and Harmonies (Disc 1) [Flac]\04 I Wonder If I Care as Much.wav

Peak level 99.9 %
Track quality 100.0 %
Copy CRC 5E10044D
Accurately ripped (confidence 12) [87DA042A]
Copy OK

Track 5

Filename C:\Users\David Hartigan\Music\Flac Rips\The Everly Brothers - Heartaches and Harmonies Box Set [Flac]\The Everly Brothers - Heartaches and Harmonies (Disc 1) [Flac]\05 Hey Doll Baby (Demo).wav

Peak level 94.6 %
Track quality 100.0 %
Copy CRC FAA0F02E
Accurately ripped (confidence 12) [5C35C234]
Copy OK

Track 6

Filename C:\Users\David Hartigan\Music\Flac Rips\The Everly Brothers - Heartaches and Harmonies Box Set [Flac]\The Everly Brothers - Heartaches and Harmonies (Disc 1) [Flac]\06 Wake Up Little Susie.wav

Peak level 100.0 %
Track quality 100.0 %
Copy CRC 80F2AFCE
Accurately ripped (confidence 12) [49D38D0D]
Copy OK

Track 7

Filename C:\Users\David Hartigan\Music\Flac Rips\The Everly Brothers - Heartaches and Harmonies Box Set [Flac]\The Everly Brothers - Heartaches and Harmonies (Disc 1) [Flac]\07 Maybe Tomorrow.wav

Peak level 100.0 %
Track quality 100.0 %
Copy CRC 74219E1F
Accurately ripped (confidence 12) [0A9DDCF1]
Copy OK

Track 8

Filename C:\Users\David Hartigan\Music\Flac Rips\The Everly Brothers - Heartaches and Harmonies Box Set [Flac]\The Everly Brothers - Heartaches and Harmonies (Disc 1) [Flac]\08 All I Have to Do Is Dream.wav

Peak level 94.5 %
Track quality 100.0 %
Copy CRC 80B12000
Accurately ripped (confidence 12) [6BC91494]
Copy OK

Track 9

Filename C:\Users\David Hartigan\Music\Flac Rips\The Everly Brothers - Heartaches and Harmonies Box Set [Flac]\The Everly Brothers - Heartaches and Harmonies (Disc 1) [Flac]\09 Claudette.wav

Peak level 100.0 %
Track quality 100.0 %
Copy CRC F7FB6A4F
Accurately ripped (confidence 12) [75341B56]
Copy OK

Track 10

Filename C:\Users\David Hartigan\Music\Flac Rips\The Everly Brothers - Heartaches and Harmonies Box Set [Flac]\The Everly Brothers - Heartaches and Harmonies (Disc 1) [Flac]\10 Brand New Heartache.wav

Peak level 100.0 %
Track quality 100.0 %
Copy CRC 8AB0D5EB
Accurately ripped (confidence 12) [DBDC3CEA]
Copy OK

Track 11

Filename C:\Users\David Hartigan\Music\Flac Rips\The Everly Brothers - Heartaches and Harmonies Box Set [Flac]\The Everly Brothers - Heartaches and Harmonies (Disc 1) [Flac]\11 Bird Dog.wav

Peak level 100.0 %
Track quality 99.9 %
Copy CRC AB523671
Accurately ripped (confidence 12) [7C8A7F87]
Copy OK

Track 12

Filename C:\Users\David Hartigan\Music\Flac Rips\The Everly Brothers - Heartaches and Harmonies Box Set [Flac]\The Everly Brothers - Heartaches and Harmonies (Disc 1) [Flac]\12 Devoted to You.wav

Peak level 76.6 %
Track quality 100.0 %
Copy CRC AEFDD506
Accurately ripped (confidence 12) [1DBF35CF]
Copy OK

Track 13

Filename C:\Users\David Hartigan\Music\Flac Rips\The Everly Brothers - Heartaches and Harmonies Box Set [Flac]\The Everly Brothers - Heartaches and Harmonies (Disc 1) [Flac]\13 Problems.wav

Peak level 100.0 %
Track quality 99.9 %
Copy CRC 815C7BDB
Accurately ripped (confidence 12) [4B4EFC2C]
Copy OK

Track 14

Filename C:\Users\David Hartigan\Music\Flac Rips\The Everly Brothers - Heartaches and Harmonies Box Set [Flac]\The Everly Brothers - Heartaches and Harmonies (Disc 1) [Flac]\14 Long Time Gone.wav

Peak level 95.9 %
Track quality 100.0 %
Copy CRC 63E04733
Accurately ripped (confidence 12) [15469BA9]
Copy OK

Track 15

Filename C:\Users\David Hartigan\Music\Flac Rips\The Everly Brothers - Heartaches and Harmonies Box Set [Flac]\The Everly Brothers - Heartaches and Harmonies (Disc 1) [Flac]\15 I'm Here to Get My Baby Out of Jail.wav

Peak level 91.9 %
Track quality 99.9 %
Copy CRC 450DFA43
Accurately ripped (confidence 12) [AC733DCB]
Copy OK

Track 16

Filename C:\Users\David Hartigan\Music\Flac Rips\The Everly Brothers - Heartaches and Harmonies Box Set [Flac]\The Everly Brothers - Heartaches and Harmonies (Disc 1) [Flac]\16 Kentucky.wav

Peak level 100.0 %
Track quality 100.0 %
Copy CRC AB9E719E
Accurately ripped (confidence 12) [5C123F8E]
Copy OK

Track 17

Filename C:\Users\David Hartigan\Music\Flac Rips\The Everly Brothers - Heartaches and Harmonies Box Set [Flac]\The Everly Brothers - Heartaches and Harmonies (Disc 1) [Flac]\17 Poor Jenny.wav

Peak level 97.2 %
Track quality 100.0 %
Copy CRC B0074A9D
Accurately ripped (confidence 12) [201FC0C1]
Copy OK

Track 18

Filename C:\Users\David Hartigan\Music\Flac Rips\The Everly Brothers - Heartaches and Harmonies Box Set [Flac]\The Everly Brothers - Heartaches and Harmonies (Disc 1) [Flac]\18 Take a Message to Mary.wav

Peak level 97.2 %
Track quality 100.0 %
Copy CRC 73989BE6
Accurately ripped (confidence 12) [D8576EBA]
Copy OK

Track 19

Filename C:\Users\David Hartigan\Music\Flac Rips\The Everly Brothers - Heartaches and Harmonies Box Set [Flac]\The Everly Brothers - Heartaches and Harmonies (Disc 1) [Flac]\19 ('Til) I Kissed You.wav

Peak level 99.9 %
Track quality 100.0 %
Copy CRC F1CA23BA
Accurately ripped (confidence 12) [CBCCE749]
Copy OK

Track 20

Filename C:\Users\David Hartigan\Music\Flac Rips\The Everly Brothers - Heartaches and Harmonies Box Set [Flac]\The Everly Brothers - Heartaches and Harmonies (Disc 1) [Flac]\20 Let It Be Me.wav

Peak level 80.1 %
Track quality 100.0 %
Copy CRC E90D4E79
Accurately ripped (confidence 12) [8DCF931F]
Copy OK

Track 21

Filename C:\Users\David Hartigan\Music\Flac Rips\The Everly Brothers - Heartaches and Harmonies Box Set [Flac]\The Everly Brothers - Heartaches and Harmonies (Disc 1) [Flac]\21 Since You Broke My Heart.wav

Peak level 95.3 %
Track quality 100.0 %
Copy CRC D68B1C34
Accurately ripped (confidence 12) [84DE2280]
Copy OK

Track 22

Filename C:\Users\David Hartigan\Music\Flac Rips\The Everly Brothers - Heartaches and Harmonies Box Set [Flac]\The Everly Brothers - Heartaches and Harmonies (Disc 1) [Flac]\22 When Will I Be Loved.wav

Peak level 100.0 %
Track quality 100.0 %
Copy CRC FB3AE12C
Accurately ripped (confidence 12) [2CB86CD5]
Copy OK

Track 23

Filename C:\Users\David Hartigan\Music\Flac Rips\The Everly Brothers - Heartaches and Harmonies Box Set [Flac]\The Everly Brothers - Heartaches and Harmonies (Disc 1) [Flac]\23 Like Strangers.wav

Peak level 70.2 %
Track quality 100.0 %
Copy CRC B35E656B
Accurately ripped (confidence 12) [F6A5EC58]
Copy OK


All tracks accurately ripped

No errors occurred

End of status report
Exact Audio Copy V0.99 prebeta 5 from 4. May 2009

EAC extraction logfile from 30. September 2011, 16:46

Everly Brothers / Heartaches & Harmonies (disc 2)

Used drive : TSSTcorpCDDVDW TS-L633Y Adapter: 0 ID: 1

Read mode : Secure
Utilize accurate stream : Yes
Defeat audio cache : No
Make use of C2 pointers : No

Read offset correction : 6
Overread into Lead-In and Lead-Out : No
Fill up missing offset samples with silence : Yes
Delete leading and trailing silent blocks : No
Null samples used in CRC calculations : No
Used interface : Native Win32 interface for Win NT & 2000
Gap handling : Not detected, thus appended to previous track

Used output format : User Defined Encoder
Selected bitrate : 768 kBit/s
Quality : High
Add ID3 tag : No
Command line compressor : C:\Program Files (x86)\Exact Audio Copy\FLAC\FLAC.EXE
Additional command line options : -6 -V -T "ARTIST=%a" -T "TITLE=%t" -T "ALBUM=%g" -T "DATE=%y" -T "TRACKNUMBER=%n" -T "GENRE=%m" -T "COMMENT=%e" %s -o %d


TOC of the extracted CD

Track | Start | Length | Start sector | End sector
––––––––––––––––––––––––––––-
1 | 0:00.32 | 2:26.20 | 32 | 11001
2 | 2:26.52 | 2:31.03 | 11002 | 22329
3 | 4:57.55 | 2:36.10 | 22330 | 34039
4 | 7:33.65 | 2:04.22 | 34040 | 43361
5 | 9:38.12 | 2:24.68 | 43362 | 54229
6 | 12:03.05 | 1:52.45 | 54230 | 62674
7 | 13:55.50 | 2:34.00 | 62675 | 74224
8 | 16:29.50 | 2:06.00 | 74225 | 83674
9 | 18:35.50 | 1:57.40 | 83675 | 92489
10 | 20:33.15 | 2:23.62 | 92490 | 103276
11 | 22:57.02 | 2:18.48 | 103277 | 113674
12 | 25:15.50 | 2:16.15 | 113675 | 123889
13 | 27:31.65 | 3:07.52 | 123890 | 137966
14 | 30:39.42 | 2:19.35 | 137967 | 148426
15 | 32:59.02 | 2:46.03 | 148427 | 160879
16 | 35:45.05 | 2:14.70 | 160880 | 170999
17 | 38:00.00 | 3:28.17 | 171000 | 186616
18 | 41:28.17 | 2:20.08 | 186617 | 197124
19 | 43:48.25 | 2:02.62 | 197125 | 206336
20 | 45:51.12 | 2:03.03 | 206337 | 215564
21 | 47:54.15 | 2:00.10 | 215565 | 224574
22 | 49:54.25 | 2:25.45 | 224575 | 235494
23 | 52:19.70 | 1:51.37 | 235495 | 243856
24 | 54:11.32 | 2:22.53 | 243857 | 254559
25 | 56:34.10 | 2:03.07 | 254560 | 263791
26 | 58:37.17 | 2:29.65 | 263792 | 275031
27 | 61:07.07 | 2:07.60 | 275032 | 284616
28 | 63:14.67 | 1:57.55 | 284617 | 293446
29 | 65:12.47 | 1:52.40 | 293447 | 301886
30 | 67:05.12 | 2:13.18 | 301887 | 311879
31 | 69:18.30 | 2:21.60 | 311880 | 322514
32 | 71:40.15 | 2:19.22 | 322515 | 332961
33 | 73:59.37 | 1:29.70 | 332962 | 339706


Track 1

Filename C:\Users\David Hartigan\Music\Flac Rips\The Everly Brothers - Heartaches and Harmonies Box Set [Flac]\The Everly Brothers - Heartaches and Harmonies (Disc 2) [Flac]\01 Cathy's Clown.wav

Peak level 100.0 %
Track quality 100.0 %
Copy CRC 73FD9FD6
Accurately ripped (confidence 11) [B7193017]
Copy OK

Track 2

Filename C:\Users\David Hartigan\Music\Flac Rips\The Everly Brothers - Heartaches and Harmonies Box Set [Flac]\The Everly Brothers - Heartaches and Harmonies (Disc 2) [Flac]\02 Always It's You.wav

Peak level 84.7 %
Track quality 100.0 %
Copy CRC C2F07849
Accurately ripped (confidence 12) [0E6E9362]
Copy OK

Track 3

Filename C:\Users\David Hartigan\Music\Flac Rips\The Everly Brothers - Heartaches and Harmonies Box Set [Flac]\The Everly Brothers - Heartaches and Harmonies (Disc 2) [Flac]\03 So Sad (To Watch Good Love Go Bad).wav

Peak level 100.0 %
Track quality 100.0 %
Copy CRC A3769FC9
Accurately ripped (confidence 11) [BB8D5017]
Copy OK

Track 4

Filename C:\Users\David Hartigan\Music\Flac Rips\The Everly Brothers - Heartaches and Harmonies Box Set [Flac]\The Everly Brothers - Heartaches and Harmonies (Disc 2) [Flac]\04 That's What You Do to Me.wav

Peak level 100.0 %
Track quality 100.0 %
Copy CRC B7708DF5
Accurately ripped (confidence 11) [59FF67C2]
Copy OK

Track 5

Filename C:\Users\David Hartigan\Music\Flac Rips\The Everly Brothers - Heartaches and Harmonies Box Set [Flac]\The Everly Brothers - Heartaches and Harmonies (Disc 2) [Flac]\05 Sleepless Nights.wav

Peak level 92.4 %
Track quality 100.0 %
Copy CRC DED8D304
Accurately ripped (confidence 11) [EB1A3156]
Copy OK

Track 6

Filename C:\Users\David Hartigan\Music\Flac Rips\The Everly Brothers - Heartaches and Harmonies Box Set [Flac]\The Everly Brothers - Heartaches and Harmonies (Disc 2) [Flac]\06 Carol Jane.wav

Peak level 100.0 %
Track quality 100.0 %
Copy CRC 892602EF
Accurately ripped (confidence 11) [11A5D906]
Copy OK

Track 7

Filename C:\Users\David Hartigan\Music\Flac Rips\The Everly Brothers - Heartaches and Harmonies Box Set [Flac]\The Everly Brothers - Heartaches and Harmonies (Disc 2) [Flac]\07 Lucille.wav

Peak level 100.0 %
Track quality 100.0 %
Copy CRC 499135A1
Accurately ripped (confidence 12) [D76D8B09]
Copy OK

Track 8

Filename C:\Users\David Hartigan\Music\Flac Rips\The Everly Brothers - Heartaches and Harmonies Box Set [Flac]\The Everly Brothers - Heartaches and Harmonies (Disc 2) [Flac]\08 Made to Love.wav

Peak level 93.1 %
Track quality 100.0 %
Copy CRC 240179AC
Accurately ripped (confidence 12) [780D9A86]
Copy OK

Track 9

Filename C:\Users\David Hartigan\Music\Flac Rips\The Everly Brothers - Heartaches and Harmonies Box Set [Flac]\The Everly Brothers - Heartaches and Harmonies (Disc 2) [Flac]\09 Stick With Me Baby.wav

Peak level 100.0 %
Track quality 99.9 %
Copy CRC A559F86B
Accurately ripped (confidence 11) [0C4CEFD0]
Copy OK

Track 10

Filename C:\Users\David Hartigan\Music\Flac Rips\The Everly Brothers - Heartaches and Harmonies Box Set [Flac]\The Everly Brothers - Heartaches and Harmonies (Disc 2) [Flac]\10 Love Hurts.wav

Peak level 100.0 %
Track quality 100.0 %
Copy CRC D92D76C4
Accurately ripped (confidence 12) [D536EFA2]
Copy OK

Track 11

Filename C:\Users\David Hartigan\Music\Flac Rips\The Everly Brothers - Heartaches and Harmonies Box Set [Flac]\The Everly Brothers - Heartaches and Harmonies (Disc 2) [Flac]\11 So How Come (No One Loves Me).wav

Peak level 100.0 %
Track quality 100.0 %
Copy CRC 1B442B41
Accurately ripped (confidence 11) [E43356FA]
Copy OK

Track 12

Filename C:\Users\David Hartigan\Music\Flac Rips\The Everly Brothers - Heartaches and Harmonies Box Set [Flac]\The Everly Brothers - Heartaches and Harmonies (Disc 2) [Flac]\12 Donna, Donna.wav

Peak level 100.0 %
Track quality 100.0 %
Copy CRC 51A0396F
Accurately ripped (confidence 11) [2ECBDCF0]
Copy OK

Track 13

Filename C:\Users\David Hartigan\Music\Flac Rips\The Everly Brothers - Heartaches and Harmonies Box Set [Flac]\The Everly Brothers - Heartaches and Harmonies (Disc 2) [Flac]\13 Ebony Eyes.wav

Peak level 100.0 %
Track quality 100.0 %
Copy CRC 46EA2A2A
Accurately ripped (confidence 11) [FB4A358C]
Copy OK

Track 14

Filename C:\Users\David Hartigan\Music\Flac Rips\The Everly Brothers - Heartaches and Harmonies Box Set [Flac]\The Everly Brothers - Heartaches and Harmonies (Disc 2) [Flac]\14 Walk Right Back.wav

Peak level 100.0 %
Track quality 99.9 %
Copy CRC E736C3FF
Accurately ripped (confidence 11) [381BC2BE]
Copy OK

Track 15

Filename C:\Users\David Hartigan\Music\Flac Rips\The Everly Brothers - Heartaches and Harmonies Box Set [Flac]\The Everly Brothers - Heartaches and Harmonies (Disc 2) [Flac]\15 Why Not.wav

Peak level 96.2 %
Track quality 99.9 %
Copy CRC 60C9E872
Accurately ripped (confidence 11) [620966E2]
Copy OK

Track 16

Filename C:\Users\David Hartigan\Music\Flac Rips\The Everly Brothers - Heartaches and Harmonies Box Set [Flac]\The Everly Brothers - Heartaches and Harmonies (Disc 2) [Flac]\16 Temptation.wav

Peak level 100.0 %
Track quality 100.0 %
Copy CRC 8495CFF5
Accurately ripped (confidence 12) [B61D3981]
Copy OK

Track 17

Filename C:\Users\David Hartigan\Music\Flac Rips\The Everly Brothers - Heartaches and Harmonies Box Set [Flac]\The Everly Brothers - Heartaches and Harmonies (Disc 2) [Flac]\17 Don't Blame Me.wav

Peak level 100.0 %
Track quality 99.9 %
Copy CRC D3012F17
Accurately ripped (confidence 11) [D8F03B5E]
Copy OK

Track 18

Filename C:\Users\David Hartigan\Music\Flac Rips\The Everly Brothers - Heartaches and Harmonies Box Set [Flac]\The Everly Brothers - Heartaches and Harmonies (Disc 2) [Flac]\18 Muskrat (Single Version).wav

Peak level 100.0 %
Track quality 99.9 %
Copy CRC 8ABFDA34
Accurately ripped (confidence 11) [C80F57BA]
Copy OK

Track 19

Filename C:\Users\David Hartigan\Music\Flac Rips\The Everly Brothers - Heartaches and Harmonies Box Set [Flac]\The Everly Brothers - Heartaches and Harmonies (Disc 2) [Flac]\19 Crying in the Rain.wav

Peak level 100.0 %
Track quality 100.0 %
Copy CRC E31CD0F4
Accurately ripped (confidence 12) [7E9FB802]
Copy OK

Track 20

Filename C:\Users\David Hartigan\Music\Flac Rips\The Everly Brothers - Heartaches and Harmonies Box Set [Flac]\The Everly Brothers - Heartaches and Harmonies (Disc 2) [Flac]\20 I'm Not Angry.wav

Peak level 100.0 %
Track quality 100.0 %
Copy CRC 2D5F43D1
Accurately ripped (confidence 12) [B5DD38C9]
Copy OK

Track 21

Filename C:\Users\David Hartigan\Music\Flac Rips\The Everly Brothers - Heartaches and Harmonies Box Set [Flac]\The Everly Brothers - Heartaches and Harmonies (Disc 2) [Flac]\21 Step It Up and Go.wav

Peak level 100.0 %
Track quality 100.0 %
Copy CRC 95BFDBFB
Accurately ripped (confidence 11) [9D2EFEA5]
Copy OK

Track 22

Filename C:\Users\David Hartigan\Music\Flac Rips\The Everly Brothers - Heartaches and Harmonies Box Set [Flac]\The Everly Brothers - Heartaches and Harmonies (Disc 2) [Flac]\22 That's Old Fashioned (That's the Way Love Should Be).wav

Peak level 100.0 %
Track quality 100.0 %
Copy CRC C07E7F73
Accurately ripped (confidence 12) [458F9001]
Copy OK

Track 23

Filename C:\Users\David Hartigan\Music\Flac Rips\The Everly Brothers - Heartaches and Harmonies Box Set [Flac]\The Everly Brothers - Heartaches and Harmonies (Disc 2) [Flac]\23 How Can I Meet Her .wav

Peak level 100.0 %
Track quality 100.0 %
Copy CRC 68E3447E
Accurately ripped (confidence 12) [00EE7061]
Copy OK

Track 24

Filename C:\Users\David Hartigan\Music\Flac Rips\The Everly Brothers - Heartaches and Harmonies Box Set [Flac]\The Everly Brothers - Heartaches and Harmonies (Disc 2) [Flac]\24 Nancy's Minuet (Alternate Version).wav

Peak level 100.0 %
Track quality 100.0 %
Copy CRC 3AFA4E83
Accurately ripped (confidence 11) [29A77988]
Copy OK

Track 25

Filename C:\Users\David Hartigan\Music\Flac Rips\The Everly Brothers - Heartaches and Harmonies Box Set [Flac]\The Everly Brothers - Heartaches and Harmonies (Disc 2) [Flac]\25 Nice Guy (Alternate Version).wav

Peak level 100.0 %
Track quality 100.0 %
Copy CRC 0E533741
Accurately ripped (confidence 11) [3C99D850]
Copy OK

Track 26

Filename C:\Users\David Hartigan\Music\Flac Rips\The Everly Brothers - Heartaches and Harmonies Box Set [Flac]\The Everly Brothers - Heartaches and Harmonies (Disc 2) [Flac]\26 Don't Ask Me to Be Friends.wav

Peak level 100.0 %
Track quality 100.0 %
Copy CRC F16C9510
Accurately ripped (confidence 11) [AC3F2D7D]
Copy OK

Track 27

Filename C:\Users\David Hartigan\Music\Flac Rips\The Everly Brothers - Heartaches and Harmonies Box Set [Flac]\The Everly Brothers - Heartaches and Harmonies (Disc 2) [Flac]\27 No One Can Make My Sunshine Smile.wav

Peak level 100.0 %
Track quality 100.0 %
Copy CRC C31D9BF1
Accurately ripped (confidence 11) [1790EAEC]
Copy OK

Track 28

Filename C:\Users\David Hartigan\Music\Flac Rips\The Everly Brothers - Heartaches and Harmonies Box Set [Flac]\The Everly Brothers - Heartaches and Harmonies (Disc 2) [Flac]\28 (So It Was…So It Is) So It Always Will Be.wav

Peak level 100.0 %
Track quality 100.0 %
Copy CRC E009BCE7
Accurately ripped (confidence 11) [2032C30F]
Copy OK

Track 29

Filename C:\Users\David Hartigan\Music\Flac Rips\The Everly Brothers - Heartaches and Harmonies Box Set [Flac]\The Everly Brothers - Heartaches and Harmonies (Disc 2) [Flac]\29 I'm Afraid.wav

Peak level 100.0 %
Track quality 99.9 %
Copy CRC 4217B966
Accurately ripped (confidence 11) [5FD7D24E]
Copy OK

Track 30

Filename C:\Users\David Hartigan\Music\Flac Rips\The Everly Brothers - Heartaches and Harmonies Box Set [Flac]\The Everly Brothers - Heartaches and Harmonies (Disc 2) [Flac]\30 The Girl Sang the Blues.wav

Peak level 100.0 %
Track quality 100.0 %
Copy CRC 1B9AC224
Accurately ripped (confidence 11) [ACB3E44A]
Copy OK

Track 31

Filename C:\Users\David Hartigan\Music\Flac Rips\The Everly Brothers - Heartaches and Harmonies Box Set [Flac]\The Everly Brothers - Heartaches and Harmonies (Disc 2) [Flac]\31 Love Her.wav

Peak level 100.0 %
Track quality 99.9 %
Copy CRC 017B405B
Accurately ripped (confidence 12) [76DB3A82]
Copy OK

Track 32

Filename C:\Users\David Hartigan\Music\Flac Rips\The Everly Brothers - Heartaches and Harmonies Box Set [Flac]\The Everly Brothers - Heartaches and Harmonies (Disc 2) [Flac]\32 The Ferris Wheel.wav

Peak level 100.0 %
Track quality 100.0 %
Copy CRC 2A042F9F
Accurately ripped (confidence 11) [9520D67B]
Copy OK

Track 33

Filename C:\Users\David Hartigan\Music\Flac Rips\The Everly Brothers - Heartaches and Harmonies Box Set [Flac]\The Everly Brothers - Heartaches and Harmonies (Disc 2) [Flac]\33 Things Go Better With Coke.wav

Peak level 81.7 %
Track quality 100.0 %
Copy CRC 3A161275
Accurately ripped (confidence 11) [B15FF7AC]
Copy OK


All tracks accurately ripped

No errors occurred

End of status report
Exact Audio Copy V0.99 prebeta 5 from 4. May 2009

EAC extraction logfile from 30. September 2011, 17:01

Everly Brothers / Heartaches & Harmonies (disc 3)

Used drive : TSSTcorpCDDVDW TS-L633Y Adapter: 0 ID: 1

Read mode : Secure
Utilize accurate stream : Yes
Defeat audio cache : No
Make use of C2 pointers : No

Read offset correction : 6
Overread into Lead-In and Lead-Out : No
Fill up missing offset samples with silence : Yes
Delete leading and trailing silent blocks : No
Null samples used in CRC calculations : No
Used interface : Native Win32 interface for Win NT & 2000
Gap handling : Not detected, thus appended to previous track

Used output format : User Defined Encoder
Selected bitrate : 768 kBit/s
Quality : High
Add ID3 tag : No
Command line compressor : C:\Program Files (x86)\Exact Audio Copy\FLAC\FLAC.EXE
Additional command line options : -6 -V -T "ARTIST=%a" -T "TITLE=%t" -T "ALBUM=%g" -T "DATE=%y" -T "TRACKNUMBER=%n" -T "GENRE=%m" -T "COMMENT=%e" %s -o %d


TOC of the extracted CD

Track | Start | Length | Start sector | End sector
––––––––––––––––––––––––––––-
1 | 0:00.32 | 2:05.05 | 32 | 9411
2 | 2:05.37 | 2:26.25 | 9412 | 20386
3 | 4:31.62 | 2:27.25 | 20387 | 31436
4 | 6:59.12 | 2:07.23 | 31437 | 40984
5 | 9:06.35 | 1:57.62 | 40985 | 49821
6 | 11:04.22 | 2:55.08 | 49822 | 62954
7 | 13:59.30 | 2:22.52 | 62955 | 73656
8 | 16:22.07 | 2:35.38 | 73657 | 85319
9 | 18:57.45 | 2:44.02 | 85320 | 97621
10 | 21:41.47 | 2:22.25 | 97622 | 108296
11 | 24:03.72 | 2:22.20 | 108297 | 118966
12 | 26:26.17 | 2:17.70 | 118967 | 129311
13 | 28:44.12 | 2:40.28 | 129312 | 141339
14 | 31:24.40 | 2:23.10 | 141340 | 152074
15 | 33:47.50 | 2:06.45 | 152075 | 161569
16 | 35:54.20 | 2:39.40 | 161570 | 173534
17 | 38:33.60 | 2:36.42 | 173535 | 185276
18 | 41:10.27 | 2:58.08 | 185277 | 198634
19 | 44:08.35 | 3:29.65 | 198635 | 214374
20 | 47:38.25 | 2:46.42 | 214375 | 226866
21 | 50:24.67 | 2:43.58 | 226867 | 239149
22 | 53:08.50 | 3:16.30 | 239150 | 253879
23 | 56:25.05 | 3:08.27 | 253880 | 268006
24 | 59:33.32 | 2:56.73 | 268007 | 281279


Track 1

Filename C:\Users\David Hartigan\Music\Flac Rips\The Everly Brothers - Heartaches and Harmonies Box Set [Flac]\The Everly Brothers - Heartaches and Harmonies (Disc 3) [Flac]\01 Gone, Gone, Gone.wav

Peak level 100.0 %
Track quality 100.0 %
Copy CRC 2C62F0D6
Accurately ripped (confidence 11) [C5AFFED2]
Copy OK

Track 2

Filename C:\Users\David Hartigan\Music\Flac Rips\The Everly Brothers - Heartaches and Harmonies Box Set [Flac]\The Everly Brothers - Heartaches and Harmonies (Disc 3) [Flac]\02 Torture.wav

Peak level 100.0 %
Track quality 100.0 %
Copy CRC D60DE7B6
Accurately ripped (confidence 11) [FA0A66B2]
Copy OK

Track 3

Filename C:\Users\David Hartigan\Music\Flac Rips\The Everly Brothers - Heartaches and Harmonies Box Set [Flac]\The Everly Brothers - Heartaches and Harmonies (Disc 3) [Flac]\03 You're My Girl.wav

Peak level 100.0 %
Track quality 100.0 %
Copy CRC 324FFA30
Accurately ripped (confidence 12) [62DF60D9]
Copy OK

Track 4

Filename C:\Users\David Hartigan\Music\Flac Rips\The Everly Brothers - Heartaches and Harmonies Box Set [Flac]\The Everly Brothers - Heartaches and Harmonies (Disc 3) [Flac]\04 The Price of Love.wav

Peak level 100.0 %
Track quality 100.0 %
Copy CRC 099744CC
Accurately ripped (confidence 11) [AEF8A048]
Copy OK

Track 5

Filename C:\Users\David Hartigan\Music\Flac Rips\The Everly Brothers - Heartaches and Harmonies Box Set [Flac]\The Everly Brothers - Heartaches and Harmonies (Disc 3) [Flac]\05 It Only Costs a Dime.wav

Peak level 100.0 %
Track quality 100.0 %
Copy CRC BA2F7F56
Accurately ripped (confidence 12) [C875FF75]
Copy OK

Track 6

Filename C:\Users\David Hartigan\Music\Flac Rips\The Everly Brothers - Heartaches and Harmonies Box Set [Flac]\The Everly Brothers - Heartaches and Harmonies (Disc 3) [Flac]\06 Love Is Strange.wav

Peak level 100.0 %
Track quality 100.0 %
Copy CRC 7940D5DF
Accurately ripped (confidence 12) [69F8D5AF]
Copy OK

Track 7

Filename C:\Users\David Hartigan\Music\Flac Rips\The Everly Brothers - Heartaches and Harmonies Box Set [Flac]\The Everly Brothers - Heartaches and Harmonies (Disc 3) [Flac]\07 Man With Money.wav

Peak level 100.0 %
Track quality 100.0 %
Copy CRC F286EBB2
Accurately ripped (confidence 11) [71973BB7]
Copy OK

Track 8

Filename C:\Users\David Hartigan\Music\Flac Rips\The Everly Brothers - Heartaches and Harmonies Box Set [Flac]\The Everly Brothers - Heartaches and Harmonies (Disc 3) [Flac]\08 To Show You I Love You.wav

Peak level 93.1 %
Track quality 100.0 %
Copy CRC 165580B5
Accurately ripped (confidence 11) [75737477]
Copy OK

Track 9

Filename C:\Users\David Hartigan\Music\Flac Rips\The Everly Brothers - Heartaches and Harmonies Box Set [Flac]\The Everly Brothers - Heartaches and Harmonies (Disc 3) [Flac]\09 I'll See Your Light.wav

Peak level 100.0 %
Track quality 99.9 %
Copy CRC 345B597A
Accurately ripped (confidence 11) [D19A45AB]
Copy OK

Track 10

Filename C:\Users\David Hartigan\Music\Flac Rips\The Everly Brothers - Heartaches and Harmonies Box Set [Flac]\The Everly Brothers - Heartaches and Harmonies (Disc 3) [Flac]\10 It's All Over.wav

Peak level 93.3 %
Track quality 100.0 %
Copy CRC 254E2FD1
Accurately ripped (confidence 11) [19A78354]
Copy OK

Track 11

Filename C:\Users\David Hartigan\Music\Flac Rips\The Everly Brothers - Heartaches and Harmonies Box Set [Flac]\The Everly Brothers - Heartaches and Harmonies (Disc 3) [Flac]\11 I Used to Love You.wav

Peak level 96.3 %
Track quality 100.0 %
Copy CRC 31C3917B
Accurately ripped (confidence 12) [637D2A3D]
Copy OK

Track 12

Filename C:\Users\David Hartigan\Music\Flac Rips\The Everly Brothers - Heartaches and Harmonies Box Set [Flac]\The Everly Brothers - Heartaches and Harmonies (Disc 3) [Flac]\12 And I'll Go.wav

Peak level 100.0 %
Track quality 100.0 %
Copy CRC A42DD2BF
Accurately ripped (confidence 11) [5A1139DA]
Copy OK

Track 13

Filename C:\Users\David Hartigan\Music\Flac Rips\The Everly Brothers - Heartaches and Harmonies Box Set [Flac]\The Everly Brothers - Heartaches and Harmonies (Disc 3) [Flac]\13 (You Got) The Power of Love.wav

Peak level 100.0 %
Track quality 99.9 %
Copy CRC 6D62D454
Accurately ripped (confidence 11) [3896DBBE]
Copy OK

Track 14

Filename C:\Users\David Hartigan\Music\Flac Rips\The Everly Brothers - Heartaches and Harmonies Box Set [Flac]\The Everly Brothers - Heartaches and Harmonies (Disc 3) [Flac]\14 Leave My Girl Alone.wav

Peak level 100.0 %
Track quality 99.9 %
Copy CRC C5179DDE
Accurately ripped (confidence 11) [B85A31D7]
Copy OK

Track 15

Filename C:\Users\David Hartigan\Music\Flac Rips\The Everly Brothers - Heartaches and Harmonies Box Set [Flac]\The Everly Brothers - Heartaches and Harmonies (Disc 3) [Flac]\15 Somebody Help Me.wav

Peak level 100.0 %
Track quality 100.0 %
Copy CRC 22EE826F
Accurately ripped (confidence 11) [E6367E58]
Copy OK

Track 16

Filename C:\Users\David Hartigan\Music\Flac Rips\The Everly Brothers - Heartaches and Harmonies Box Set [Flac]\The Everly Brothers - Heartaches and Harmonies (Disc 3) [Flac]\16 So Lonely.wav

Peak level 100.0 %
Track quality 100.0 %
Copy CRC C64A12EC
Accurately ripped (confidence 11) [FE9A0D5C]
Copy OK

Track 17

Filename C:\Users\David Hartigan\Music\Flac Rips\The Everly Brothers - Heartaches and Harmonies Box Set [Flac]\The Everly Brothers - Heartaches and Harmonies (Disc 3) [Flac]\17 Kiss Your Man Goodbye.wav

Peak level 100.0 %
Track quality 100.0 %
Copy CRC 4216A055
Accurately ripped (confidence 11) [26A1C148]
Copy OK

Track 18

Filename C:\Users\David Hartigan\Music\Flac Rips\The Everly Brothers - Heartaches and Harmonies Box Set [Flac]\The Everly Brothers - Heartaches and Harmonies (Disc 3) [Flac]\18 The Collector.wav

Peak level 100.0 %
Track quality 100.0 %
Copy CRC CC2D092C
Accurately ripped (confidence 11) [7EC1C503]
Copy OK

Track 19

Filename C:\Users\David Hartigan\Music\Flac Rips\The Everly Brothers - Heartaches and Harmonies Box Set [Flac]\The Everly Brothers - Heartaches and Harmonies (Disc 3) [Flac]\19 Even If I Hold It in My Hand (Hard Luck Story).wav

Peak level 100.0 %
Track quality 99.9 %
Copy CRC D0CCFF66
Accurately ripped (confidence 11) [3B9276D3]
Copy OK

Track 20

Filename C:\Users\David Hartigan\Music\Flac Rips\The Everly Brothers - Heartaches and Harmonies Box Set [Flac]\The Everly Brothers - Heartaches and Harmonies (Disc 3) [Flac]\20 Bowling Green.wav

Peak level 100.0 %
Track quality 100.0 %
Copy CRC B0A30654
Accurately ripped (confidence 11) [1C0A2C23]
Copy OK

Track 21

Filename C:\Users\David Hartigan\Music\Flac Rips\The Everly Brothers - Heartaches and Harmonies Box Set [Flac]\The Everly Brothers - Heartaches and Harmonies (Disc 3) [Flac]\21 I Don't Want to Love You.wav

Peak level 100.0 %
Track quality 100.0 %
Copy CRC 0CE353EC
Accurately ripped (confidence 11) [FEB176E0]
Copy OK

Track 22

Filename C:\Users\David Hartigan\Music\Flac Rips\The Everly Brothers - Heartaches and Harmonies Box Set [Flac]\The Everly Brothers - Heartaches and Harmonies (Disc 3) [Flac]\22 Mary Jane.wav

Peak level 100.0 %
Track quality 100.0 %
Copy CRC EF014FD9
Accurately ripped (confidence 11) [8A5FEA68]
Copy OK

Track 23

Filename C:\Users\David Hartigan\Music\Flac Rips\The Everly Brothers - Heartaches and Harmonies Box Set [Flac]\The Everly Brothers - Heartaches and Harmonies (Disc 3) [Flac]\23 Love of the Common People.wav

Peak level 100.0 %
Track quality 100.0 %
Copy CRC 6EB13DE1
Accurately ripped (confidence 11) [FA4F2039]
Copy OK

Track 24

Filename C:\Users\David Hartigan\Music\Flac Rips\The Everly Brothers - Heartaches and Harmonies Box Set [Flac]\The Everly Brothers - Heartaches and Harmonies (Disc 3) [Flac]\24 You're Just What I Was Looking for Today.wav

Peak level 97.7 %
Track quality 99.9 %
Copy CRC 3A391A63
Accurately ripped (confidence 11) [007662D0]
Copy OK


All tracks accurately ripped

No errors occurred

End of status report
Exact Audio Copy V0.99 prebeta 5 from 4. May 2009

EAC extraction logfile from 19. May 2010, 21:16

Everly Brothers / Heartaches & Harmonies (disc 4)

Used drive : TSSTcorpCD/DVDW SH-S182D Adapter: 0 ID: 1

Read mode : Secure
Utilize accurate stream : Yes
Defeat audio cache : Yes
Make use of C2 pointers : No

Read offset correction : 6
Overread into Lead-In and Lead-Out : No
Fill up missing offset samples with silence : Yes
Delete leading and trailing silent blocks : No
Null samples used in CRC calculations : Yes
Used interface : Native Win32 interface for Win NT & 2000
Gap handling : Appended to previous track

Used output format : User Defined Encoder
Selected bitrate : 768 kBit/s
Quality : High
Add ID3 tag : No
Command line compressor : C:\Program Files\Exact Audio Copy\FLAC\FLAC.EXE
Additional command line options : -V -8 -T "artist=%a" -T "title=%t" -T "album=%g" -T "date=%y" -T "tracknumber=%n" -T "genre=%m" %s


TOC of the extracted CD

Track | Start | Length | Start sector | End sector
––––––––––––––––––––––––––––-
1 | 0:00.32 | 2:46.38 | 32 | 12519
2 | 2:46.70 | 3:01.02 | 12520 | 26096
3 | 5:47.72 | 2:48.53 | 26097 | 38749
4 | 8:36.50 | 4:51.10 | 38750 | 60584
5 | 13:27.60 | 2:20.30 | 60585 | 71114
6 | 15:48.15 | 3:34.37 | 71115 | 87201
7 | 19:22.52 | 2:58.23 | 87202 | 100574
8 | 22:21.00 | 2:16.62 | 100575 | 110836
9 | 24:37.62 | 2:49.38 | 110837 | 123549
10 | 27:27.25 | 3:22.00 | 123550 | 138699
11 | 30:49.25 | 2:23.27 | 138700 | 149451
12 | 33:12.52 | 2:45.03 | 149452 | 161829
13 | 35:57.55 | 3:19.15 | 161830 | 176769
14 | 39:16.70 | 2:05.27 | 176770 | 186171
15 | 41:22.22 | 3:22.33 | 186172 | 201354
16 | 44:44.55 | 4:44.17 | 201355 | 222671
17 | 49:28.72 | 4:02.25 | 222672 | 240846
18 | 53:31.22 | 3:36.45 | 240847 | 257091
19 | 57:07.67 | 2:37.30 | 257092 | 268896
20 | 59:45.22 | 4:49.63 | 268897 | 290634
21 | 64:35.10 | 2:30.57 | 290635 | 301941
22 | 67:05.67 | 4:05.23 | 301942 | 320339
23 | 71:11.15 | 2:18.15 | 320340 | 330704


Track 1

Filename C:\Program Files\uTorrent\Downloads\The Everly Brothers - Heartaches and Harmonies\Disc 4\01 Empty Boxes - Everly Brothers.wav

Pre-gap length 0:00:02.42

Peak level 84.0 %
Track quality 100.0 %
Test CRC 68304D51
Copy CRC 68304D51
Accurately ripped (confidence 9) [9ED097A7]
Copy OK

Track 2

Filename C:\Program Files\uTorrent\Downloads\The Everly Brothers - Heartaches and Harmonies\Disc 4\02 Love With Your Heart - Everly Brothers.wav

Pre-gap length 0:00:02.17

Peak level 100.0 %
Track quality 100.0 %
Test CRC 5C291D29
Copy CRC 5C291D29
Accurately ripped (confidence 9) [8CCFF5E6]
Copy OK

Track 3

Filename C:\Program Files\uTorrent\Downloads\The Everly Brothers - Heartaches and Harmonies\Disc 4\03 Milk Train - Everly Brothers.wav

Pre-gap length 0:00:01.60

Peak level 85.0 %
Track quality 100.0 %
Test CRC 2856A5EF
Copy CRC 2856A5EF
Accurately ripped (confidence 9) [7918204E]
Copy OK

Track 4

Filename C:\Program Files\uTorrent\Downloads\The Everly Brothers - Heartaches and Harmonies\Disc 4\04 Lord of the Manor - Everly Brothers.wav

Pre-gap length 0:00:01.64

Peak level 93.0 %
Track quality 100.0 %
Test CRC C491E2EF
Copy CRC C491E2EF
Accurately ripped (confidence 9) [A3A44A70]
Copy OK

Track 5

Filename C:\Program Files\uTorrent\Downloads\The Everly Brothers - Heartaches and Harmonies\Disc 4\05 Mama Tried - Everly Brothers.wav

Pre-gap length 0:00:03.60

Peak level 95.9 %
Track quality 100.0 %
Test CRC 105D6E80
Copy CRC 105D6E80
Accurately ripped (confidence 9) [0F17173D]
Copy OK

Track 6

Filename C:\Program Files\uTorrent\Downloads\The Everly Brothers - Heartaches and Harmonies\Disc 4\06 T for Texas - Everly Brothers.wav

Pre-gap length 0:00:01.66

Peak level 100.0 %
Track quality 99.9 %
Test CRC B9EC0156
Copy CRC B9EC0156
Accurately ripped (confidence 9) [682622EC]
Copy OK

Track 7

Filename C:\Program Files\uTorrent\Downloads\The Everly Brothers - Heartaches and Harmonies\Disc 4\07 I Wonder If I Care as Much (Version 2) - Everly Brothers.wav

Pre-gap length 0:00:01.80

Peak level 82.2 %
Track quality 99.9 %
Test CRC 024E728E
Copy CRC 024E728E
Accurately ripped (confidence 9) [9BBABE47]
Copy OK

Track 8

Filename C:\Program Files\uTorrent\Downloads\The Everly Brothers - Heartaches and Harmonies\Disc 4\08 You Done Me Wrong - Everly Brothers.wav

Pre-gap length 0:00:00.04

Peak level 100.0 %
Track quality 99.9 %
Test CRC EA0BD28E
Copy CRC EA0BD28E
Accurately ripped (confidence 9) [B4794D29]
Copy OK

Track 9

Filename C:\Program Files\uTorrent\Downloads\The Everly Brothers - Heartaches and Harmonies\Disc 4\09 Turn Around - Everly Brothers.wav

Peak level 100.0 %
Track quality 100.0 %
Test CRC 6B90AB90
Copy CRC 6B90AB90
Accurately ripped (confidence 9) [881AEAA0]
Copy OK

Track 10

Filename C:\Program Files\uTorrent\Downloads\The Everly Brothers - Heartaches and Harmonies\Disc 4\10 Omaha - Everly Brothers.wav

Pre-gap length 0:00:01.90

Peak level 100.0 %
Track quality 100.0 %
Test CRC 9DC675B7
Copy CRC 9DC675B7
Accurately ripped (confidence 9) [54A7B257]
Copy OK

Track 11

Filename C:\Program Files\uTorrent\Downloads\The Everly Brothers - Heartaches and Harmonies\Disc 4\11 I'm on My Way Home Again - Everly Brothers.wav

Pre-gap length 0:00:02.00

Peak level 100.0 %
Track quality 100.0 %
Test CRC 37A205F3
Copy CRC 37A205F3
Accurately ripped (confidence 9) [B45A7528]
Copy OK

Track 12

Filename C:\Program Files\uTorrent\Downloads\The Everly Brothers - Heartaches and Harmonies\Disc 4\12 Cuckoo Bird - Everly Brothers.wav

Pre-gap length 0:00:02.00

Peak level 100.0 %
Track quality 99.9 %
Test CRC 4BBDF7BC
Copy CRC 4BBDF7BC
Accurately ripped (confidence 9) [B74A7D40]
Copy OK

Track 13

Filename C:\Program Files\uTorrent\Downloads\The Everly Brothers - Heartaches and Harmonies\Disc 4\13 Carolina in My Mind - Everly Brothers.wav

Pre-gap length 0:00:01.70

Peak level 100.0 %
Track quality 100.0 %
Test CRC 336886DB
Copy CRC 336886DB
Accurately ripped (confidence 9) [B79FAF7A]
Copy OK

Track 14

Filename C:\Program Files\uTorrent\Downloads\The Everly Brothers - Heartaches and Harmonies\Disc 4\14 My Little Yellow Bird - Everly Brothers.wav

Pre-gap length 0:00:01.64

Peak level 99.7 %
Track quality 100.0 %
Test CRC 3FC31D2A
Copy CRC 3FC31D2A
Accurately ripped (confidence 9) [CE22C128]
Copy OK

Track 15

Filename C:\Program Files\uTorrent\Downloads\The Everly Brothers - Heartaches and Harmonies\Disc 4\15 Stories We Could Tell - Everly Brothers.wav

Pre-gap length 0:00:03.00

Peak level 100.0 %
Track quality 100.0 %
Test CRC 192263EA
Copy CRC 192263EA
Accurately ripped (confidence 9) [1083285C]
Copy OK

Track 16

Filename C:\Program Files\uTorrent\Downloads\The Everly Brothers - Heartaches and Harmonies\Disc 4\16 Green River - Everly Brothers.wav

Pre-gap length 0:00:02.00

Peak level 100.0 %
Track quality 99.9 %
Test CRC 4B95E384
Copy CRC 4B95E384
Accurately ripped (confidence 9) [EC0A5046]
Copy OK

Track 17

Filename C:\Program Files\uTorrent\Downloads\The Everly Brothers - Heartaches and Harmonies\Disc 4\17 Poems, Prayers and Promises - Everly Brothers.wav

Pre-gap length 0:00:02.00

Peak level 67.7 %
Track quality 100.0 %
Test CRC CCDEC32D
Copy CRC CCDEC32D
Accurately ripped (confidence 9) [45950D2B]
Copy OK

Track 18

Filename C:\Program Files\uTorrent\Downloads\The Everly Brothers - Heartaches and Harmonies\Disc 4\18 Paradise - Everly Brothers.wav

Pre-gap length 0:00:01.89

Peak level 100.0 %
Track quality 100.0 %
Test CRC E079BE07
Copy CRC E079BE07
Accurately ripped (confidence 9) [A2780EA7]
Copy OK

Track 19

Filename C:\Program Files\uTorrent\Downloads\The Everly Brothers - Heartaches and Harmonies\Disc 4\19 On the Wings of a Nightingale - Everly Brothers.wav

Pre-gap length 0:00:02.16

Peak level 100.0 %
Track quality 99.9 %
Test CRC 55092A14
Copy CRC 55092A14
Accurately ripped (confidence 9) [437EB49A]
Copy OK

Track 20

Filename C:\Program Files\uTorrent\Downloads\The Everly Brothers - Heartaches and Harmonies\Disc 4\20 Why Worry - Everly Brothers.wav

Pre-gap length 0:00:02.02

Peak level 100.0 %
Track quality 100.0 %
Test CRC 42052B08
Copy CRC 42052B08
Accurately ripped (confidence 9) [0A5FF488]
Copy OK

Track 21

Filename C:\Program Files\uTorrent\Downloads\The Everly Brothers - Heartaches and Harmonies\Disc 4\21 Arms of Mary - Everly Brothers.wav

Pre-gap length 0:00:02.70

Peak level 100.0 %
Track quality 99.9 %
Test CRC 8E12E202
Copy CRC 8E12E202
Accurately ripped (confidence 9) [EF9B07EB]
Copy OK

Track 22

Filename C:\Program Files\uTorrent\Downloads\The Everly Brothers - Heartaches and Harmonies\Disc 4\22 Born Yesterday - Everly Brothers.wav

Pre-gap length 0:00:02.36

Peak level 100.0 %
Track quality 100.0 %
Test CRC 9A37F073
Copy CRC 9A37F073
Accurately ripped (confidence 9) [109BBB7C]
Copy OK

Track 23

Filename C:\Program Files\uTorrent\Downloads\The Everly Brothers - Heartaches and Harmonies\Disc 4\23 Don't Let Our Love Die (1990 Version) - Everly Brothers.wav

Pre-gap length 0:00:01.00

Peak level 100.0 %
Track quality 100.0 %
Test CRC 8B03B10D
Copy CRC 8B03B10D
Accurately ripped (confidence 9) [2390D887]
Copy OK


All tracks accurately ripped

No errors occurred

End of status report