Tags
Language
Tags
September 2022
Su Mo Tu We Th Fr Sa
28 29 30 31 1 2 3
4 5 6 7 8 9 10
11 12 13 14 15 16 17
18 19 20 21 22 23 24
25 26 27 28 29 30 1

Steve Hackett - Wolflight (2015) [Special Edition] (Re-up)

Posted By: gribovar
Steve Hackett - Wolflight (2015) [Special Edition] (Re-up)

Steve Hackett - Wolflight (2015) [Special Edition]
EAC Rip | WavPack (image+.cue+log) - 379 MB | MP3 CBR 320 kbps (LAME 3.93) - 148 MB | Covers - 305 MB
Genre: Progressive Rock | RAR 3% Rec. | Label: InsideOut Music (07078)

Special edition with two bonus tracks. Steve Hackett has spent the last few years carrying the Genesis torch across the globe, seemingly reminding anyone who may gave forgotten that he had a lot to do with the much heralded Genesis 70’s period. But never wanting to stay the same for too long, Hackett continues to explore new territory both physically and musically, as is evident on his new collection. An avid traveler and explorer, Hackett lends his experiences to his music by incorporating different styles and instruments, thus creating one of the most inspired albums of his career in Wolflight, his first album of new material since 2011’s Beyond The Shrouded Horizon.

Tracklist:
01. Out of the Body
02. Wolflight
03. Love Song to a Vampire
04. The Wheel's Turning
05. Corycian Fire
06. Earthshine
07. Loving Sea
08. Black Thunder
09. Dust and Dreams
10. Heart Song
11. Pneuma (Bonus track)
12. Midnight Sun (Bonus track)

Total time: 01:03:02

Exact Audio Copy V1.0 beta 3 from 29. August 2011

EAC extraction logfile from 8. April 2015, 20:44

Steve Hackett / Wolflight

Used drive : PIONEER DVD-RW DVR-220RS Adapter: 0 ID: 0

Read mode : Secure
Utilize accurate stream : Yes
Defeat audio cache : Yes
Make use of C2 pointers : No

Read offset correction : 6
Overread into Lead-In and Lead-Out : No
Fill up missing offset samples with silence : Yes
Delete leading and trailing silent blocks : No
Null samples used in CRC calculations : Yes
Used interface : Native Win32 interface for Win NT & 2000

Used output format : User Defined Encoder
Selected bitrate : 768 kBit/s
Quality : High
Add ID3 tag : No
Command line compressor : C:\Program Files (x86)\Exact Audio Copy\Wavpack\wavpack.exe
Additional command line options : -hm -w "Year=%year%" -w "Genre=%genre%" %source% %dest%


TOC of the extracted CD

Track | Start | Length | Start sector | End sector
––––––––––––––––––––––––––––-
1 | 0:00.00 | 2:29.20 | 0 | 11194
2 | 2:29.20 | 8:00.08 | 11195 | 47202
3 | 10:29.28 | 9:17.57 | 47203 | 89034
4 | 19:47.10 | 7:23.56 | 89035 | 122315
5 | 27:10.66 | 5:46.55 | 122316 | 148320
6 | 32:57.46 | 3:20.29 | 148321 | 163349
7 | 36:18.00 | 3:22.34 | 163350 | 178533
8 | 39:40.34 | 7:32.37 | 178534 | 212470
9 | 47:12.71 | 5:33.01 | 212471 | 237446
10 | 52:45.72 | 2:51.01 | 237447 | 250272
11 | 55:36.73 | 2:53.13 | 250273 | 263260
12 | 58:30.11 | 4:31.36 | 263261 | 283621


Range status and errors

Selected range

Filename C:\_NL+\_NL+__\CD19\Steve Hackett - Wolflight.wav

Peak level 94.4 %
Extraction speed 3.1 X
Range quality 100.0 %
Test CRC F9251509
Copy CRC F9251509
Copy OK

No errors occurred


AccurateRip summary

Track 1 not present in database
Track 2 not present in database
Track 3 not present in database
Track 4 not present in database
Track 5 not present in database
Track 6 not present in database
Track 7 not present in database
Track 8 not present in database
Track 9 not present in database
Track 10 not present in database
Track 11 not present in database
Track 12 not present in database

None of the tracks are present in the AccurateRip database

End of status report

–– CUETools DB Plugin V2.1.3

[CTDB TOCID: 7H9TbOPPQDnHN4f037HzKcLqVYY-] found, Submit result: 7H9TbOPPQDnHN4f037HzKcLqVYY- has been confirmed
[88ea482a] (11/11) Accurately ripped


==== Log checksum CBEAC937E418C6129AC683CA7AF2C0C0FABCD6B83AF0167B506C0B6A640D42B1 ====

[CUETools log; Date: 16.08.2022 9:53:27; Version: 2.1.4]
[CTDB TOCID: 7H9TbOPPQDnHN4f037HzKcLqVYY-] found.
Track | CTDB Status
1 | (289/289) Accurately ripped
2 | (288/289) Accurately ripped
3 | (287/289) Accurately ripped
4 | (288/289) Accurately ripped
5 | (288/289) Accurately ripped
6 | (288/289) Accurately ripped
7 | (288/289) Accurately ripped
8 | (288/289) Accurately ripped
9 | (288/289) Accurately ripped
10 | (287/289) Accurately ripped
11 | (285/289) Accurately ripped
12 | (282/289) Accurately ripped
[AccurateRip ID: 001e9ff4-0119f8c2-a40ec50c] found.
Track [ CRC | V2 ] Status
01 [cdb62bab|0a342190] (002+031/114) Accurately ripped
02 [4e4cb76e|eb825a28] (002+031/114) Accurately ripped
03 [76390778|e4324c2b] (002+031/112) Accurately ripped
04 [4984266c|81a9760f] (002+031/114) Accurately ripped
05 [c5d95e36|05758869] (002+031/115) Accurately ripped
06 [d41c3d5e|c87dcba1] (002+031/113) Accurately ripped
07 [19336ac7|da1773c9] (002+031/114) Accurately ripped
08 [ad0dd959|f4448d4f] (002+031/113) Accurately ripped
09 [d5113fd7|75eced66] (002+031/114) Accurately ripped
10 [795b3c3e|1c4c52e9] (002+031/115) Accurately ripped
11 [2c92f675|3583d1a4] (002+030/114) Accurately ripped
12 [d5706b82|d530f48e] (002+027/110) Accurately ripped
Offsetted by -12:
01 [8e66aae8] (003/114) Accurately ripped
02 [fdb887cc] (003/114) Accurately ripped
03 [85bc5ae8] (003/112) Accurately ripped
04 [9fce5fa6] (003/114) Accurately ripped
05 [5200ba39] (003/115) Accurately ripped
06 [da0e6439] (003/113) Accurately ripped
07 [9e5e11d7] (003/114) Accurately ripped
08 [affc8f45] (003/113) Accurately ripped
09 [8004ce9b] (003/114) Accurately ripped
10 [2aef629a] (003/115) Accurately ripped
11 [b40aca76] (003/114) Accurately ripped
12 [bd74b829] (003/110) Accurately ripped
Offsetted by -676:
01 [00c40f0a] (000/114) No match (V2 was not tested)
02 [179778e1] (000/114) No match (V2 was not tested)
03 [5a3d84a4] (000/112) No match (V2 was not tested)
04 [0991afe2] (000/114) No match (V2 was not tested)
05 [12b2a499] (000/115) No match (V2 was not tested)
06 [3134a00f] (000/113) No match (V2 was not tested)
07 [e217d975] (000/114) No match (V2 was not tested)
08 [af0ce863] (000/113) No match (V2 was not tested)
09 [90d60ffb] (000/114) No match (V2 was not tested)
10 [e23736f7] (000/115) No match (V2 was not tested)
11 [b3154ab5] (000/114) No match (V2 was not tested)
12 [bb66c99d] (000/110) No match (V2 was not tested)

Track Peak [ CRC32 ] [W/O NULL] [ LOG ]
– 94,4 [F9251509] [6F5BAF35] CRC32
01 94,4 [4F103D6B] [5A801EB9]
02 94,4 [DB8EB414] [A23FCF35]
03 94,4 [162C087A] [2E2B83ED]
04 94,3 [25993B4E] [5A731758]
05 94,4 [E471BC27] [00F02BC7]
06 87,6 [2C2E487B] [8138E41D]
07 94,4 [D7B058D0] [D7F80547]
08 94,4 [CDA611F7] [C1F18274]
09 94,2 [5258CE41] [E1A89403]
10 94,3 [E702C09B] [A79E36BD]
11 45,6 [55C63632] [DFD178F9]
12 94,4 [7A19D741] [34D00B78]

Thanks to tatuk

See also:
Steve Hackett - Defector (1980) [Reissue 2005]
Steve Hackett - Cured (1981) [Non-remastered, Reissue 1989]
Steve Hackett - Live Archive 70, 80, 90s [4CD Box Set] (2001)
Steve Hackett - Out of the Tunnel's Mouth (2009) [2CD Special Edition]