Tags
Language
Tags

Stephen Coombs, Ian Munro, Jerzy Maksymiuk - The Romantic Piano Concerto Vol. 3: Felix Mendelssohn: Double Concertos (1992)

Posted By: ArlegZ
Stephen Coombs, Ian Munro, Jerzy Maksymiuk - The Romantic Piano Concerto Vol. 3: Felix Mendelssohn: Double Concertos (1992)

Stephen Coombs, Ian Munro, Jerzy Maksymiuk, BBC Scottish Symphony Orchestra - The Romantic Piano Concerto Vol. 3: Felix Mendelssohn: Double Concertos (1992)
EAC | FLAC | Image (Cue & Log) ~ 263 Mb | Total time: 72:27 | Scans included
Classical | Label: Hyperion | # CDA66567 | Recorded: 1991

Felix Mendelssohn-Bartholdy (1809–1845) was a genius of quite extraordinary dimensions. He had reached full maturity as a composer by the age of sixteen (1825, the year of the String Octet), by which time he had also proved himself a double prodigy on both piano and violin, an exceptional athlete (and a particularly strong swimmer), a talented poet (Goethe was a childhood friend and confidante), multi-linguist, water-colourist, and philosopher. He excelled at virtually anything which could hold his attention for long enough, although it was music which above all activated his creative imagination.
Mendelssohn was an exceptionally gifted pianist, whose early studies under Ludwig Berger progressed at an astonishing rate. After hearing a recital given at home by the twelve-year-old boy, Goethe exclaimed: ‘What this little man is capable of in terms of improvisation and sight-reading is simply prodigious. I would have not thought it possible at such an age.’ When a companion reminded him that he had heard Mozart extemporize at a similar age, the great poet replied: ‘Just so!’ This was in 1821, by which time Mendelssohn had already composed a violin sonata, three piano sonatas, and two operas!
Mendelssohn’s mature piano style was derived not so much from the orchestral texturing of Beethoven and Schubert, as from the filigree intricacies of the German virtuoso piano school, represented principally by Hummel and Weber, further enhanced by a Mozartian emphasis on textural clarity. It was never Mendelssohn’s intention to push contemporary keyboard instruments beyond that of which they were comfortably capable, more to utilize those qualities for which they were best adapted—brilliant clarity in the treble register, and the ability to sustain a flowing, cantabile melody without undue bass resonance.
The major criticism levelled at the Two-Piano Concertos is their tendency to overstretch relatively fragile musical material, as, with two soloists to contend with, Mendelssohn had been keen to ensure that the music was shared equally, thus involving an unusual amount of repetition. It would hardly be fair to expect even Mendelssohn to have achieved the miraculous thematic concision and structural cohesion of the E minor Violin Concerto and G and D minor Piano Concertos at such an early age.

Performer:
Stephen Coombs, piano
Ian Munro, piano
BBC Scottish Symphony Orchestra
Jerzy Maksymiuk, conductor

Track List:
Felix Mendelssohn (1809-1847)
Concerto for two pianos in A flat major
01. I. Allegro vivace
02. II. Andante
03. III. Allegro vivace
Concerto for two pianos in E major
04. I. Allegro vivace - Poco piû allegro
05. II. Adagio non troppo
06. III. Allegro


Exact Audio Copy V1.0 beta 3 from 29. August 2011

EAC extraction logfile from 22. June 2012, 12:01

Jerzy Maksymiuk / Mendelssohn - The Concertos for Two Pianos - Coombs, Munro

Used drive : HL-DT-STDVDRAM GSA-H10A Adapter: 0 ID: 0

Read mode : Secure
Utilize accurate stream : Yes
Defeat audio cache : Yes
Make use of C2 pointers : No

Read offset correction : 667
Overread into Lead-In and Lead-Out : No
Fill up missing offset samples with silence : Yes
Delete leading and trailing silent blocks : No
Null samples used in CRC calculations : Yes
Used interface : Native Win32 interface for Win NT & 2000

Used output format : User Defined Encoder
Selected bitrate : 1024 kBit/s
Quality : High
Add ID3 tag : No
Command line compressor : C:\Program Files\Exact Audio Copy\Flac\flac.exe
Additional command line options : -8 -V -T "TITLE=%title%" -T "ARTIST=%artist%" -T "ALBUMARTIST=%albumartist%" -T "ALBUM=%albumtitle%" -T "DATE=%year%" -T "TRACKNUMBER=%tracknr%" -T "TRACKTOTAL=%numtracks%" -T "GENRE=%genre%" -T "COMMENT=%comment%" -T "PERFORMER=%albuminterpret%" -T "COMPOSER=%composer%" %source% -o %dest%


TOC of the extracted CD

Track | Start | Length | Start sector | End sector
––––––––––––––––––––––––––––-
1 | 0:00.00 | 17:26.02 | 0 | 78451
2 | 17:26.02 | 9:45.55 | 78452 | 122381
3 | 27:11.57 | 14:17.68 | 122382 | 186724
4 | 41:29.50 | 12:58.57 | 186725 | 245131
5 | 54:28.32 | 9:17.33 | 245132 | 286939
6 | 63:45.65 | 8:20.14 | 286940 | 324453


Range status and errors

Selected range

Filename F:\Ripped general\[1424] Mendelssohn - Concertos for 2 Pianos - Coombs, Munro (Romantic Piano Concerto - 3)\Mendelssohn - The Concertos for Two Pianos - Coombs, Munro.wav

Peak level 95.5 %
Extraction speed 7.7 X
Range quality 100.0 %
Test CRC 6BB85002
Copy CRC 6BB85002
Copy OK

No errors occurred


AccurateRip summary

Track 1 accurately ripped (confidence 2) [90A91774] (AR v1)
Track 2 accurately ripped (confidence 2) [132792F9] (AR v1)
Track 3 accurately ripped (confidence 2) [1C11C974] (AR v1)
Track 4 accurately ripped (confidence 2) [3B89D7AB] (AR v1)
Track 5 accurately ripped (confidence 2) [81E01237] (AR v1)
Track 6 accurately ripped (confidence 2) [D2AA005A] (AR v1)

All tracks accurately ripped

End of status report

Stephen Coombs, Ian Munro, Jerzy Maksymiuk - The Romantic Piano Concerto Vol. 3: Felix Mendelssohn: Double Concertos (1992)

Thanks to the original releaser