Slade - Slade Alive! The Live Anthology (2006) {2 CD, Remastered}

Posted By: hill0
Slade - Slade Alive! The Live Anthology (2006) {2 CD, Remastered}

Slade - Slade Alive! The Live Anthology (2006) {2 CD, Remastered}
EAC Rip | FLAC (tracks & cue & log) | 1 GB | MP3 CBR 320 kbps | 333 MB | Artwork (PNG) | 134 MB | 2:25:44
Genre: Hard Rock / Glam Rock | Country: UK | Label: Salvo/Union Square Music Ltd. | SALVODCD201

2006 digitally remastered two CD set, subtitled the Live Anthology, features not only the original Slade Alive! Album but also Slade Alive! Volume Two, Slade on Stage and Alive at Reading for a total of 33 rockin' and stompin' Slade performances! The first live album 'Slade Alive!' was recorded at the Command Theatre Studio in London, for just £600, and released without overdubs of any sort in March 1972. 'Vol. Two' was culled from American concert performances in the autumn of 1976 as well as British dates the following spring. The story of Slade's renaissance at the 1980 Reading Festival has long since passed into the realms of rock music folklore. It was a performance that resurrected their flagging career and several tracks were originally issued on a pair of EPs. Slavo.
Slade - Slade Alive! The Live Anthology (2006) {2 CD, Remastered}

Although the American rock audience largely shrugged Slade away, the anthem-slinging hard rock quartet was positively huge back home in the U.K., in no small part due to the band's rep as a total live experience. This U.K. double-disc assembles the band's three live albums – Slade Alive!, Slade Alive, Vol. 2 and Slade on Stage, then tacks on six previously unreleased tracks from their Slade Alive at Reading '80 performance. That's a lot of live Slade, but it's solidly packed with consistently strong, no-nonsense rock. The first live album, released in 1972 and the only one of the three to score chart points in the U.S., finds Slade in a transitional stage: having recently shed their skinhead look for one more in tune with the era's glam fashions, Slade had developed into a sizzling, audience-embracing performing band. Slade Alive! finds Slade one step removed from the pub rock boogie of bands like Humble Pie and Status Quo, and on their way to formulating a larger-than-life arena rock persona. Mixing choice covers like Ten Years After's "Hear Me Calling" and Steppenwolf's "Born to Be Wild," with originals by lead vocalist Noddy Holder, Slade has already got their audience in thrall here. The quirkiest number is their take on the Lovin' Spoonful's ballad "Darling Be Home Soon," which starts out as sweetly as the original before cranking up the volume.

By the time the second live album was released in 1978, much had changed in music. Punk rock was the rage, Slade's era as a steady contributor to the British singles and albums Top Ten charts had faded, and many young punters had no use for their like anymore. Ironically, much of Slade Alive, Vol. 2 was recorded in America in the fall of 1976, and while the rest comes from British performances in early 1977, Slade's star had fallen so far down by then that the album charted in neither country. Strange, because it's certainly the best of the three. With burning run-throughs of Slade trademarks like "Mama Weer All Crazee Now," "Gudbuy T'Jane," "Everyday," and "Cum on Feel the Noize" (Slade had long ago taken to altering spellings in their song titles), along with a passable tribute to Elvis Presley's Sun Records era that fuses "My Baby Left Me" with the uncredited "That's All Right, Mama." Even if the general public had lost interest, Slade's influence had spread far and wide enough to attract upcoming heavy metal/hard rock musicians unencumbered by the trendy punk baggage of the day. Quiet Riot would eventually score a number one hit with "Cum on Feel the Noize," but before that Slade began a bit of a comeback as the so-called "hair bands" looked to them for inspiration, and a new wave of Brits, embracing the New Wave of British Heavy Metal, saw Slade as forefathers. For sure, Holder's nuclear-powered screech was a prototype for countless shaggy maned frontmen to follow, and both Slade on Stage (from 1982), comprised almost entirely of original material both old and (then) new, and the 1980 Reading material, find Slade, by then a full-fledged metal outfit, as wound up as ever. After all, any band of heavy rockers that could get an audience of drunken rowdies from Newcastle to croon the old standard "You'll Never Walk Alone," a cappella, en masse, pretty much owned their audience.
Slade - Slade Alive! The Live Anthology (2006) {2 CD, Remastered}



Tracklist

DISC 1:
01. Hear Me Calling
02. In Like A Shot From My Gun
03. Darling Be Home Soon
04. Know Who You Are
05. Keep On Rocking
06. Get Down And Get With It
07. Born To Be Wild
08. Get On Up
09. Tak' Me Bak 'Ome
10. My Baby Left Me
11. Be
12. Mama Weer All Crazee Now
13. Burnin' In The Heat Of Love
14. Everyday
15. Gudbuy T'Jane
16. One-Eyed Jacks With Moustaches
17. Cum On Feel The Noize

DISC 2:
01. Rock And Roll Preacher
02. When I'm Dancin' I Ain't Fightin'
03. Tak' Me Bak 'Ome
04. Everyday
05. Lock Up Your Daughters
06. We'll Bring The House Down
07. A Night To Remember
08. Gudbuy T'Jane
09. Mama Weer All Crazee Now
10. You'll Never Walk Alone
11. When I'm Dancin' I Ain't Fightin'
12. Born To Be Wild
13. Somethin' Else-Pistol Packin' Mama-Keep A Rollin'
14. Merry Xmas Everybody
15. Okey Cokey
16. Get Down And Get With It

Exact Audio Copy V1.0 beta 3 from 29. August 2011

EAC extraction logfile from 17. September 2013, 20:11

Slade / Slade Alive! [Disc 1 of 2]

Used drive : HL-DT-STDVDRAM GT51N Adapter: 0 ID: 1

Read mode : Secure
Utilize accurate stream : Yes
Defeat audio cache : Yes
Make use of C2 pointers : No

Read offset correction : 103
Overread into Lead-In and Lead-Out : No
Fill up missing offset samples with silence : Yes
Delete leading and trailing silent blocks : No
Null samples used in CRC calculations : Yes
Used interface : Native Win32 interface for Win NT & 2000
Gap handling : Appended to previous track

Used output format : User Defined Encoder
Selected bitrate : 896 kBit/s
Quality : High
Add ID3 tag : No
Command line compressor : C:\Exact Audio Copy\Flac\flac.EXE
Additional command line options : -8 -V -T "ARTIST=%artist%" -T "TITLE=%title%" -T "ALBUM=%albumtitle%" -T "DATE=%year%" -T "TRACKNUMBER=%tracknr%" -T "TOTALTRACKS=%numtracks%" -T "GENRE=%genre%" -T "ALBUMARTIST=%albumartist%" -T "ALBUM ARTIST=%albumartist%" -T "COMMENT=EAC Secure Mode, Test & Copy, AccurateRip, FLAC -8" %source%


TOC of the extracted CD

Track | Start | Length | Start sector | End sector
––––––––––––––––––––––––––––-
1 | 0:00.00 | 5:46.04 | 0 | 25953
2 | 5:46.04 | 3:33.67 | 25954 | 41995
3 | 9:19.71 | 5:42.71 | 41996 | 67716
4 | 15:02.67 | 3:37.45 | 67717 | 84036
5 | 18:40.37 | 6:29.18 | 84037 | 113229
6 | 25:09.55 | 5:33.26 | 113230 | 138230
7 | 30:43.06 | 8:12.19 | 138231 | 175149
8 | 38:55.25 | 6:01.68 | 175150 | 202292
9 | 44:57.18 | 4:20.38 | 202293 | 221830
10 | 49:17.56 | 2:41.50 | 221831 | 233955
11 | 51:59.31 | 3:51.37 | 233956 | 251317
12 | 55:50.68 | 3:58.63 | 251318 | 269230
13 | 59:49.56 | 3:46.12 | 269231 | 286192
14 | 63:35.68 | 3:35.45 | 286193 | 302362
15 | 67:11.38 | 4:59.08 | 302363 | 324795
16 | 72:10.46 | 3:24.72 | 324796 | 340167
17 | 75:35.43 | 4:21.01 | 340168 | 359743


Track 1

Filename C:\Temp\01 - Hear Me Calling.wav

Pre-gap length 0:00:02.00

Peak level 97.7 %
Extraction speed 3.2 X
Track quality 100.0 %
Test CRC F0414F46
Copy CRC F0414F46
Accurately ripped (confidence 2) [E733691A] (AR v2)
Copy OK

Track 2

Filename C:\Temp\02 - In Like A Shot From My Gun.wav

Peak level 97.7 %
Extraction speed 3.3 X
Track quality 100.0 %
Test CRC 4A2EEF81
Copy CRC 4A2EEF81
Accurately ripped (confidence 2) [A921E351] (AR v2)
Copy OK

Track 3

Filename C:\Temp\03 - Darling Be Home Soon.wav

Peak level 97.7 %
Extraction speed 3.2 X
Track quality 99.9 %
Test CRC C6C77514
Copy CRC C6C77514
Accurately ripped (confidence 2) [686CEFA9] (AR v2)
Copy OK

Track 4

Filename C:\Temp\04 - Know Who You Are.wav

Peak level 97.7 %
Extraction speed 3.9 X
Track quality 100.0 %
Test CRC 56C8A740
Copy CRC 56C8A740
Accurately ripped (confidence 2) [C65F1D46] (AR v2)
Copy OK

Track 5

Filename C:\Temp\05 - Keep On Rocking.wav

Peak level 97.7 %
Extraction speed 4.4 X
Track quality 100.0 %
Test CRC 7AF6EB31
Copy CRC 7AF6EB31
Accurately ripped (confidence 2) [953F4C9E] (AR v2)
Copy OK

Track 6

Filename C:\Temp\06 - Get Down And Get With It.wav

Peak level 97.7 %
Extraction speed 4.6 X
Track quality 100.0 %
Test CRC 1273819B
Copy CRC 1273819B
Accurately ripped (confidence 2) [AC0CC2F0] (AR v2)
Copy OK

Track 7

Filename C:\Temp\07 - Born To Be Wild.wav

Peak level 97.7 %
Extraction speed 5.1 X
Track quality 100.0 %
Test CRC 4148B7E6
Copy CRC 4148B7E6
Accurately ripped (confidence 2) [47E8518E] (AR v2)
Copy OK

Track 8

Filename C:\Temp\08 - Get On Up.wav

Peak level 97.7 %
Extraction speed 5.3 X
Track quality 100.0 %
Test CRC 9C3C07B4
Copy CRC 9C3C07B4
Accurately ripped (confidence 2) [E1996765] (AR v2)
Copy OK

Track 9

Filename C:\Temp\09 - Tak' Me Bak 'Ome.wav

Peak level 97.7 %
Extraction speed 5.2 X
Track quality 100.0 %
Test CRC 33554303
Copy CRC 33554303
Accurately ripped (confidence 2) [D3EBB0F0] (AR v2)
Copy OK

Track 10

Filename C:\Temp\10 - My Baby Left Me.wav

Peak level 97.7 %
Extraction speed 3.7 X
Track quality 99.9 %
Test CRC CBDA31F9
Copy CRC CBDA31F9
Accurately ripped (confidence 2) [4CB816D5] (AR v2)
Copy OK

Track 11

Filename C:\Temp\11 - Be.wav

Peak level 97.7 %
Extraction speed 5.5 X
Track quality 100.0 %
Test CRC 40A95F85
Copy CRC 40A95F85
Accurately ripped (confidence 2) [0E1E6EA4] (AR v2)
Copy OK

Track 12

Filename C:\Temp\12 - Mama Weer All Crazee Now.wav

Peak level 97.7 %
Extraction speed 5.6 X
Track quality 100.0 %
Test CRC 4A6C44E6
Copy CRC 4A6C44E6
Accurately ripped (confidence 2) [4E931ABB] (AR v2)
Copy OK

Track 13

Filename C:\Temp\13 - Burnin' In The Heat Of Love.wav

Peak level 97.7 %
Extraction speed 5.7 X
Track quality 100.0 %
Test CRC 1E41E15A
Copy CRC 1E41E15A
Accurately ripped (confidence 2) [F5B59C0E] (AR v2)
Copy OK

Track 14

Filename C:\Temp\14 - Everyday.wav

Peak level 97.7 %
Extraction speed 5.8 X
Track quality 100.0 %
Test CRC 13870EC3
Copy CRC 13870EC3
Accurately ripped (confidence 2) [B71445C5] (AR v2)
Copy OK

Track 15

Filename C:\Temp\15 - Gudbuy T'Jane.wav

Peak level 97.7 %
Extraction speed 5.1 X
Track quality 99.9 %
Test CRC FD020E57
Copy CRC FD020E57
Accurately ripped (confidence 2) [94C7EC58] (AR v2)
Copy OK

Track 16

Filename C:\Temp\16 - One-Eyed Jacks With Moustaches.wav

Peak level 97.7 %
Extraction speed 6.0 X
Track quality 100.0 %
Test CRC 7BA9B75D
Copy CRC 7BA9B75D
Accurately ripped (confidence 2) [15C0FB55] (AR v2)
Copy OK

Track 17

Filename C:\Temp\17 - Cum On Feel The Noize.wav

Peak level 97.7 %
Extraction speed 6.3 X
Track quality 100.0 %
Test CRC 41DEFC70
Copy CRC 41DEFC70
Accurately ripped (confidence 2) [95442060] (AR v2)
Copy OK


All tracks accurately ripped

No errors occurred

End of status report

==== Log checksum 654004D93FD1C248FEBDFEB7FE44D75777B8063A71030CAA464136BB0DAFC3F0 ====

Exact Audio Copy V1.0 beta 3 from 29. August 2011

EAC extraction logfile from 17. September 2013, 21:18

Slade / Slade Alive! [Disc 2 of 2]

Used drive : HL-DT-STDVDRAM GT51N Adapter: 0 ID: 1

Read mode : Secure
Utilize accurate stream : Yes
Defeat audio cache : Yes
Make use of C2 pointers : No

Read offset correction : 103
Overread into Lead-In and Lead-Out : No
Fill up missing offset samples with silence : Yes
Delete leading and trailing silent blocks : No
Null samples used in CRC calculations : Yes
Used interface : Native Win32 interface for Win NT & 2000
Gap handling : Appended to previous track

Used output format : User Defined Encoder
Selected bitrate : 896 kBit/s
Quality : High
Add ID3 tag : No
Command line compressor : C:\Exact Audio Copy\Flac\flac.EXE
Additional command line options : -8 -V -T "ARTIST=%artist%" -T "TITLE=%title%" -T "ALBUM=%albumtitle%" -T "DATE=%year%" -T "TRACKNUMBER=%tracknr%" -T "TOTALTRACKS=%numtracks%" -T "GENRE=%genre%" -T "ALBUMARTIST=%albumartist%" -T "ALBUM ARTIST=%albumartist%" -T "COMMENT=EAC Secure Mode, Test & Copy, AccurateRip, FLAC -8" %source%


TOC of the extracted CD

Track | Start | Length | Start sector | End sector
––––––––––––––––––––––––––––-
1 | 0:00.00 | 5:19.25 | 0 | 23949
2 | 5:19.25 | 3:43.27 | 23950 | 40701
3 | 9:02.52 | 4:33.25 | 40702 | 61201
4 | 13:36.02 | 3:18.48 | 61202 | 76099
5 | 16:54.50 | 4:03.33 | 76100 | 94357
6 | 20:58.08 | 4:17.52 | 94358 | 113684
7 | 25:15.60 | 8:10.20 | 113685 | 150454
8 | 33:26.05 | 4:40.35 | 150455 | 171489
9 | 38:06.40 | 2:55.72 | 171490 | 184686
10 | 41:02.37 | 0:35.46 | 184687 | 187357
11 | 41:38.08 | 3:59.11 | 187358 | 205293
12 | 45:37.19 | 2:58.46 | 205294 | 218689
13 | 48:35.65 | 6:16.35 | 218690 | 246924
14 | 54:52.25 | 0:39.74 | 246925 | 249923
15 | 55:32.24 | 3:25.06 | 249924 | 265304
16 | 58:57.30 | 6:49.15 | 265305 | 295994


Track 1

Filename C:\Temp\01 - Rock And Roll Preacher.wav

Pre-gap length 0:00:02.00

Peak level 97.7 %
Extraction speed 2.6 X
Track quality 99.9 %
Test CRC 5386604F
Copy CRC 5386604F
Accurately ripped (confidence 7) [BCBDE79E] (AR v1)
Copy OK

Track 2

Filename C:\Temp\02 - When I'm Dancin' I Ain't Fightin'.wav

Peak level 97.7 %
Extraction speed 3.2 X
Track quality 100.0 %
Test CRC BA996D3A
Copy CRC BA996D3A
Accurately ripped (confidence 7) [34240CFC] (AR v1)
Copy OK

Track 3

Filename C:\Temp\03 - Tak Me Bak 'Ome.wav

Peak level 97.7 %
Extraction speed 3.5 X
Track quality 100.0 %
Test CRC 59A1094E
Copy CRC 59A1094E
Accurately ripped (confidence 7) [70E73294] (AR v1)
Copy OK

Track 4

Filename C:\Temp\04 - Everyday.wav

Peak level 97.7 %
Extraction speed 3.7 X
Track quality 100.0 %
Test CRC 0A826661
Copy CRC 0A826661
Accurately ripped (confidence 7) [9EE5C76D] (AR v1)
Copy OK

Track 5

Filename C:\Temp\05 - Lock Up Your Daughters.wav

Peak level 97.7 %
Extraction speed 4.0 X
Track quality 100.0 %
Test CRC F3749D37
Copy CRC F3749D37
Accurately ripped (confidence 7) [985B6E28] (AR v1)
Copy OK

Track 6

Filename C:\Temp\06 - We'll Bring The House Down.wav

Peak level 97.7 %
Extraction speed 4.2 X
Track quality 100.0 %
Test CRC F468A51F
Copy CRC F468A51F
Accurately ripped (confidence 7) [ADB1682C] (AR v1)
Copy OK

Track 7

Filename C:\Temp\07 - A Night To Remember.wav

Peak level 97.7 %
Extraction speed 4.8 X
Track quality 100.0 %
Test CRC 86ED1A5A
Copy CRC 86ED1A5A
Accurately ripped (confidence 7) [7896BB97] (AR v1)
Copy OK

Track 8

Filename C:\Temp\08 - Gudbuy T'Jane.wav

Peak level 97.7 %
Extraction speed 4.9 X
Track quality 100.0 %
Test CRC 63E791A8
Copy CRC 63E791A8
Accurately ripped (confidence 7) [03215307] (AR v1)
Copy OK

Track 9

Filename C:\Temp\09 - Mama Weer All Crazee Now.wav

Peak level 97.7 %
Extraction speed 3.6 X
Track quality 99.9 %
Test CRC 320A7FA6
Copy CRC 320A7FA6
Accurately ripped (confidence 7) [C70A7062] (AR v1)
Copy OK

Track 10

Filename C:\Temp\10 - You'll Never Walk Alone.wav

Peak level 97.7 %
Extraction speed 2.8 X
Track quality 100.0 %
Test CRC 67D14C8E
Copy CRC 67D14C8E
Accurately ripped (confidence 7) [CFD502C8] (AR v1)
Copy OK

Track 11

Filename C:\Temp\11 - When I'm Dancin' I Ain't Fightin'.wav

Peak level 97.7 %
Extraction speed 5.2 X
Track quality 100.0 %
Test CRC 2DE6DC89
Copy CRC 2DE6DC89
Accurately ripped (confidence 7) [35B4246B] (AR v1)
Copy OK

Track 12

Filename C:\Temp\12 - Born To Be Wild.wav

Peak level 97.7 %
Extraction speed 3.9 X
Track quality 99.9 %
Test CRC 083DAE54
Copy CRC 083DAE54
Accurately ripped (confidence 7) [E67974D0] (AR v1)
Copy OK

Track 13

Filename C:\Temp\13 - Something Else - Pistol Packin' Mama - Keep A Rollin'.wav

Peak level 97.7 %
Extraction speed 4.5 X
Track quality 99.9 %
Test CRC 6FB91171
Copy CRC 6FB91171
Accurately ripped (confidence 7) [E36211EA] (AR v1)
Copy OK

Track 14

Filename C:\Temp\14 - Merry Xmas Everybody.wav

Peak level 97.7 %
Extraction speed 2.9 X
Track quality 100.0 %
Test CRC FB0C249F
Copy CRC FB0C249F
Accurately ripped (confidence 7) [F3B2B1EF] (AR v1)
Copy OK

Track 15

Filename C:\Temp\15 - Okey Cokey.wav

Peak level 97.7 %
Extraction speed 4.8 X
Track quality 100.0 %
Test CRC FAD4C115
Copy CRC FAD4C115
Accurately ripped (confidence 6) [E14FD519] (AR v1)
Copy OK

Track 16

Filename C:\Temp\16 - Get Down And Get With It.wav

Peak level 97.7 %
Extraction speed 5.0 X
Track quality 100.0 %
Test CRC 5283219A
Copy CRC 5283219A
Accurately ripped (confidence 6) [C242428D] (AR v1)
Copy OK


All tracks accurately ripped

No errors occurred

End of status report

==== Log checksum E04A0FFA65ACE40926719F00B41FE5BB13934D83BBD6C247B4615D5B14CB4541 ====

[CUETools log; Date: 04.09.2016 22:04:53; Version: 2.1.5]
[CTDB TOCID: txiwi_NRipx1npQPqQ87S.y_iR0-] found.
Track | CTDB Status
1 | (52/52) Accurately ripped
2 | (52/52) Accurately ripped
3 | (52/52) Accurately ripped
4 | (52/52) Accurately ripped
5 | (51/52) Accurately ripped
6 | (52/52) Accurately ripped
7 | (52/52) Accurately ripped
8 | (51/52) Accurately ripped
9 | (51/52) Accurately ripped
10 | (52/52) Accurately ripped
11 | (52/52) Accurately ripped
12 | (52/52) Accurately ripped
13 | (52/52) Accurately ripped
14 | (50/52) Accurately ripped
15 | (52/52) Accurately ripped
16 | (52/52) Accurately ripped
17 | (51/52) Accurately ripped
[AccurateRip ID: 00347680-0290c700-ee12bc11] found.
Track [ CRC | V2 ] Status
01 [df6da662|e733691a] (03+03/76) Accurately ripped
02 [c844ddad|a921e351] (03+03/77) Accurately ripped
03 [f7caedc5|686cefa9] (03+03/77) Accurately ripped
04 [b99a7bb8|c65f1d46] (03+03/77) Accurately ripped
05 [a8fe6f56|953f4c9e] (03+03/77) Accurately ripped
06 [84d087a4|ac0cc2f0] (03+03/77) Accurately ripped
07 [7fa361ad|47e8518e] (03+03/77) Accurately ripped
08 [9dbf8fab|e1996765] (03+03/76) Accurately ripped
09 [94a0dbda|d3ebb0f0] (03+03/77) Accurately ripped
10 [325e315d|4cb816d5] (03+03/77) Accurately ripped
11 [5d4f68a0|0e1e6ea4] (03+03/76) Accurately ripped
12 [b9653cda|4e931abb] (03+03/77) Accurately ripped
13 [2f4f2f52|f5b59c0e] (03+03/77) Accurately ripped
14 [c06a0a6d|b71445c5] (03+03/77) Accurately ripped
15 [d62d2076|94c7ec58] (03+03/77) Accurately ripped
16 [5e0e81ac|15c0fb55] (03+03/76) Accurately ripped
17 [0365849a|95442060] (03+03/77) Accurately ripped
Offsetted by -18:
01 [0f1b4c35] (03/76) Accurately ripped
02 [9602ae15] (03/77) Accurately ripped
03 [e30b5e2b] (03/77) Accurately ripped
04 [ae554660] (03/77) Accurately ripped
05 [53f5520c] (03/77) Accurately ripped
06 [5ee1cac1] (03/77) Accurately ripped
07 [14fc4119] (03/77) Accurately ripped
08 [098a9456] (03/76) Accurately ripped
09 [26f48468] (03/77) Accurately ripped
10 [8eb9e511] (03/77) Accurately ripped
11 [19839153] (03/76) Accurately ripped
12 [4c949bb2] (03/77) Accurately ripped
13 [75661954] (03/77) Accurately ripped
14 [4e96a9dd] (03/77) Accurately ripped
15 [6c2da79c] (03/77) Accurately ripped
16 [40cb44bb] (03/76) Accurately ripped
17 [820bfc33] (03/77) Accurately ripped
Offsetted by 664:
01 [ea7c9c5c] (25/76) Accurately ripped
02 [b82ab627] (25/77) Accurately ripped
03 [0f6e045a] (25/77) Accurately ripped
04 [70d0e258] (25/77) Accurately ripped
05 [dc59954f] (25/77) Accurately ripped
06 [5cc38fc1] (25/77) Accurately ripped
07 [ccef0bff] (25/77) Accurately ripped
08 [008791d2] (25/76) Accurately ripped
09 [3161c9e6] (25/77) Accurately ripped
10 [a8eced09] (25/77) Accurately ripped
11 [8bb266ad] (25/76) Accurately ripped
12 [a3bd2c48] (25/77) Accurately ripped
13 [04ac3834] (25/77) Accurately ripped
14 [a96f37d3] (25/77) Accurately ripped
15 [c518de7e] (25/77) Accurately ripped
16 [294c6f82] (25/76) Accurately ripped
17 [d62638a6] (25/77) Accurately ripped
Offsetted by -664:
01 [0e4b9459] (00/76) No match (V2 was not tested)
02 [959e0951] (00/77) No match (V2 was not tested)
03 [6f476b36] (00/77) No match (V2 was not tested)
04 [78d1f5b5] (00/77) No match (V2 was not tested)
05 [5fc9199a] (00/77) No match (V2 was not tested)
06 [afce7730] (00/77) No match (V2 was not tested)
07 [94440a39] (00/77) No match (V2 was not tested)
08 [5d155fb6] (00/76) No match (V2 was not tested)
09 [efee7c7a] (00/77) No match (V2 was not tested)
10 [0ca94f90] (00/77) No match (V2 was not tested)
11 [08c45daa] (00/76) No match (V2 was not tested)
12 [c3bae630] (00/77) No match (V2 was not tested)
13 [179d9a3d] (00/77) No match (V2 was not tested)
14 [c2465f5a] (00/77) No match (V2 was not tested)
15 [8bcfee7e] (00/77) No match (V2 was not tested)
16 [a3d4760f] (00/76) No match (V2 was not tested)
17 [92412e00] (00/77) No match (V2 was not tested)
Offsetted by -36:
01 [215b40f3] (00/76) No match (V2 was not tested)
02 [dcd3229f] (00/77) No match (V2 was not tested)
03 [678ded0f] (00/77) No match (V2 was not tested)
04 [24135b25] (00/77) No match (V2 was not tested)
05 [1a5dbf2e] (00/77) No match (V2 was not tested)
06 [3c38b08e] (00/77) No match (V2 was not tested)
07 [88e4d73e] (00/77) No match (V2 was not tested)
08 [218cba5b] (00/76) No match (V2 was not tested)
09 [0c659f04] (00/77) No match (V2 was not tested)
10 [f3139892] (00/77) No match (V2 was not tested)
11 [76dd6fcf] (00/76) No match (V2 was not tested)
12 [a981f259] (00/77) No match (V2 was not tested)
13 [9078a420] (00/77) No match (V2 was not tested)
14 [50b50de5] (00/77) No match (V2 was not tested)
15 [35494e2e] (00/77) No match (V2 was not tested)
16 [87faebc9] (00/76) No match (V2 was not tested)
17 [746b48ff] (00/77) No match (V2 was not tested)
Offsetted by 6:
01 [71011f8e] (00/76) No match (V2 was not tested)
02 [33547d2c] (00/77) No match (V2 was not tested)
03 [9a9b512c] (00/77) No match (V2 was not tested)
04 [3df7caed] (00/77) No match (V2 was not tested)
05 [78379d40] (00/77) No match (V2 was not tested)
06 [1cb2ce64] (00/77) No match (V2 was not tested)
07 [00d70bb2] (00/77) No match (V2 was not tested)
08 [92f16849] (00/76) No match (V2 was not tested)
09 [2063c9a1] (00/77) No match (V2 was not tested)
10 [b9b33905] (00/77) No match (V2 was not tested)
11 [99025f7c] (00/76) No match (V2 was not tested)
12 [cfee7f8c] (00/77) No match (V2 was not tested)
13 [3e490b80] (00/77) No match (V2 was not tested)
14 [7614ca66] (00/77) No match (V2 was not tested)
15 [fdcd8309] (00/77) No match (V2 was not tested)
16 [799069d3] (00/76) No match (V2 was not tested)
17 [47846b0c] (00/77) No match (V2 was not tested)

Track Peak [ CRC32 ] [W/O NULL] [ LOG ]
– 97,7 [B61D1104] [B46C7820]
01 97,7 [F0414F46] [81C0C176] CRC32
02 97,7 [4A2EEF81] [C3FABB84] CRC32
03 97,7 [C6C77514] [BA08888E] CRC32
04 97,7 [56C8A740] [62461AA8] CRC32
05 97,7 [7AF6EB31] [45129329] CRC32
06 97,7 [1273819B] [E032C174] CRC32
07 97,7 [4148B7E6] [7A41825A] CRC32
08 97,7 [9C3C07B4] [EE7EC0CC] CRC32
09 97,7 [33554303] [ED6C6B6A] CRC32
10 97,7 [CBDA31F9] [0C814CC7] CRC32
11 97,7 [40A95F85] [26924E8C] CRC32
12 97,7 [4A6C44E6] [ACB70877] CRC32
13 97,7 [1E41E15A] [4E5A3B1B] CRC32
14 97,7 [13870EC3] [5A1E97D8] CRC32
15 97,7 [FD020E57] [08101C83] CRC32
16 97,7 [7BA9B75D] [01B75898] CRC32
17 97,7 [41DEFC70] [3AC9608F] CRC32

[CUETools log; Date: 04.09.2016 22:08:39; Version: 2.1.5]
[CTDB TOCID: z.6VWfK6QT2ne90ttKawCxaV6a4-] found.
Track | CTDB Status
1 | (51/51) Accurately ripped
2 | (51/51) Accurately ripped
3 | (51/51) Accurately ripped
4 | (51/51) Accurately ripped
5 | (51/51) Accurately ripped
6 | (51/51) Accurately ripped
7 | (51/51) Accurately ripped
8 | (51/51) Accurately ripped
9 | (51/51) Accurately ripped
10 | (51/51) Accurately ripped
11 | (51/51) Accurately ripped
12 | (51/51) Accurately ripped
13 | (50/51) Accurately ripped
14 | (51/51) Accurately ripped
15 | (51/51) Accurately ripped
16 | (51/51) Accurately ripped
[AccurateRip ID: 00277608-01d2f003-d50f6a10] found.
Track [ CRC | V2 ] Status
01 [bcbde79e|1cdc8b19] (07+04/74) Accurately ripped
02 [34240cfc|3ba76b65] (07+04/74) Accurately ripped
03 [70e73294|e61ad1ee] (07+04/74) Accurately ripped
04 [9ee5c76d|4b7abb0f] (07+04/74) Accurately ripped
05 [985b6e28|d5a94721] (07+04/74) Accurately ripped
06 [adb1682c|9881a6d7] (07+04/74) Accurately ripped
07 [7896bb97|3898509e] (07+04/74) Accurately ripped
08 [03215307|c769b676] (07+04/74) Accurately ripped
09 [c70a7062|b41aa401] (07+04/74) Accurately ripped
10 [cfd502c8|1a1bbbef] (07+04/74) Accurately ripped
11 [35b4246b|af0e3777] (07+04/75) Accurately ripped
12 [e67974d0|13f8ce8d] (07+04/75) Accurately ripped
13 [e36211ea|8daeac0b] (07+04/75) Accurately ripped
14 [f3b2b1ef|63fa5c12] (07+04/75) Accurately ripped
15 [e14fd519|27af1d39] (06+04/74) Accurately ripped
16 [c242428d|fadcb169] (06+04/73) Accurately ripped
Offsetted by -18:
01 [bedf1490] (04/74) Accurately ripped
02 [14c0d486] (04/74) Accurately ripped
03 [28fdb343] (04/74) Accurately ripped
04 [fc03e451] (04/74) Accurately ripped
05 [71712659] (04/74) Accurately ripped
06 [19e9b9fb] (04/74) Accurately ripped
07 [f9faf01e] (04/74) Accurately ripped
08 [fb919cee] (04/74) Accurately ripped
09 [bd9de1e6] (04/74) Accurately ripped
10 [5e962445] (04/74) Accurately ripped
11 [1566bdc0] (04/75) Accurately ripped
12 [f258758d] (04/75) Accurately ripped
13 [7ee7258a] (04/75) Accurately ripped
14 [69e71f51] (04/75) Accurately ripped
15 [365d1c17] (04/74) Accurately ripped
16 [e5822dd1] (04/73) Accurately ripped
Offsetted by 664:
01 [8bba0944] (20/74) Accurately ripped
02 [b292b25a] (20/74) Accurately ripped
03 [ce2863f9] (20/74) Accurately ripped
04 [52775658] (20/74) Accurately ripped
05 [4a5bbbd4] (20/74) Accurately ripped
06 [c0759911] (20/74) Accurately ripped
07 [c8fcb99b] (20/74) Accurately ripped
08 [1309adcb] (20/74) Accurately ripped
09 [2026b1a6] (20/74) Accurately ripped
10 [8f047796] (20/74) Accurately ripped
11 [af95000f] (20/75) Accurately ripped
12 [cf5bca12] (20/75) Accurately ripped
13 [418a5a6a] (20/75) Accurately ripped
14 [41f0c7a3] (20/75) Accurately ripped
15 [c461d3c5] (20/74) Accurately ripped
16 [750c5bdd] (20/73) Accurately ripped
Offsetted by -36:
01 [043c4ec2] (00/74) No match (V2 was not tested)
02 [8ac3aeb2] (00/74) No match (V2 was not tested)
03 [d689b044] (00/74) No match (V2 was not tested)
04 [a8ed4402] (00/74) No match (V2 was not tested)
05 [84c63889] (00/74) No match (V2 was not tested)
06 [28d6c8c7] (00/74) No match (V2 was not tested)
07 [4e54f81b] (00/74) No match (V2 was not tested)
08 [c6c0f71a] (00/74) No match (V2 was not tested)
09 [dfa37fce] (00/74) No match (V2 was not tested)
10 [c0fc9260] (00/74) No match (V2 was not tested)
11 [6bd15aa4] (00/75) No match (V2 was not tested)
12 [16dd3b9d] (00/75) No match (V2 was not tested)
13 [1a6c392a] (00/75) No match (V2 was not tested)
14 [e7bd7722] (00/75) No match (V2 was not tested)
15 [5d36bf1e] (00/74) No match (V2 was not tested)
16 [08c21915] (00/73) No match (V2 was not tested)

Track Peak [ CRC32 ] [W/O NULL] [ LOG ]
– 97,7 [2CD1AC94] [400C1225]
01 97,7 [5386604F] [04011E11] CRC32
02 97,7 [BA996D3A] [4E912FC7] CRC32
03 97,7 [59A1094E] [EE7D348F] CRC32
04 97,7 [0A826661] [BD4B53D3] CRC32
05 97,7 [F3749D37] [81ECCCE1] CRC32
06 97,7 [F468A51F] [271835C4] CRC32
07 97,7 [86ED1A5A] [B4777BC5] CRC32
08 97,7 [63E791A8] [0FA41D55] CRC32
09 97,7 [320A7FA6] [AE5A138A] CRC32
10 97,7 [67D14C8E] [7E8E4601] CRC32
11 97,7 [2DE6DC89] [83BE4659] CRC32
12 97,7 [083DAE54] [909201CE] CRC32
13 97,7 [6FB91171] [49C523DC] CRC32
14 97,7 [FB0C249F] [25A7A713] CRC32
15 97,7 [FAD4C115] [43BBE920] CRC32
16 97,7 [5283219A] [F69A7C2D] CRC32


Musicians

Noddy Holder – vocals, guitar
Jim Lea – vocals, bass guitar, violin
Dave Hill – vocals, lead guitar
Don Powell – drums

Slade - Slade Alive! The Live Anthology (2006) {2 CD, Remastered}

All thanks goes to the original releaser
=====