Tags
Language
Tags
March 2024
Su Mo Tu We Th Fr Sa
25 26 27 28 29 1 2
3 4 5 6 7 8 9
10 11 12 13 14 15 16
17 18 19 20 21 22 23
24 25 26 27 28 29 30
31 1 2 3 4 5 6

Simple Minds - New Gold Dream (81-82-83-84) (1982) [5CD Deluxe Edition 2016]

Posted By: gribovar
Simple Minds - New Gold Dream (81-82-83-84) (1982) [5CD Deluxe Edition 2016]

Simple Minds - New Gold Dream (81-82-83-84) (1982) [5CD Deluxe Edition 2016]
EAC Rip | FLAC (image+.cue+log) - 1,65 GB | MP3 CBR 320 kbps (LAME 3.93) - 607 MB | Covers - 673 MB
Genre: New Wave, Synth-pop | RAR 3% Rec. | Label: Virgin/Universal (0602544766622)

This super deluxe edition boasts an abundance of material. Disc one features a 2016 remaster (by Andrew Walter at Abbey Road) approved by Charlie Burchill and the second disc gathers 12-inch remixes and instrumentals of the singles, a few of which enjoy their CD debut. Various edits and B-sides can be found on the third CD in the set while disc four features previously unreleased BBC John Peel and Kid Jensen radio sessions, recorded in February and August 1982. All ten tracks on disc five are previously unreleased; made up of alternative mixes and demos.
One of Scotland's finest exports, Simple Minds deliver a strong synth-reared release on New Gold Dream. This album harks the darker side of the band's musicianship, and such material alludes to their forthcoming pop-stadium sound which hurled them into rock mainstream during the latter part of the '80s. They were still honing their artistic rowdiness, and Kerr's pursuing vocals were still hiding. But Simple Minds' skill of tapping into internal emotion is profound on songs such as "Someone, Somewhere in Summertime" and the album's title track. But the dance-oriented tracks like "Promised You a Miracle" and "Glittering Prize" are lushly layered in deep electronic beats - it was only a matter of time for Simple Minds to expound upon such musical creativity which made them a household favorite through the 1980s.
CD 1 Tracklist (Original Album):
01. Someone Somewhere In Summertime
02. Colours Fly And Catherine Wheel
03. Promised You A Miracle
04. Big Sleep
05. Somebody Up There Likes You
06. New Gold Dream (81,82,83,84)
07. Glittering Prize
08. Hunter And The Hunted
09. King Is White And In The Crowd

Total time: 46:08

CD 2 Tracklist (Extended Versions):
01. Promised You A Miracle (Extended)
02. Seeing Out The Angel (Instrumental Remix)
03. Promised You A Miracle (US Remix)
04. Promised You A Miracle (US Dub)
05. Promised You A Miracle (US Special Extended Remix)
06. Glittering Prize (Club Mix 12" Single)
07. Glittering Prize (Extended Theme)
08. Someone Somewhere In Summertime (Extended 12" Single)
09. New Gold Dream (German 12" Mix)
10. King Is White And In The Crowd (Instrumental)
11. New Gold Dream (German 12" Remix With Drums / Outtake)
12. In Every Heaven (Outtake)

Total time: 01:12:20

CD 3 Tracklist (Edits & B-Sides):
01. Promised You A Miracle (Edit)
02. Theme From Great Cities
03. Glittering Prize (Edit)
04. Glittering Prize (Theme)
05. Someone Somewhere In Summertime (Edit)
06. Soundtrack For Every Heaven
07. New Gold Dream (81-82-83-84) (7" Mix)

Total time: 31:45

CD 4 Tracklist (Radio Sessions):
01. Promised You A Miracle (David Jensen Session: 11th February 1982)
02. In Trance As Mission (David Jensen Session: 11th February 1982)
03. King Is White And In The Crowd (David Jensen Session: 11th February 1982)
04. Promised You A Miracle (John Peel Session: 15th February 1982)
05. Love Song (John Peel Session: 15th February 1982)
06. Sons And Fascination (John Peel Session: 15th February 1982)
07. King Is White And In The Crowd (John Peel Session: 15th February 1982)
08. Someone Somewhere In Summertime (David Jensen Session: 13th August 1982)
09. Glittering Prize (David Jensen Session: 13th August 1982)
10. Hunter And The Hunted (David Jensen Session: 13th August 1982)

Total time: 52:55

CD 5 Tracklist (Alternative Mixes, Roughs & Demos):
01. Someone Somewhere In Summertime (Full Duration)
02. Colours Fly And Catherine Wheel (Full Duration Instrumental)
03. Promised You A Miracle (Remix For Album: Long)
04. Big Sleep (Instrumental)
05. In Every Heaven (Full Duration)
06. Somebody Up There Likes You (Full Duration Instrumental)
07. New Gold Dream (81,82,83,84) (Full Duration)
08. Hunter And The Hunted (Alternative Take)
09. King Is White And In The Crowd (Monitor Mix)
10. In Every Heaven (Early Version)

Total time: 55:50

Exact Audio Copy V1.1 from 23. June 2015

EAC extraction logfile from 14. August 2016, 9:31

Simple Minds / New Gold Dream CD1

Used drive : PLEXTOR BD-R PX-B950SA Adapter: 1 ID: 1

Read mode : Secure
Utilize accurate stream : Yes
Defeat audio cache : Yes
Make use of C2 pointers : No

Read offset correction : 6
Overread into Lead-In and Lead-Out : No
Fill up missing offset samples with silence : Yes
Delete leading and trailing silent blocks : No
Null samples used in CRC calculations : Yes
Used interface : Native Win32 interface for Win NT & 2000

Used output format : Internal WAV Routines
Sample format : 44.100 Hz; 16 Bit; Stereo


TOC of the extracted CD

Track | Start | Length | Start sector | End sector
––––––––––––––––––––––––––––-
1 | 0:00.00 | 4:37.51 | 0 | 20825
2 | 4:37.51 | 3:49.47 | 20826 | 38047
3 | 8:27.23 | 4:27.09 | 38048 | 58081
4 | 12:54.32 | 5:00.27 | 58082 | 80608
5 | 17:54.59 | 5:02.62 | 80609 | 103320
6 | 22:57.46 | 5:38.60 | 103321 | 128730
7 | 28:36.31 | 4:33.28 | 128731 | 149233
8 | 33:09.59 | 5:54.58 | 149234 | 175841
9 | 39:04.42 | 7:03.11 | 175842 | 207577


Range status and errors

Selected range

Filename C:\Users\Meijin\Desktop\ALLexxess\Simple Minds\1982 New Gold Dream (5CD + DVD Box Set Universal Music 2016)\CD1\Simple Minds - New Gold Dream CD1.wav

Peak level 97.8 %
Extraction speed 3.2 X
Range quality 100.0 %
Test CRC 3CA4BDEB
Copy CRC 3CA4BDEB
Copy OK

No errors occurred


AccurateRip summary

Track 1 accurately ripped (confidence 3) [FFFD7835] (AR v2)
Track 2 accurately ripped (confidence 3) [25F68456] (AR v2)
Track 3 accurately ripped (confidence 3) [76FBD869] (AR v2)
Track 4 accurately ripped (confidence 3) [69D38CDD] (AR v2)
Track 5 accurately ripped (confidence 3) [B0E132BF] (AR v2)
Track 6 accurately ripped (confidence 3) [26962668] (AR v2)
Track 7 accurately ripped (confidence 3) [7088DB6C] (AR v2)
Track 8 accurately ripped (confidence 3) [43A44156] (AR v2)
Track 9 accurately ripped (confidence 3) [A163F388] (AR v2)

All tracks accurately ripped

End of status report

–– CUETools DB Plugin V2.1.6

[CTDB TOCID: drA_dLSnJwgxiEGdXvSGe33eNao-] found
Submit result: drA_dLSnJwgxiEGdXvSGe33eNao- has been confirmed
Track | CTDB Status
1 | (29/29) Accurately ripped
2 | (29/29) Accurately ripped
3 | (29/29) Accurately ripped
4 | (29/29) Accurately ripped
5 | (29/29) Accurately ripped
6 | (29/29) Accurately ripped
7 | (29/29) Accurately ripped
8 | (29/29) Accurately ripped
9 | (29/29) Accurately ripped


==== Log checksum 9856B54EA9C5946EF9C50293E6C81260BFD95AE6CBDFFC2424FA684574EBC8F8 ====

[CUETools log; Date: 08.01.2023 13:28:59; Version: 2.1.4]
[CTDB TOCID: drA_dLSnJwgxiEGdXvSGe33eNao-] found.
Track | CTDB Status
1 | (241/243) Accurately ripped
2 | (242/243) Accurately ripped
3 | (242/243) Accurately ripped
4 | (240/243) Accurately ripped
5 | (242/243) Accurately ripped
6 | (241/243) Accurately ripped
7 | (240/243) Accurately ripped
8 | (241/243) Accurately ripped
9 | (242/243) Accurately ripped
[AccurateRip ID: 000eaedf-006d521b-8c0acf09] found.
Track [ CRC | V2 ] Status
01 [8d077056|fffd7835] (00+59/86) Accurately ripped
02 [aecf3f8e|25f68456] (00+59/86) Accurately ripped
03 [f96a6e00|76fbd869] (00+58/85) Accurately ripped
04 [7bb9e333|69d38cdd] (00+58/85) Accurately ripped
05 [582d132d|b0e132bf] (00+58/85) Accurately ripped
06 [d684f6eb|26962668] (00+58/85) Accurately ripped
07 [a34e3daa|7088db6c] (00+59/86) Accurately ripped
08 [c60e7482|43a44156] (00+59/86) Accurately ripped
09 [30b816a4|a163f388] (00+59/86) Accurately ripped
Offsetted by 12:
01 [b28b54d3] (00/86) No match (V2 was not tested)
02 [8a56b370] (00/86) No match (V2 was not tested)
03 [e4b1a2fa] (00/85) No match (V2 was not tested)
04 [a80ff85d] (00/85) No match (V2 was not tested)
05 [4d83ca5a] (00/85) No match (V2 was not tested)
06 [073093a5] (00/85) No match (V2 was not tested)
07 [a38e434d] (00/86) No match (V2 was not tested)
08 [06f9dd01] (00/86) No match (V2 was not tested)
09 [3ead0008] (00/86) No match (V2 was not tested)

Track Peak [ CRC32 ] [W/O NULL] [ LOG ]
– 97,8 [3CA4BDEB] [DAE653CC] CRC32
01 96,8 [1B3B3CB6] [687B704E]
02 96,0 [4A08F8A4] [861D7EEC]
03 97,6 [137EE7F0] [634C00BD]
04 95,0 [DE86AFEB] [466F5580]
05 95,0 [69BC3D86] [C0FA371A]
06 96,7 [5BDBE4C9] [281CFDD1]
07 97,8 [7D9B98F4] [20E7B036]
08 95,6 [630FF23C] [17A57377]
09 96,4 [3D4FB5A3] [227F5B08]

Exact Audio Copy V1.1 from 23. June 2015

EAC extraction logfile from 14. August 2016, 8:44

Simple Minds / New Gold Dream CD2

Used drive : PLEXTOR BD-R PX-B950SA Adapter: 1 ID: 1

Read mode : Secure
Utilize accurate stream : Yes
Defeat audio cache : Yes
Make use of C2 pointers : No

Read offset correction : 6
Overread into Lead-In and Lead-Out : No
Fill up missing offset samples with silence : Yes
Delete leading and trailing silent blocks : No
Null samples used in CRC calculations : Yes
Used interface : Native Win32 interface for Win NT & 2000

Used output format : Internal WAV Routines
Sample format : 44.100 Hz; 16 Bit; Stereo


TOC of the extracted CD

Track | Start | Length | Start sector | End sector
––––––––––––––––––––––––––––-
1 | 0:01.00 | 4:49.62 | 75 | 21811
2 | 4:50.62 | 6:35.65 | 21812 | 51501
3 | 11:26.52 | 6:04.39 | 51502 | 78840
4 | 17:31.16 | 5:26.18 | 78841 | 103308
5 | 22:57.34 | 6:20.19 | 103309 | 131827
6 | 29:17.53 | 4:58.03 | 131828 | 154180
7 | 34:15.56 | 4:57.50 | 154181 | 176505
8 | 39:13.31 | 6:06.07 | 176506 | 203962
9 | 45:19.38 | 6:53.15 | 203963 | 234952
10 | 52:12.53 | 8:46.16 | 234953 | 274418
11 | 60:58.69 | 6:56.30 | 274419 | 305648
12 | 67:55.24 | 4:24.68 | 305649 | 325516


Range status and errors

Selected range

Filename C:\Users\Meijin\Desktop\ALLexxess\Simple Minds\1982 New Gold Dream (5CD + DVD Box Set Universal Music 2016)\CD2\Simple Minds - New Gold Dream CD2.wav

Peak level 97.4 %
Extraction speed 8.4 X
Range quality 99.9 %
Test CRC 2CA68905
Copy CRC 2CA68905
Copy OK

No errors occurred


AccurateRip summary

Track 1 accurately ripped (confidence 3) [2871E91D] (AR v2)
Track 2 accurately ripped (confidence 3) [374CD6FF] (AR v2)
Track 3 accurately ripped (confidence 3) [A6E44EE1] (AR v2)
Track 4 accurately ripped (confidence 3) [23C607EA] (AR v2)
Track 5 accurately ripped (confidence 3) [1B2B23F3] (AR v2)
Track 6 accurately ripped (confidence 3) [CADEE7AA] (AR v2)
Track 7 accurately ripped (confidence 3) [295CC387] (AR v2)
Track 8 accurately ripped (confidence 3) [AB6DC2D1] (AR v2)
Track 9 accurately ripped (confidence 3) [3198CC50] (AR v2)
Track 10 accurately ripped (confidence 3) [D229A090] (AR v2)
Track 11 accurately ripped (confidence 3) [7A8FA6DB] (AR v2)
Track 12 accurately ripped (confidence 3) [412F709C] (AR v2)

All tracks accurately ripped

End of status report

–– CUETools DB Plugin V2.1.6

[CTDB TOCID: SR4jWoRzMwi9qfgm4xiX5FZ5rxY-] found
Submit result: SR4jWoRzMwi9qfgm4xiX5FZ5rxY- has been confirmed
Track | CTDB Status
1 | (23/23) Accurately ripped
2 | (23/23) Accurately ripped
3 | (23/23) Accurately ripped
4 | (23/23) Accurately ripped
5 | (23/23) Accurately ripped
6 | (23/23) Accurately ripped
7 | (23/23) Accurately ripped
8 | (23/23) Accurately ripped
9 | (23/23) Accurately ripped
10 | (23/23) Accurately ripped
11 | (23/23) Accurately ripped
12 | (23/23) Accurately ripped


==== Log checksum 7C52F1DE60B1646E3D4161A2A9600C616962A00431B485CCA69862BAFC419FB9 ====

[CUETools log; Date: 08.01.2023 13:28:41; Version: 2.1.4]
Pregap length 00:01:00.
[CTDB TOCID: SR4jWoRzMwi9qfgm4xiX5FZ5rxY-] found.
Track | CTDB Status
1 | (149/149) Accurately ripped
2 | (149/149) Accurately ripped
3 | (149/149) Accurately ripped
4 | (149/149) Accurately ripped
5 | (149/149) Accurately ripped
6 | (149/149) Accurately ripped
7 | (149/149) Accurately ripped
8 | (149/149) Accurately ripped
9 | (148/149) Accurately ripped
10 | (149/149) Accurately ripped
11 | (146/149) Accurately ripped
12 | (147/149) Accurately ripped
[AccurateRip ID: 001f78db-012842a0-ae10f30c] found.
Track [ CRC | V2 ] Status
01 [5fc85b65|2871e91d] (00+45/64) Accurately ripped
02 [f86bf237|374cd6ff] (00+44/62) Accurately ripped
03 [ea524b6d|a6e44ee1] (00+44/63) Accurately ripped
04 [fd1aa87f|23c607ea] (00+45/63) Accurately ripped
05 [4e2e1607|1b2b23f3] (00+45/64) Accurately ripped
06 [aadbd18e|cadee7aa] (00+45/64) Accurately ripped
07 [73606eae|295cc387] (00+44/62) Accurately ripped
08 [346317ec|ab6dc2d1] (00+45/63) Accurately ripped
09 [e24734f4|3198cc50] (00+45/64) Accurately ripped
10 [2ea4880d|d229a090] (00+45/63) Accurately ripped
11 [157c3bc6|7a8fa6db] (00+45/64) Accurately ripped
12 [0480670d|412f709c] (00+45/63) Accurately ripped
Offsetted by 12:
01 [93f29149] (00/64) No match (V2 was not tested)
02 [20b42903] (00/62) No match (V2 was not tested)
03 [6062d335] (00/63) No match (V2 was not tested)
04 [b870dc77] (00/63) No match (V2 was not tested)
05 [10e23527] (00/64) No match (V2 was not tested)
06 [233bc222] (00/64) No match (V2 was not tested)
07 [3c28469a] (00/62) No match (V2 was not tested)
08 [44af5e24] (00/63) No match (V2 was not tested)
09 [3bd7059c] (00/64) No match (V2 was not tested)
10 [5c14a799] (00/63) No match (V2 was not tested)
11 [ff545336] (00/64) No match (V2 was not tested)
12 [71bc2561] (00/63) No match (V2 was not tested)

Track Peak [ CRC32 ] [W/O NULL] [ LOG ]
– 97,4 [2CA68905] [3644D167] CRC32
01 97,1 [5801A301] [1F21A4CA]
02 97,4 [D8C07D45] [8D748795]
03 95,3 [906137A0] [6D76762D]
04 96,9 [EC30E182] [507A249D]
05 94,7 [9542D964] [4D4D1773]
06 93,8 [0ECB6EB4] [DCBB6233]
07 94,6 [6F2EED89] [85F1109B]
08 92,1 [3B29DE29] [F194D532]
09 95,7 [4E0D1024] [A308A9AA]
10 95,0 [579102B0] [0667BCB9]
11 94,9 [37074F14] [800A3DB7]
12 91,5 [932ECAF6] [5845F9E5]

Exact Audio Copy V1.1 from 23. June 2015

EAC extraction logfile from 14. August 2016, 8:14

Simple Minds / New Gold Dream CD3

Used drive : PLEXTOR BD-R PX-B950SA Adapter: 1 ID: 1

Read mode : Secure
Utilize accurate stream : Yes
Defeat audio cache : Yes
Make use of C2 pointers : No

Read offset correction : 6
Overread into Lead-In and Lead-Out : No
Fill up missing offset samples with silence : Yes
Delete leading and trailing silent blocks : No
Null samples used in CRC calculations : Yes
Used interface : Native Win32 interface for Win NT & 2000

Used output format : Internal WAV Routines
Sample format : 44.100 Hz; 16 Bit; Stereo


TOC of the extracted CD

Track | Start | Length | Start sector | End sector
––––––––––––––––––––––––––––-
1 | 0:00.00 | 4:02.62 | 0 | 18211
2 | 4:02.62 | 5:51.11 | 18212 | 44547
3 | 9:53.73 | 4:01.68 | 44548 | 62690
4 | 13:55.66 | 4:06.23 | 62691 | 81163
5 | 18:02.14 | 4:00.15 | 81164 | 99178
6 | 22:02.29 | 4:56.22 | 99179 | 121400
7 | 26:58.51 | 4:46.30 | 121401 | 142880


Range status and errors

Selected range

Filename C:\Users\Meijin\Desktop\ALLexxess\Simple Minds\1982 New Gold Dream (5CD + DVD Box Set Universal Music 2016)\CD3\Simple Minds - New Gold Dream CD3.wav

Peak level 97.6 %
Extraction speed 6.4 X
Range quality 100.0 %
Test CRC F92AADC1
Copy CRC F92AADC1
Copy OK

No errors occurred


AccurateRip summary

Track 1 accurately ripped (confidence 2) [E53EAA0E] (AR v2)
Track 2 accurately ripped (confidence 2) [82DB1A93] (AR v2)
Track 3 accurately ripped (confidence 2) [57137CD9] (AR v2)
Track 4 accurately ripped (confidence 2) [83406110] (AR v2)
Track 5 accurately ripped (confidence 2) [6D4A700B] (AR v2)
Track 6 accurately ripped (confidence 2) [DC38B06E] (AR v2)
Track 7 accurately ripped (confidence 2) [5044711C] (AR v2)

All tracks accurately ripped

End of status report

–– CUETools DB Plugin V2.1.6

[CTDB TOCID: tpbZ9WgoZ33HTDexmjpC02kFqcU-] found
Submit result: tpbZ9WgoZ33HTDexmjpC02kFqcU- has been confirmed
Track | CTDB Status
1 | (23/23) Accurately ripped
2 | (23/23) Accurately ripped
3 | (23/23) Accurately ripped
4 | (23/23) Accurately ripped
5 | (23/23) Accurately ripped
6 | (23/23) Accurately ripped
7 | (23/23) Accurately ripped


==== Log checksum AFA67F64BB834EF39331C1AAE9CFF5637175C553BAE6516F8E999EC2E0D75591 ====

[CUETools log; Date: 08.01.2023 13:29:25; Version: 2.1.4]
[CTDB TOCID: tpbZ9WgoZ33HTDexmjpC02kFqcU-] found.
Track | CTDB Status
1 | (99/99) Accurately ripped
2 | (99/99) Accurately ripped
3 | (99/99) Accurately ripped
4 | (99/99) Accurately ripped
5 | (99/99) Accurately ripped
6 | (99/99) Accurately ripped
7 | (99/99) Accurately ripped
[AccurateRip ID: 0008b2dc-00341a36-51077107] found.
Track [ CRC | V2 ] Status
01 [fd877539|e53eaa0e] (00+45/45) Accurately ripped
02 [7aff8ace|82db1a93] (00+45/45) Accurately ripped
03 [1560479e|57137cd9] (00+44/44) Accurately ripped
04 [c4ddf799|83406110] (00+45/45) Accurately ripped
05 [5db27f39|6d4a700b] (00+45/45) Accurately ripped
06 [55c23a25|dc38b06e] (00+44/44) Accurately ripped
07 [cfc048b3|5044711c] (00+45/45) Accurately ripped

Track Peak [ CRC32 ] [W/O NULL] [ LOG ]
– 97,6 [F92AADC1] [3A553B88] CRC32
01 96,4 [BC92E6A7] [28115E7E]
02 96,1 [3AA7BAC7] [BE58852F]
03 97,6 [AE92ECBC] [70CAFC66]
04 90,9 [036310FA] [0117E216]
05 92,0 [CA232ED2] [6C0E78A0]
06 94,2 [45F58CC2] [2A0744F9]
07 95,4 [0190E310] [1AF749E0]

Exact Audio Copy V1.1 from 23. June 2015

EAC extraction logfile from 14. August 2016, 7:51

Simple Minds / New Gold Dream CD4

Used drive : PLEXTOR BD-R PX-B950SA Adapter: 1 ID: 1

Read mode : Secure
Utilize accurate stream : Yes
Defeat audio cache : Yes
Make use of C2 pointers : No

Read offset correction : 6
Overread into Lead-In and Lead-Out : No
Fill up missing offset samples with silence : Yes
Delete leading and trailing silent blocks : No
Null samples used in CRC calculations : Yes
Used interface : Native Win32 interface for Win NT & 2000

Used output format : Internal WAV Routines
Sample format : 44.100 Hz; 16 Bit; Stereo


TOC of the extracted CD

Track | Start | Length | Start sector | End sector
––––––––––––––––––––––––––––-
1 | 0:00.00 | 4:23.73 | 0 | 19797
2 | 4:23.73 | 4:33.45 | 19798 | 40317
3 | 8:57.43 | 5:20.28 | 40318 | 64345
4 | 14:17.71 | 4:40.66 | 64346 | 85411
5 | 18:58.62 | 5:48.49 | 85412 | 111560
6 | 24:47.36 | 6:43.21 | 111561 | 141806
7 | 31:30.57 | 6:05.06 | 141807 | 169187
8 | 37:35.63 | 5:08.63 | 169188 | 192350
9 | 42:44.51 | 4:21.22 | 192351 | 211947
10 | 47:05.73 | 5:48.47 | 211948 | 238094


Range status and errors

Selected range

Filename C:\Users\Meijin\Desktop\ALLexxess\Simple Minds\1982 New Gold Dream (5CD + DVD Box Set Universal Music 2016)\CD4\Simple Minds - New Gold Dream CD4.wav

Peak level 98.4 %
Extraction speed 7.2 X
Range quality 99.9 %
Test CRC 62C03966
Copy CRC 62C03966
Copy OK

No errors occurred


AccurateRip summary

Track 1 accurately ripped (confidence 2) [DAFDB28F] (AR v2)
Track 2 accurately ripped (confidence 2) [E3C1FB6D] (AR v2)
Track 3 accurately ripped (confidence 2) [36D3678E] (AR v2)
Track 4 accurately ripped (confidence 2) [65187E26] (AR v2)
Track 5 accurately ripped (confidence 2) [E438CA53] (AR v2)
Track 6 accurately ripped (confidence 2) [99FD56D9] (AR v2)
Track 7 accurately ripped (confidence 2) [DC3DACAD] (AR v2)
Track 8 accurately ripped (confidence 2) [101EA140] (AR v2)
Track 9 accurately ripped (confidence 2) [4D838839] (AR v2)
Track 10 accurately ripped (confidence 2) [AAFA415E] (AR v2)

All tracks accurately ripped

End of status report

–– CUETools DB Plugin V2.1.6

[CTDB TOCID: JJTX1lDnaw2ndoWOo1_1W_DxBU0-] found
Submit result: JJTX1lDnaw2ndoWOo1_1W_DxBU0- has been confirmed
Track | CTDB Status
1 | (22/22) Accurately ripped
2 | (22/22) Accurately ripped
3 | (22/22) Accurately ripped
4 | (22/22) Accurately ripped
5 | (22/22) Accurately ripped
6 | (22/22) Accurately ripped
7 | (22/22) Accurately ripped
8 | (22/22) Accurately ripped
9 | (22/22) Accurately ripped
10 | (22/22) Accurately ripped


==== Log checksum 1416BF6D412D06AA10DC9B24B105EAC1493A9AAF44F363BD40786156094A196E ====

[CUETools log; Date: 08.01.2023 13:29:55; Version: 2.1.4]
[CTDB TOCID: JJTX1lDnaw2ndoWOo1_1W_DxBU0-] found.
Track | CTDB Status
1 | (99/99) Accurately ripped
2 | (99/99) Accurately ripped
3 | (99/99) Accurately ripped
4 | (99/99) Accurately ripped
5 | (99/99) Accurately ripped
6 | (99/99) Accurately ripped
7 | (99/99) Accurately ripped
8 | (98/99) Accurately ripped
9 | (98/99) Accurately ripped
10 | (99/99) Accurately ripped
[AccurateRip ID: 001373c8-009da056-9c0c660a] found.
Track [ CRC | V2 ] Status
01 [92d5ed35|dafdb28f] (00+43/43) Accurately ripped
02 [a4342c9e|e3c1fb6d] (00+44/44) Accurately ripped
03 [3710c0ba|36d3678e] (00+44/44) Accurately ripped
04 [bc0488c9|65187e26] (00+44/44) Accurately ripped
05 [af1e0482|e438ca53] (00+43/43) Accurately ripped
06 [76e467ff|99fd56d9] (00+43/43) Accurately ripped
07 [eabb2043|dc3dacad] (00+44/44) Accurately ripped
08 [277ab621|101ea140] (00+43/43) Accurately ripped
09 [5da2e9e8|4d838839] (00+44/44) Accurately ripped
10 [67cf4e8d|aafa415e] (00+44/44) Accurately ripped

Track Peak [ CRC32 ] [W/O NULL] [ LOG ]
– 98,4 [62C03966] [C2DF9676] CRC32
01 90,6 [1B97AF7F] [0BEC3163]
02 91,6 [356D33C7] [CCE1F21E]
03 95,3 [13A45D50] [A4F27D1F]
04 98,2 [3879CAB2] [EA9AAC8C]
05 98,4 [4140677D] [17C7526A]
06 93,6 [52200716] [00B31D89]
07 93,4 [CBC3222E] [248BAF08]
08 83,8 [557D99C2] [6615B31F]
09 85,3 [286BFE3C] [083DD873]
10 83,8 [745D9B0E] [14A4DDED]

Exact Audio Copy V1.1 from 23. June 2015

EAC extraction logfile from 14. August 2016, 7:18

Simple Minds / New Gold Dream CD5

Used drive : PLEXTOR BD-R PX-B950SA Adapter: 1 ID: 1

Read mode : Secure
Utilize accurate stream : Yes
Defeat audio cache : Yes
Make use of C2 pointers : No

Read offset correction : 6
Overread into Lead-In and Lead-Out : No
Fill up missing offset samples with silence : Yes
Delete leading and trailing silent blocks : No
Null samples used in CRC calculations : Yes
Used interface : Native Win32 interface for Win NT & 2000

Used output format : Internal WAV Routines
Sample format : 44.100 Hz; 16 Bit; Stereo


TOC of the extracted CD

Track | Start | Length | Start sector | End sector
––––––––––––––––––––––––––––-
1 | 0:00.00 | 5:46.67 | 0 | 26016
2 | 5:46.67 | 4:42.33 | 26017 | 47199
3 | 10:29.25 | 4:55.20 | 47200 | 69344
4 | 15:24.45 | 5:14.60 | 69345 | 92954
5 | 20:39.30 | 5:40.17 | 92955 | 118471
6 | 26:19.47 | 5:18.28 | 118472 | 142349
7 | 31:38.00 | 7:02.60 | 142350 | 174059
8 | 38:40.60 | 5:16.59 | 174060 | 197818
9 | 43:57.44 | 7:15.51 | 197819 | 230494
10 | 51:13.20 | 4:36.50 | 230495 | 251244


Range status and errors

Selected range

Filename C:\Users\Meijin\Desktop\ALLexxess\Simple Minds\1982 New Gold Dream (5CD + DVD Box Set Universal Music 2016)\CD5\Simple Minds - New Gold Dream CD5.wav

Peak level 99.3 %
Extraction speed 7.3 X
Range quality 100.0 %
Test CRC 2748EFCA
Copy CRC 2748EFCA
Copy OK

No errors occurred


AccurateRip summary

Track 1 accurately ripped (confidence 1) [148F545E] (AR v2)
Track 2 accurately ripped (confidence 1) [5EC41F67] (AR v2)
Track 3 accurately ripped (confidence 1) [339F4962] (AR v2)
Track 4 accurately ripped (confidence 1) [04C9320D] (AR v2)
Track 5 accurately ripped (confidence 1) [02622AFB] (AR v2)
Track 6 accurately ripped (confidence 1) [3B6D3A46] (AR v2)
Track 7 accurately ripped (confidence 1) [9EFAAAC5] (AR v2)
Track 8 accurately ripped (confidence 1) [DA88B01B] (AR v2)
Track 9 accurately ripped (confidence 1) [24FBB732] (AR v2)
Track 10 accurately ripped (confidence 1) [6351DC1A] (AR v2)

All tracks accurately ripped

End of status report

–– CUETools DB Plugin V2.1.6

[CTDB TOCID: X0xFO5i7TLG.DhUjxa0WfvRd_Wo-] found
Submit result: X0xFO5i7TLG.DhUjxa0WfvRd_Wo- has been confirmed
Track | CTDB Status
1 | (22/22) Accurately ripped
2 | (22/22) Accurately ripped
3 | (22/22) Accurately ripped
4 | (22/22) Accurately ripped
5 | (22/22) Accurately ripped
6 | (22/22) Accurately ripped
7 | (22/22) Accurately ripped
8 | (22/22) Accurately ripped
9 | (22/22) Accurately ripped
10 | (21/22) Accurately ripped


==== Log checksum BFB2F9904011B091C0F15830C4D937C65D1C890B59B9F9AA395A5328BDCF8B81 ====

[CUETools log; Date: 08.01.2023 13:30:27; Version: 2.1.4]
[CTDB TOCID: X0xFO5i7TLG.DhUjxa0WfvRd_Wo-] found.
Track | CTDB Status
1 | (99/99) Accurately ripped
2 | (99/99) Accurately ripped
3 | (99/99) Accurately ripped
4 | (99/99) Accurately ripped
5 | (99/99) Accurately ripped
6 | (99/99) Accurately ripped
7 | (98/99) Accurately ripped
8 | (99/99) Accurately ripped
9 | (99/99) Accurately ripped
10 | (98/99) Accurately ripped
[AccurateRip ID: 00149946-00a615d8-790d150a] found.
Track [ CRC | V2 ] Status
01 [b22b7f27|148f545e] (00+43/43) Accurately ripped
02 [4beac573|5ec41f67] (00+43/43) Accurately ripped
03 [884b5040|339f4962] (00+42/42) Accurately ripped
04 [c0f3ca71|04c9320d] (00+42/42) Accurately ripped
05 [ed86abe3|02622afb] (00+42/42) Accurately ripped
06 [9f4160f5|3b6d3a46] (00+43/43) Accurately ripped
07 [dbcfb10b|9efaaac5] (00+43/43) Accurately ripped
08 [925e208d|da88b01b] (00+42/42) Accurately ripped
09 [55eeee2d|24fbb732] (00+43/43) Accurately ripped
10 [25f9db16|6351dc1a] (00+43/43) Accurately ripped

Track Peak [ CRC32 ] [W/O NULL] [ LOG ]
– 99,3 [2748EFCA] [03A25971] CRC32
01 95,0 [6A842B76] [21E2325F]
02 99,0 [F3CDF257] [F8A00432]
03 98,4 [52F0D2D8] [D91A2BF2]
04 81,4 [46569659] [094F65DC]
05 90,9 [70D10682] [FEE66C9C]
06 86,8 [7B3E7DFD] [75AEA5A3]
07 96,1 [DFC0C5CD] [7A2F53C1]
08 85,0 [D7775755] [CB89090C]
09 99,3 [93A73BDE] [0A094366]
10 97,0 [1A9D94EA] [665EFEFF]

Thanks to ALLexxess