Tags
Language
Tags

Silly Sisters: Maddy Prior & June Tabor - No More To The Dance (1988) Reissue 2004

Posted By: Designol
Silly Sisters: Maddy Prior & June Tabor - No More To The Dance (1988) Reissue 2004

Silly Sisters: Maddy Prior & June Tabor - No More To The Dance (1988) Reissue 2004
EAC | FLAC | Image (Cue&Log) ~ 238 Mb | Mp3 (CBR320) ~ 140 Mb | Scans included
British Folk, Celtic, British Folk-Rock | Label: Topic | # TSCD450 | Time: 00:47:25

The first time June Tabor and Maddy Prior made a duo recording, it was released under their names and was entitled Silly Sisters. On this, their second album, Silly Sisters is the name of the group. Officially, it still consists of just Tabor and Prior, but most tracks also feature Breton guitarist Dan Ar Braz, Welsh harpist and keyboardist Huw Warren, and various other guests. As with their first album, the program is a winning mix of traditional and modern British folk music. An eerie and haunting arrangement of Andy Irvine's "Blood and Gold" is followed immediately by an almost African-sounding instrumental by Ar Braz; Tabor and Prior perform a brief a cappella "catch" by Henry Purcell entitled "Cakes and Ale"; and the traditional "Hedger and Ditcher" shows up in an arrangement that features both bagpipes and soprano saxophone. But interesting as things get instrumentally, Tabor and Prior's almost telepathic musicality and sharp, reedy voices are always at center stage, and the songs are always well served by the arrangements.

Review by Rick Anderson, Allmusic.com

Silly Sisters: Maddy Prior & June Tabor - No More To The Dance (1988) Reissue 2004



Tracklist:

01. Blood And Gold / Mohacs (03:51)
02. Cakes And Ale (01:57)
03. Fine Horseman (04:52)
04. How Shall I Your True Love Know? (03:20)
05. Hedger And Ditcher (02:44)
06. Rosie Anderson (08:21)
07. Agincourt Carol / La Route Au Beziers (04:07)
08. Somewhere Along The Road (03:33)
09. The Barring Of The Door (03:31)
10. What Will We Do? (02:02)
11. Almost Every Circumstance (02:50)
12. The Old Miner (06:12)


Exact Audio Copy V1.0 beta 3 from 29. August 2011

EAC extraction logfile from 19. October 2013, 18:33

Silly Sisters / No More To The Dance

Used drive : PLEXTOR DVDR PX-612U Adapter: 2 ID: 0

Read mode : Secure
Utilize accurate stream : Yes
Defeat audio cache : Yes
Make use of C2 pointers : No

Read offset correction : 6
Overread into Lead-In and Lead-Out : No
Fill up missing offset samples with silence : Yes
Delete leading and trailing silent blocks : No
Null samples used in CRC calculations : Yes
Used interface : Native Win32 interface for Win NT & 2000

Used output format : User Defined Encoder
Selected bitrate : 128 kBit/s
Quality : High
Add ID3 tag : No
Command line compressor : C:\Program Files (x86)\Exact Audio Copy\Flac\flac.exe
Additional command line options : -V -8 -T "Date=%year%" -T "Genre=%genre%" %source%


TOC of the extracted CD

Track | Start | Length | Start sector | End sector
––––––––––––––––––––––––––––-
1 | 0:00.23 | 3:51.37 | 23 | 17384
2 | 3:51.60 | 1:57.43 | 17385 | 26202
3 | 5:49.28 | 4:52.27 | 26203 | 48129
4 | 10:41.55 | 3:20.53 | 48130 | 63182
5 | 14:02.33 | 2:44.20 | 63183 | 75502
6 | 16:46.53 | 8:21.70 | 75503 | 113147
7 | 25:08.48 | 4:07.02 | 113148 | 131674
8 | 29:15.50 | 3:33.68 | 131675 | 147717
9 | 32:49.43 | 3:31.00 | 147718 | 163542
10 | 36:20.43 | 2:02.07 | 163543 | 172699
11 | 38:22.50 | 2:50.05 | 172700 | 185454
12 | 41:12.55 | 6:12.13 | 185455 | 213367


Range status and errors

Selected range

Filename D:\123\Silly Sisters - No More To The Dance.wav

Peak level 97.3 %
Extraction speed 1.8 X
Range quality 99.9 %
Test CRC A85458B6
Copy CRC A85458B6
Copy OK

No errors occurred


AccurateRip summary

Track 1 accurately ripped (confidence 2) [4EEBDF5C] (AR v2)
Track 2 accurately ripped (confidence 2) [90438427] (AR v2)
Track 3 accurately ripped (confidence 2) [C9F70A95] (AR v2)
Track 4 accurately ripped (confidence 2) [B5991E5A] (AR v2)
Track 5 accurately ripped (confidence 2) [8EE7D9DD] (AR v2)
Track 6 accurately ripped (confidence 2) [327EC160] (AR v2)
Track 7 accurately ripped (confidence 2) [1BA88B00] (AR v2)
Track 8 accurately ripped (confidence 2) [4EE4F10D] (AR v2)
Track 9 accurately ripped (confidence 2) [2437DB48] (AR v2)
Track 10 accurately ripped (confidence 2) [BF14D89B] (AR v2)
Track 11 accurately ripped (confidence 2) [FFF9A33B] (AR v2)
Track 12 accurately ripped (confidence 2) [B55B21A5] (AR v2)

All tracks accurately ripped

End of status report

==== Log checksum 1C88AE734FFE35AA5ED9C71FD079240CDDFB3884187FAA49B32B3EF05DF59EAC ====

foobar2000 1.2 / Dynamic Range Meter 1.1.1
log date: 2016-09-09 15:00:30

––––––––––––––––––––––––––––––––––––––––
Analyzed: Silly Sisters / No More To The Dance
––––––––––––––––––––––––––––––––––––––––

DR Peak RMS Duration Track
––––––––––––––––––––––––––––––––––––––––
DR13 -0.23 dB -17.28 dB 3:51 01-Blood And Gold / Mohacs
DR14 -0.79 dB -17.54 dB 1:58 02-Cakes And Ale
DR14 -1.70 dB -19.88 dB 4:52 03-Fine Horseman
DR13 -2.05 dB -20.95 dB 3:21 04-How Shall I Your True Love Know?
DR13 -2.30 dB -19.50 dB 2:44 05-Hedger And Ditcher
DR15 -2.10 dB -21.89 dB 8:22 06-Rosie Anderson
DR14 -1.25 dB -19.82 dB 4:07 07-Agincourt Carol / La Route Au Beziers
DR14 -1.24 dB -22.26 dB 3:34 08-Somewhere Along The Road
DR14 -0.99 dB -19.42 dB 3:31 09-The Barring Of The Door
DR14 -1.91 dB -19.51 dB 2:02 10-What Will We Do?
DR17 -0.59 dB -20.56 dB 2:50 11-Almost Every Circumstance
DR14 -2.81 dB -21.42 dB 6:12 12-The Old Miner
––––––––––––––––––––––––––––––––––––––––

Number of tracks: 12
Official DR value: DR14

Samplerate: 44100 Hz
Channels: 2
Bits per sample: 16
Bitrate: 611 kbps
Codec: FLAC
================================================================================

Silly Sisters: Maddy Prior & June Tabor - No More To The Dance (1988) Reissue 2004

Silly Sisters: Maddy Prior & June Tabor - No More To The Dance (1988) Reissue 2004

All thanks to original releaser - gorrom

More interesting music in My Blog