Tags
Language
Tags

Shakin' Stevens - The Epic Masters (2009) {10CD Box Set}

Posted By: popsakov
Shakin' Stevens - The Epic Masters (2009) {10CD Box Set}

Shakin' Stevens - The Epic Masters (2009)
EAC Rip | FLAC (Img) + Cue + Log ~ 3,60 Gb | MP3 CBR320 ~ 1,22 Gb
Full Scans | 08:14:15 | RAR 5% Recovery
Rock & Roll, Pop, Rock, Rockabilly | Sony Music #88697437152

2009 ten CD collection from the '80s Rockabilly/Pop superstar containing digitally remastered and expanded editions of all nine of his original Epic Records albums plus a bonus disc containing twelve inch single remixes of eight tracks. Each individual album is packaged in a mini LP sleeve and all 10 titles come housed in an attractive flip-top box. The studio albums included on this set all contain bonus tracks including non album singles. Contains the albums Take One!, This Ole House, Shaky, Give Me Your Heart Tonight, The Bop Won't Stop, Lipstick Powder & Paint, Let's Boogie, A Whole Lotta Shaky and There Are Two Kinds of Music…Rock'n'Roll.

Although one of the most popular acts of the 1980s, Shakin' Stevens' major period of success came just before the emergence of the compact disc as a major format. Three of Stevens' albums (This Ole House, Shaky and Give Me Your Heart Tonight) had made the top 3 of the UK charts during 1981 and 1982 and, as a result, his 1983 release The Bop Won't Stop was one of the earliest of Epic's albums to be transferred to the CD format. However, despite producing three Top 5 hit singles, the album itself stalled at number 21 in the charts. In response to this relative failure, Epic ignored Shaky's next two album releases (one of which was his Greatest Hits album).

By the time of Stevens' next release - 1987's Let's Boogie - compact disc had become the dominant music format and, indeed, all of Stevens' subsequent studio albums were released on CD. However, the rise of the CD happened to coincide with a decline in the Welsh rocker's popularity and, apart from a few hits compilations and a very limited release of This Ole House in the early 90s, many of Shaky's most popular recordings were to be denied a digital release for many years.

In 2003, Epic's parent company Sony BMG released a compromise three CD box set entitled Hits And More which contained most of the hits plus various selected album tracks. However, a resurgence in Stevens' popularity which began with him winning the 2005 ITV show Hit Me Baby One More Time resulted in the hits album The Collection reaching number 4 in the UK album charts. With Shaky's appearance at the 2008 Glastonbury Festival helping to confirm his popularity among those old enough to remember him the first time around, Sony finally relented and authorised, for the first time, the release of all of Shakin' Stevens' original albums on compact disc.

Marketed as a 30th anniversary celebration of Shaky's first hit single "Hot Dog", The Epic Masters contains 147 digitally remastered tracks (apparently overseen by Stevens himself) spread across ten compact discs. The set includes all of the albums Stevens recorded for Epic with the exception of the Merry Christmas Everyone album (which had already been available on a remastered CD since 2005) and represents the first appearance on compact disc in their entirety of the albums Take One!, Shaky, Give Me Your Heart Tonight and Lipstick, Powder And Paint. Each album is boosted by the addition of non-album b-sides and are housed in slip cases which reproduce the original vinyl releases. The package is completed by a bonus CD of selected 12" mixes plus a fully annotated booklet.

Apart from the Merry Christmas Everyone album, The Epic Masters contains virtually everything Shakin' Stevens released on Epic. Among the few omissions are the original single versions of "Hot Dog", "Blue Christmas" and the number one hit "Merry Christmas Everyone" (all previously available on several compilations). Also missing are most of the live recordings available on the B-sides of various singles. Of the extended mixes not included on The 12" CD, the most glaring omission would be the "Megamixofhits" compilation included on the "Teardrops" 12" which formed the basis of the "Hits Keep Coming" live medley from Let's Boogie. Finally, the digital remasters retained the noticeably different mixes of the number one hits "This Ole House", "Green Door" and "Oh Julie" which were included on the 2005 compilation The Collection.

Biography

One of the linchpins of the British rock & roll revival of the 1970s and '80s, Shakin' Stevens ranks among the most persistent performers ever to emerge, ultimately, as a superstar. Stevens has no less than 30 U.K. Top 40 hits to his name, almost all of them racked up during one single five-year span of chart invincibility. Yet his recording career predated his first hit by over a decade, struggling through a period that might have forced any less committed artist to simply abandon all hope.

"Shaky" was born Michael Barratt on March 4, 1948, in Ely, Wales. The youngest of 11 children and a keen amateur singer, he was already married and working as a milkman when he formed Shakin' Stevens & the Sunsets, his first professional band, in 1968. The bandmembers themselves had been playing together in one form or another since the late '50s (when they formed as the Backbeats), and knew Stevens as one of their most devoted fans; he would often join them on-stage to perform a guest vocal or two. With a ferocious live following around South Wales, the band signed to Parlophone in 1970 and recorded its debut album, the optimistically titled A Legend, with producer Dave Edmunds. Reports that they also opened for the Rolling Stones in December 1969 appear to be exaggerated, but the band gigged regularly around Germany and Holland, and scored several European hit singles.

Still, they seemed doomed to haunt the rock & roll revival circuit, all the more so after Stevens was cast in impresario Jack Good's musical Elvis in 1977 (he appeared as the Army-era King), and the band was forced into hiatus for the duration of the play's six-month run. Worse was to come (for the group), however, as Elvis went on to become one of the year's biggest musicals. Stevens' run was extended to two years, and exploding media attention made it clear that Shaky would not be returning to South Wales anytime soon. Stevens quit the Sunsets in late 1979 and, as a solo performer, was signed briefly to Track Records. However, three singles and the Play Loud LP were lost when the label went bankrupt and, while Stevens quickly bounced back, signing to CBS in 1980, his first attempt at recording an album for the label ended with rejection.

A role in Jack Good's reborn Oh Boy TV series kept Stevens at the forefront, however, and the CBS subsidiary Epic picked him up. Three singles flopped, but in February 1980 Stevens finally scored his first U.K. hit, when a version of Buck Owens' "Hot Dog" reached number 24. "Marie Marie," a Top 20 hit, arrived that summer, and the following February Stevens enjoyed his first U.K. chart-topper, "This Ole House." The follow-up, "You Drive Me Crazy," reached number two, before "Green Door" returned him to the top. Thereafter, the hits flew thick and fast; further chart-toppers "Oh Julie" (1982) and "Merry Christmas Everyone" (1985) sandwiched such smashes as "Shirley," "Give Me Your Heart Tonight," "I'll Be Satisfied," "Blue Christmas," "Cry Just a Little Bit," and many more.

A 1985 reunion with the Sunsets' first producer, Dave Edmunds, resulted in the Lipstick Powder and Paint LP (Edmunds also handled the Christmas number one), while Stevens' other albums included the Top Three successes This Ole House and Shaky (both 1981) and Give Me Your Heart Tonight (1982). There was even chart action for his early-'70s work with the Sunsets, gathered up on the 1981 compilation Shakin' Stevens. Litigation relating to this material would pursue Stevens through the remainder of the 1980s and into the 1990s, as his former bandmates battled over unpaid royalties. The hits grew smaller as the 1980s progressed; his final U.K. Top Five entry was a revival of "What Do You Want to Make Those Eyes at Me For" in 1987; other singles struggled to even approach the peaks Shaky had once dominated, and in 1993 Stevens retired from recording and performing. His final hit, the previous year's "Radio," was recorded with Queen's Roger Taylor and reached number 37.

Stevens remained in retirement for six years. He was back on the live circuit in 1999, and in 2005 he returned to the U.K. chart with the hits compilation The Collection. That same year he appeared on, and won, the U.K. pop oldies reality TV show Hit Me Baby One More Time – his victorious song, a cover of P!nk's "Trouble," brought him a Top 20 hit that summer, and paved the way for his first new album in 15 years, 2007's Now Listen. The following year saw Stevens celebrate his 60th birthday with a string of major concerts around the U.K. and Europe, including an appearance at the Glastonbury Festival. Another celebratory tour followed in 2011 when Stevens launched his 30th anniversary celebration and released a new album, Rockin' the Blues.

~ Dave Thompson, All Music

Shakin' Stevens - The Epic Masters (2009) {10CD Box Set}

***************

Shakin' Stevens - The Epic Masters (2009) {10CD Box Set}

CD1: Shakin' Stevens - Take One (1980/2009)

Erroneously dated in the box set as being released in October 1979, Take One! wasn't in fact released until February 1980, after the "Hot Dog" single had become Shaky's first UK hit single. Produced by Mike Hurst, the album contained a host of experienced session men, including lead guitarist Albert Lee, pianist Geraint Watkins, steel guitarist B.J. Cole and bassist and arranger Stuart Colman. In April 1982 the album was re-released under the new title of Hot Dog with "That's All Right" and "Ah, Poor Little Baby" being replaced by "You And I Were Meant To Be" and "Make It Right Tonight" respectively. The Epic Masters CD also contains Stevens' first three non-album singles recorded for Epic in 1978 and 1979. This is the first release on CD of the Take One! album.
Track List CD1:

01. Lovestruck [03:12]
02. Hot Dog [02:50]
03. Is A Bluebird Blue? [03:21]
04. That's All Right [02:13]
05. Without A Love [03:41]
06. Shame, Shame, Shame [02:13]
07. Shotgun Boogie [02:58]
08. I Got Burned [02:19]
09. I Guess I Was A Fool [02:23]
10. Ah, Poor Little Baby [02:48]
11. Little Pigeon [02:49]
12. Do What You Did [02:10]
13. Apron Strings (B-Side Of 'Hot Dog' - Bonus Track) [03:10]
14. Treat Her Right (Single - Bonus Track) [03:35]
15. I Don't Want No Other Baby (B-Side Of 'Treat Her Right & Spooky' - Bonus Track) [03:16]
16. Endless Sleep (Single - Bonus Track) [03:33]
17. Fire (B-Side of 'Endless Sleep' - Bonus Track) [03:32]
18. Spooky (Single - Bonus Track) [03:35]

Exact Audio Copy V1.0 beta 4 from 7. December 2014

Отчёт EAC об извлечении, выполненном 4. июля 2015, 15:09

Shakin' Stevens / Take One

Дисковод: ASUS DRW-24F1ST a Adapter: 1 ID: 0

Режим чтения : Достоверность
Использование точного потока : Да
Отключение кэша аудио : Да
Использование указателей C2 : Нет

Коррекция смещения при чтении : 6
Способность читать области Lead-in и Lead-out : Нет
Заполнение пропущенных сэмплов тишиной : Да
Удаление блоков с тишиной в начале и конце : Нет
При вычислениях CRC использовались нулевые сэмплы : Да
Интерфейс : Встроенный Win32-интерфейс для Win NT/2000

Выходной формат : Пользовательский кодировщик
Выбранный битрейт : 128 kBit/s
Качество : Высокий
Добавление ID3-тега : Нет
Утилита сжатия : C:\Program Files\Exact Audio Copy\Flac\flac.exe
Дополнительные параметры : -V -8 -T "Date=%year%" -T "Genre=%genre%" %source%


TOC извлечённого CD

Трек | Старт | Длительность | Начальный сектор | Конечный сектор
––––––––––––––––––––––––––––––––––-
1 | 0:00.00 | 3:11.20 | 0 | 14344
2 | 3:11.20 | 2:49.03 | 14345 | 27022
3 | 6:00.23 | 3:20.42 | 27023 | 42064
4 | 9:20.65 | 2:12.47 | 42065 | 52011
5 | 11:33.37 | 3:40.23 | 52012 | 68534
6 | 15:13.60 | 2:12.53 | 68535 | 78487
7 | 17:26.38 | 2:57.13 | 78488 | 91775
8 | 20:23.51 | 2:18.56 | 91776 | 102181
9 | 22:42.32 | 2:22.01 | 102182 | 112832
10 | 25:04.33 | 2:47.27 | 112833 | 125384
11 | 27:51.60 | 2:48.17 | 125385 | 138001
12 | 30:40.02 | 2:09.50 | 138002 | 147726
13 | 32:49.52 | 3:09.58 | 147727 | 161959
14 | 35:59.35 | 3:34.05 | 161960 | 178014
15 | 39:33.40 | 3:15.67 | 178015 | 192706
16 | 42:49.32 | 3:32.22 | 192707 | 208628
17 | 46:21.54 | 3:31.41 | 208629 | 224494
18 | 49:53.20 | 3:34.18 | 224495 | 240562


Характеристики диапазона извлечения и сообщения об ошибках

Выбранный диапазон

Имя файла C:\Users\Erik\Desktop\Shakin' Stevens - Take One.wav

Пиковый уровень 100.0 %
Скорость извлечения 7.0 X
Качество диапазона 100.0 %
CRC теста FA48438E
CRC копии FA48438E
Копирование… OK

Ошибок не произошло


AccurateRip: сводка

Трек 1 : извлечено точно (доверие 10) [2D0A155D] (AR v2)
Трек 2 : извлечено точно (доверие 10) [98BC05D5] (AR v2)
Трек 3 : извлечено точно (доверие 10) [D6108F6D] (AR v2)
Трек 4 : извлечено точно (доверие 10) [BE8099FD] (AR v2)
Трек 5 : извлечено точно (доверие 10) [A2A9920A] (AR v2)
Трек 6 : извлечено точно (доверие 10) [58E2815C] (AR v2)
Трек 7 : извлечено точно (доверие 10) [9E944F59] (AR v2)
Трек 8 : извлечено точно (доверие 10) [0C2757F0] (AR v2)
Трек 9 : извлечено точно (доверие 10) [29FE199D] (AR v2)
Трек 10 : извлечено точно (доверие 10) [089167F2] (AR v2)
Трек 11 : извлечено точно (доверие 10) [8BE3664D] (AR v2)
Трек 12 : извлечено точно (доверие 10) [1A782DC6] (AR v2)
Трек 13 : извлечено точно (доверие 10) [AE5498B8] (AR v2)
Трек 14 : извлечено точно (доверие 10) [A1DF1F9D] (AR v2)
Трек 15 : извлечено точно (доверие 10) [0C93D754] (AR v2)
Трек 16 : извлечено точно (доверие 10) [F4B40B71] (AR v2)
Трек 17 : извлечено точно (доверие 10) [B6912A66] (AR v2)
Трек 18 : извлечено точно (доверие 10) [5828E569] (AR v2)

Все треки извлечены точно

Конец отчёта

–– CUETools DB Plugin V2.1.4

[CTDB TOCID: 7BT0q2qUsA.efbjGUnbfyNA2MRg-] found
Submit result: 7BT0q2qUsA.efbjGUnbfyNA2MRg- has been confirmed
Track | CTDB Status
1 | (4/4) Accurately ripped
2 | (4/4) Accurately ripped
3 | (4/4) Accurately ripped
4 | (4/4) Accurately ripped
5 | (4/4) Accurately ripped
6 | (4/4) Accurately ripped
7 | (4/4) Accurately ripped
8 | (4/4) Accurately ripped
9 | (4/4) Accurately ripped
10 | (4/4) Accurately ripped
11 | (4/4) Accurately ripped
12 | (4/4) Accurately ripped
13 | (4/4) Accurately ripped
14 | (4/4) Accurately ripped
15 | (4/4) Accurately ripped
16 | (4/4) Accurately ripped
17 | (4/4) Accurately ripped
18 | (4/4) Accurately ripped

foobar2000 1.2.6 / Dynamic Range Meter 1.1.1
log date: 2015-07-05 21:57:04

––––––––––––––––––––––––––––––––––––––––
Analyzed: Shakin' Stevens / Take One
––––––––––––––––––––––––––––––––––––––––

DR Peak RMS Duration Track
––––––––––––––––––––––––––––––––––––––––
DR7 -0.06 dB -8.07 dB 3:11 01-Lovestruck
DR8 -0.18 dB -9.89 dB 2:49 02-Hot Dog
DR7 -0.18 dB -9.53 dB 3:21 03-Is A Bluebird Blue?
DR8 0.00 dB -9.53 dB 2:13 04-That's All Right
DR6 -0.18 dB -8.73 dB 3:40 05-Without A Love
DR7 -0.18 dB -8.29 dB 2:13 06-Shame, Shame, Shame
DR7 -0.18 dB -8.69 dB 2:57 07-Shotgun Boogie
DR8 -0.18 dB -9.14 dB 2:19 08-I Got Burned
DR8 -0.18 dB -10.52 dB 2:22 09-I Guess I Was A Fool
DR8 -0.18 dB -9.90 dB 2:47 10-Ah, Poor Little Baby
DR7 -0.18 dB -8.80 dB 2:48 11-Little Pigeon
DR6 -1.18 dB -8.39 dB 2:10 12-Do What You Did
DR7 -0.18 dB -8.96 dB 3:10 13-Apron Strings (B-Side Of 'Hot Dog' - Bonus Track)
DR7 -1.18 dB -11.02 dB 3:34 14-Treat Her Right (Single - Bonus Track)
DR8 -0.05 dB -9.69 dB 3:16 15-I Don't Want No Other Baby (B-Side Of 'Treat Her Right & Spooky' - Bonus Track)
DR8 -0.05 dB -9.78 dB 3:32 16-Endless Sleep (Single - Bonus Track)
DR7 -0.18 dB -9.74 dB 3:32 17-Fire (B-Side of 'Endless Sleep' - Bonus Track)
DR7 -0.05 dB -9.55 dB 3:34 18-Spooky (Single - Bonus Track)
––––––––––––––––––––––––––––––––––––––––

Number of tracks: 18
Official DR value: DR7

Samplerate: 44100 Hz
Channels: 2
Bits per sample: 16
Bitrate: 966 kbps
Codec: FLAC
================================================================================

[CUETools log; Date: 05.07.2015 21:57:04; Version: 2.1.5]
[CTDB TOCID: 7BT0q2qUsA.efbjGUnbfyNA2MRg-] found.
Track | CTDB Status
1 | (5/5) Accurately ripped
2 | (5/5) Accurately ripped
3 | (5/5) Accurately ripped
4 | (5/5) Accurately ripped
5 | (5/5) Accurately ripped
6 | (5/5) Accurately ripped
7 | (5/5) Accurately ripped
8 | (5/5) Accurately ripped
9 | (5/5) Accurately ripped
10 | (5/5) Accurately ripped
11 | (5/5) Accurately ripped
12 | (5/5) Accurately ripped
13 | (5/5) Accurately ripped
14 | (5/5) Accurately ripped
15 | (5/5) Accurately ripped
16 | (5/5) Accurately ripped
17 | (5/5) Accurately ripped
18 | (5/5) Accurately ripped
[AccurateRip ID: 0021ac16-01c0d9bd-050c8712] found.
Track [ CRC | V2 ] Status
01 [996f3415|2d0a155d] (03+10/13) Accurately ripped
02 [64d6093b|98bc05d5] (03+10/13) Accurately ripped
03 [677a690d|d6108f6d] (03+10/13) Accurately ripped
04 [ccd08f52|be8099fd] (03+10/13) Accurately ripped
05 [7eed2203|a2a9920a] (03+10/13) Accurately ripped
06 [bb69730b|58e2815c] (03+10/13) Accurately ripped
07 [264f3130|9e944f59] (03+10/13) Accurately ripped
08 [9ec16ae7|0c2757f0] (03+10/13) Accurately ripped
09 [2056054b|29fe199d] (03+10/13) Accurately ripped
10 [2d05937a|089167f2] (03+10/13) Accurately ripped
11 [5c18965c|8be3664d] (03+10/13) Accurately ripped
12 [5fac78c5|1a782dc6] (03+10/13) Accurately ripped
13 [f32dda58|ae5498b8] (03+10/13) Accurately ripped
14 [9a56dab1|a1df1f9d] (03+10/13) Accurately ripped
15 [813fe1e9|0c93d754] (03+10/13) Accurately ripped
16 [c4f98fca|f4b40b71] (03+10/13) Accurately ripped
17 [c5272ade|b6912a66] (03+10/13) Accurately ripped
18 [2f6dbe91|5828e569] (03+10/13) Accurately ripped

Track Peak [ CRC32 ] [W/O NULL] [ LOG ]
– 100,0 [FA48438E] [5536DBF4] CRC32
01 99,3 [CF1C4E0A] [09F3F3BD]
02 97,9 [C56FFBC4] [47D6F227]
03 97,9 [DA560AB9] [A2859790]
04 100,0 [EE431181] [FC735C59]
05 97,9 [5FCB68AC] [A900F50F]
06 97,9 [36992A28] [48C1CA4F]
07 97,9 [803AA2A8] [05514EB3]
08 97,9 [C71CB83F] [51556F12]
09 97,9 [6CCA784B] [EFA43A02]
10 97,9 [FE7500F7] [87943FEB]
11 97,9 [2994FADC] [918FF563]
12 87,3 [4BF4F4D8] [A6254F05]
13 97,9 [6CDCB7F5] [A90CB6AB]
14 87,3 [70A0DCE3] [B760B36E]
15 99,4 [245F8286] [01F0700A]
16 99,4 [ED775A38] [1E52D7D4]
17 97,9 [936E3C41] [2BE25B16]
18 99,4 [483CCD4E] [CA7BF266]

***************

Shakin' Stevens - The Epic Masters (2009) {10CD Box Set}

CD2: Shakin' Stevens - This Ole House (1981/2009)

The first of the hugely successful trio of Stuart Colman produced albums, This Ole House was originally released under the title of Marie Marie in October 1980. However, the album initially failed to make the charts but was re-issued and re-titled in March 1981 after the success of the "This Ole House" single and Stevens was rewarded with a number 2 position on the album charts. "This Ole House" replaced the song "Two Hearts Two Kisses" (listed on the "Marie Marie" album by simply "Two Hearts" at the time) from the original album which is now reinstated as a bonus track on The Epic Masters CD. The album retained most of the same musicians from the Take One! album, with the addition of ace Welsh guitarist (and ex-member of Shaky's previous backing group the Sunsets) Mickey Gee.
Track List CD2:

01. Hey Mae [02:36]
02. Baby If We Touch [03:06]
03. Marie Marie [02:48]
04. Lonely Blue Boy [03:17]
05. Make It Right Tonight [03:00]
06. Move [03:14]
07. Slippin' And Slidin' [02:37]
08. Shooting Gallery [03:15]
09. Revenue Man [02:47]
10. Make Me Know You're Mine [04:34]
11. This Ole House [03:08]
12. Nobody [03:21]
13. Two Hearts Two Kisses (Bonus Track) [03:18]

Exact Audio Copy V1.0 beta 4 from 7. December 2014

Отчёт EAC об извлечении, выполненном 4. июля 2015, 15:55

Shakin' Stevens / This Ole House

Дисковод: ASUS DRW-24F1ST a Adapter: 1 ID: 0

Режим чтения : Достоверность
Использование точного потока : Да
Отключение кэша аудио : Да
Использование указателей C2 : Нет

Коррекция смещения при чтении : 6
Способность читать области Lead-in и Lead-out : Нет
Заполнение пропущенных сэмплов тишиной : Да
Удаление блоков с тишиной в начале и конце : Нет
При вычислениях CRC использовались нулевые сэмплы : Да
Интерфейс : Встроенный Win32-интерфейс для Win NT/2000

Выходной формат : Пользовательский кодировщик
Выбранный битрейт : 128 kBit/s
Качество : Высокий
Добавление ID3-тега : Нет
Утилита сжатия : C:\Program Files\Exact Audio Copy\Flac\flac.exe
Дополнительные параметры : -V -8 -T "Date=%year%" -T "Genre=%genre%" %source%


TOC извлечённого CD

Трек | Старт | Длительность | Начальный сектор | Конечный сектор
––––––––––––––––––––––––––––––––––-
1 | 0:00.00 | 2:35.17 | 0 | 11641
2 | 2:35.17 | 3:05.12 | 11642 | 25528
3 | 5:40.29 | 2:47.43 | 25529 | 38096
4 | 8:27.72 | 3:16.02 | 38097 | 52798
5 | 11:43.74 | 2:59.73 | 52799 | 66296
6 | 14:43.72 | 3:13.52 | 66297 | 80823
7 | 17:57.49 | 2:36.55 | 80824 | 92578
8 | 20:34.29 | 3:14.67 | 92579 | 107195
9 | 23:49.21 | 2:46.60 | 107196 | 119705
10 | 26:36.06 | 4:33.63 | 119706 | 140243
11 | 31:09.69 | 3:07.48 | 140244 | 154316
12 | 34:17.42 | 3:20.18 | 154317 | 169334
13 | 37:37.60 | 3:17.04 | 169335 | 184113


Характеристики диапазона извлечения и сообщения об ошибках

Выбранный диапазон

Имя файла C:\Users\Erik\Desktop\Shakin' Stevens - This Ole House.wav

Пиковый уровень 100.0 %
Скорость извлечения 2.7 X
Качество диапазона 100.0 %
CRC теста B5D6C3C4
CRC копии B5D6C3C4
Копирование… OK

Ошибок не произошло


AccurateRip: сводка

Трек 1 : извлечено точно (доверие 11) [3B74191F] (AR v2)
Трек 2 : извлечено точно (доверие 11) [A8ECEB0C] (AR v2)
Трек 3 : извлечено точно (доверие 11) [B4F23EEF] (AR v2)
Трек 4 : извлечено точно (доверие 11) [AD05049B] (AR v2)
Трек 5 : извлечено точно (доверие 11) [BA959B51] (AR v2)
Трек 6 : извлечено точно (доверие 11) [ED697FA3] (AR v2)
Трек 7 : извлечено точно (доверие 11) [2C064E83] (AR v2)
Трек 8 : извлечено точно (доверие 11) [76C51C7E] (AR v2)
Трек 9 : извлечено точно (доверие 11) [53BE1BA4] (AR v2)
Трек 10 : извлечено точно (доверие 11) [D38C0648] (AR v2)
Трек 11 : извлечено точно (доверие 11) [13835100] (AR v2)
Трек 12 : извлечено точно (доверие 11) [9A73CF0B] (AR v2)
Трек 13 : извлечено точно (доверие 10) [F889C324] (AR v2)

Все треки извлечены точно

Конец отчёта

–– CUETools DB Plugin V2.1.4

[CTDB TOCID: YJpJa3u5ZZeqt7DcQ5h.Bh3jx7w-] found
Submit result: YJpJa3u5ZZeqt7DcQ5h.Bh3jx7w- has been confirmed
Track | CTDB Status
1 | (5/5) Accurately ripped
2 | (5/5) Accurately ripped
3 | (5/5) Accurately ripped
4 | (5/5) Accurately ripped
5 | (5/5) Accurately ripped
6 | (5/5) Accurately ripped
7 | (5/5) Accurately ripped
8 | (5/5) Accurately ripped
9 | (5/5) Accurately ripped
10 | (5/5) Accurately ripped
11 | (5/5) Accurately ripped
12 | (5/5) Accurately ripped
13 | (5/5) Accurately ripped

foobar2000 1.2.6 / Dynamic Range Meter 1.1.1
log date: 2015-07-05 22:11:28

––––––––––––––––––––––––––––––––––––––––
Analyzed: Shakin' Stevens / This Ole House
––––––––––––––––––––––––––––––––––––––––

DR Peak RMS Duration Track
––––––––––––––––––––––––––––––––––––––––
DR7 0.00 dB -8.35 dB 2:35 01-Hey Mae
DR7 0.00 dB -10.06 dB 3:05 02-Baby If We Touch
DR7 0.00 dB -8.27 dB 2:48 03-Marie Marie
DR8 0.00 dB -10.58 dB 3:16 04-Lonely Blue Boy
DR6 0.00 dB -8.01 dB 3:00 05-Make It Right Tonight
DR7 -0.05 dB -8.72 dB 3:14 06-Move
DR7 -0.05 dB -8.80 dB 2:37 07-Slippin' And Slidin'
DR7 -0.05 dB -9.89 dB 3:15 08-Shooting Gallery
DR7 -0.05 dB -8.75 dB 2:47 09-Revenue Man
DR7 -0.05 dB -9.29 dB 4:34 10-Make Me Know You're Mine
DR7 -0.05 dB -8.33 dB 3:08 11-This Ole House
DR6 -0.04 dB -8.07 dB 3:20 12-Nobody
DR7 -0.05 dB -8.51 dB 3:17 13-Two Hearts Two Kisses (Bonus Track)
––––––––––––––––––––––––––––––––––––––––

Number of tracks: 13
Official DR value: DR7

Samplerate: 44100 Hz
Channels: 2
Bits per sample: 16
Bitrate: 985 kbps
Codec: FLAC
================================================================================

[CUETools log; Date: 05.07.2015 22:11:29; Version: 2.1.5]
[CTDB TOCID: YJpJa3u5ZZeqt7DcQ5h.Bh3jx7w-] found.
Track | CTDB Status
1 | (6/6) Accurately ripped
2 | (6/6) Accurately ripped
3 | (6/6) Accurately ripped
4 | (6/6) Accurately ripped
5 | (6/6) Accurately ripped
6 | (6/6) Accurately ripped
7 | (6/6) Accurately ripped
8 | (6/6) Accurately ripped
9 | (6/6) Accurately ripped
10 | (6/6) Accurately ripped
11 | (6/6) Accurately ripped
12 | (6/6) Accurately ripped
13 | (6/6) Accurately ripped
[AccurateRip ID: 0012f637-00bf95b4-b709960d] found.
Track [ CRC | V2 ] Status
01 [71eeb506|3b74191f] (03+11/14) Accurately ripped
02 [1c075bf2|a8eceb0c] (03+11/14) Accurately ripped
03 [00c0be81|b4f23eef] (03+11/14) Accurately ripped
04 [6ecabce0|ad05049b] (03+11/14) Accurately ripped
05 [c71554c4|ba959b51] (03+11/14) Accurately ripped
06 [84c3d346|ed697fa3] (03+11/14) Accurately ripped
07 [e7d72e44|2c064e83] (03+11/14) Accurately ripped
08 [e39ae13c|76c51c7e] (03+11/14) Accurately ripped
09 [3f3a897d|53be1ba4] (03+11/14) Accurately ripped
10 [c41939c0|d38c0648] (03+11/14) Accurately ripped
11 [bb2f5933|13835100] (03+11/14) Accurately ripped
12 [d645ece1|9a73cf0b] (03+11/14) Accurately ripped
13 [c8315e91|f889c324] (03+10/13) Accurately ripped

Track Peak [ CRC32 ] [W/O NULL] [ LOG ]
– 100,0 [B5D6C3C4] [27B899A0] CRC32
01 100,0 [AAC633AE] [A26474C7]
02 100,0 [6D859022] [0C88CFA0]
03 100,0 [04F09B91] [4D6FFF67]
04 100,0 [7D7A45BB] [974AD0FD]
05 100,0 [39C0DBC4] [AE767708]
06 99,4 [054FF710] [4956593F]
07 99,4 [8651E3E8] [3893330A]
08 99,4 [138EEFB1] [ED240686]
09 99,4 [F12775DD] [103AB435]
10 99,4 [99ECDD1C] [8D153BD6]
11 99,4 [2E46D733] [D63E03E2]
12 99,4 [4477F62A] [B517C400]
13 99,4 [F1FB34D1] [E8AB6C42]

***************

Shakin' Stevens - The Epic Masters (2009) {10CD Box Set}

CD3: Shakin' Stevens - Shaky (1981/2009)

Originally released in September 1981 at the peak of Stevens' popularity, Shaky was his first (and to date only) number 1 album. Alongside three top 10 singles (the UK number 1 "Green Door", "You Drive Me Crazy" and "It's Raining") the album also contained five of Stevens' own compositions. When the album was released in Australia (with a slightly different track listing) it was re-titled Green Door and even received a CD release in the early 90s. However, The Epic Masters marks the album's first release on CD in its original form. The bonus track "You And I Were Meant To Be" was also included on the Hot Dog album released in 1982.
Track List CD3:

01. Mona Lisa [02:17]
02. You Drive Me Crazy [02:52]
03. I'm Knockin' [02:53]
04. It's Raining [03:20]
05. Don't She Look Good [02:13]
06. Green Door [03:14]
07. Don't Bug Me Baby [02:54]
08. Don't Tell Me Your Troubles [02:32]
09. I'm Gonna Sit Right Down And Write Myself A Letter [03:28]
10. This Time [02:54]
11. Baby You're A Child [02:44]
12. Don't Turn Your Back [03:03]
13. Let Me Show You How [02:54]
14. I'm Lookin' [02:48]
15. You And I Were Meant To Be (B-Side of 'It's Raing' - Bonus Track) [02:21]

Exact Audio Copy V1.0 beta 4 from 7. December 2014

Отчёт EAC об извлечении, выполненном 4. июля 2015, 16:21

Shakin' Stevens / Shaky

Дисковод: ASUS DRW-24F1ST a Adapter: 1 ID: 0

Режим чтения : Достоверность
Использование точного потока : Да
Отключение кэша аудио : Да
Использование указателей C2 : Нет

Коррекция смещения при чтении : 6
Способность читать области Lead-in и Lead-out : Нет
Заполнение пропущенных сэмплов тишиной : Да
Удаление блоков с тишиной в начале и конце : Нет
При вычислениях CRC использовались нулевые сэмплы : Да
Интерфейс : Встроенный Win32-интерфейс для Win NT/2000

Выходной формат : Пользовательский кодировщик
Выбранный битрейт : 128 kBit/s
Качество : Высокий
Добавление ID3-тега : Нет
Утилита сжатия : C:\Program Files\Exact Audio Copy\Flac\flac.exe
Дополнительные параметры : -V -8 -T "Date=%year%" -T "Genre=%genre%" %source%


TOC извлечённого CD

Трек | Старт | Длительность | Начальный сектор | Конечный сектор
––––––––––––––––––––––––––––––––––-
1 | 0:00.00 | 2:16.34 | 0 | 10233
2 | 2:16.34 | 2:51.54 | 10234 | 23112
3 | 5:08.13 | 2:52.39 | 23113 | 36051
4 | 8:00.52 | 3:19.01 | 36052 | 50977
5 | 11:19.53 | 2:12.26 | 50978 | 60903
6 | 13:32.04 | 3:13.55 | 60904 | 75433
7 | 16:45.59 | 2:53.68 | 75434 | 88476
8 | 19:39.52 | 2:31.08 | 88477 | 99809
9 | 22:10.60 | 3:27.49 | 99810 | 115383
10 | 25:38.34 | 2:53.49 | 115384 | 128407
11 | 28:32.08 | 2:43.01 | 128408 | 140633
12 | 31:15.09 | 3:02.74 | 140634 | 154357
13 | 34:18.08 | 2:53.51 | 154358 | 167383
14 | 37:11.59 | 2:47.74 | 167384 | 179982
15 | 39:59.58 | 2:20.17 | 179983 | 190499


Характеристики диапазона извлечения и сообщения об ошибках

Выбранный диапазон

Имя файла C:\Users\Erik\Desktop\Shakin' Stevens - Shaky.wav

Пиковый уровень 100.0 %
Скорость извлечения 6.6 X
Качество диапазона 100.0 %
CRC теста 048EC191
CRC копии 048EC191
Копирование… OK

Ошибок не произошло


AccurateRip: сводка

Трек 1 : извлечено точно (доверие 9) [E6858FDB] (AR v2)
Трек 2 : извлечено точно (доверие 10) [9F96BD62] (AR v2)
Трек 3 : извлечено точно (доверие 10) [B27BA071] (AR v2)
Трек 4 : извлечено точно (доверие 10) [479577D0] (AR v2)
Трек 5 : извлечено точно (доверие 10) [4857470A] (AR v2)
Трек 6 : извлечено точно (доверие 10) [59A4C9EA] (AR v2)
Трек 7 : извлечено точно (доверие 10) [3D784774] (AR v2)
Трек 8 : извлечено точно (доверие 10) [CADC7632] (AR v2)
Трек 9 : извлечено точно (доверие 10) [B761F82F] (AR v2)
Трек 10 : извлечено точно (доверие 10) [75C3228D] (AR v2)
Трек 11 : извлечено точно (доверие 10) [2575BF44] (AR v2)
Трек 12 : извлечено точно (доверие 10) [DF5B3C6C] (AR v2)
Трек 13 : извлечено точно (доверие 10) [3E55FBF1] (AR v2)
Трек 14 : извлечено точно (доверие 10) [925E2F6C] (AR v2)
Трек 15 : извлечено точно (доверие 9) [5FBD0C01] (AR v2)

Все треки извлечены точно

Конец отчёта

–– CUETools DB Plugin V2.1.4

[CTDB TOCID: FkhKocX40K.VhhSAqN4B5Dgin0c-] found
Submit result: FkhKocX40K.VhhSAqN4B5Dgin0c- has been confirmed
Track | CTDB Status
1 | (6/6) Accurately ripped
2 | (6/6) Accurately ripped
3 | (6/6) Accurately ripped
4 | (6/6) Accurately ripped
5 | (6/6) Accurately ripped
6 | (6/6) Accurately ripped
7 | (6/6) Accurately ripped
8 | (6/6) Accurately ripped
9 | (6/6) Accurately ripped
10 | (6/6) Accurately ripped
11 | (6/6) Accurately ripped
12 | (6/6) Accurately ripped
13 | (6/6) Accurately ripped
14 | (6/6) Accurately ripped
15 | (6/6) Accurately ripped


––––––––––––––––––––––––––––––

Exact Audio Copy V1.0 beta 4 from 7. December 2014

Отчёт EAC об извлечении, выполненном 4. июля 2015, 16:21

Shakin' Stevens / Shaky

Дисковод: ASUS DRW-24F1ST a Adapter: 1 ID: 0

Режим чтения : Достоверность
Использование точного потока : Да
Отключение кэша аудио : Да
Использование указателей C2 : Нет

Коррекция смещения при чтении : 6
Способность читать области Lead-in и Lead-out : Нет
Заполнение пропущенных сэмплов тишиной : Да
Удаление блоков с тишиной в начале и конце : Нет
При вычислениях CRC использовались нулевые сэмплы : Да
Интерфейс : Встроенный Win32-интерфейс для Win NT/2000

Выходной формат : Пользовательский кодировщик
Выбранный битрейт : 128 kBit/s
Качество : Высокий
Добавление ID3-тега : Нет
Утилита сжатия : C:\Program Files\Exact Audio Copy\Flac\flac.exe
Дополнительные параметры : -V -8 -T "Date=%year%" -T "Genre=%genre%" %source%


TOC извлечённого CD

Трек | Старт | Длительность | Начальный сектор | Конечный сектор
––––––––––––––––––––––––––––––––––-
1 | 0:00.00 | 2:16.34 | 0 | 10233
2 | 2:16.34 | 2:51.54 | 10234 | 23112
3 | 5:08.13 | 2:52.39 | 23113 | 36051
4 | 8:00.52 | 3:19.01 | 36052 | 50977
5 | 11:19.53 | 2:12.26 | 50978 | 60903
6 | 13:32.04 | 3:13.55 | 60904 | 75433
7 | 16:45.59 | 2:53.68 | 75434 | 88476
8 | 19:39.52 | 2:31.08 | 88477 | 99809
9 | 22:10.60 | 3:27.49 | 99810 | 115383
10 | 25:38.34 | 2:53.49 | 115384 | 128407
11 | 28:32.08 | 2:43.01 | 128408 | 140633
12 | 31:15.09 | 3:02.74 | 140634 | 154357
13 | 34:18.08 | 2:53.51 | 154358 | 167383
14 | 37:11.59 | 2:47.74 | 167384 | 179982
15 | 39:59.58 | 2:20.17 | 179983 | 190499


Характеристики диапазона извлечения и сообщения об ошибках

Выбранный диапазон

Имя файла C:\Users\Erik\Desktop\Shakin' Stevens - Shaky.wav

Пиковый уровень 100.0 %
Скорость извлечения 6.6 X
Качество диапазона 100.0 %
CRC теста 048EC191
CRC копии 048EC191
Копирование… OK

Ошибок не произошло


AccurateRip: сводка

Трек 1 : извлечено точно (доверие 9) [E6858FDB] (AR v2)
Трек 2 : извлечено точно (доверие 10) [9F96BD62] (AR v2)
Трек 3 : извлечено точно (доверие 10) [B27BA071] (AR v2)
Трек 4 : извлечено точно (доверие 10) [479577D0] (AR v2)
Трек 5 : извлечено точно (доверие 10) [4857470A] (AR v2)
Трек 6 : извлечено точно (доверие 10) [59A4C9EA] (AR v2)
Трек 7 : извлечено точно (доверие 10) [3D784774] (AR v2)
Трек 8 : извлечено точно (доверие 10) [CADC7632] (AR v2)
Трек 9 : извлечено точно (доверие 10) [B761F82F] (AR v2)
Трек 10 : извлечено точно (доверие 10) [75C3228D] (AR v2)
Трек 11 : извлечено точно (доверие 10) [2575BF44] (AR v2)
Трек 12 : извлечено точно (доверие 10) [DF5B3C6C] (AR v2)
Трек 13 : извлечено точно (доверие 10) [3E55FBF1] (AR v2)
Трек 14 : извлечено точно (доверие 10) [925E2F6C] (AR v2)
Трек 15 : извлечено точно (доверие 9) [5FBD0C01] (AR v2)

Все треки извлечены точно

Конец отчёта

–– CUETools DB Plugin V2.1.4

[CTDB TOCID: FkhKocX40K.VhhSAqN4B5Dgin0c-] found
Submit result: FkhKocX40K.VhhSAqN4B5Dgin0c- has been confirmed
Track | CTDB Status
1 | (6/6) Accurately ripped
2 | (6/6) Accurately ripped
3 | (6/6) Accurately ripped
4 | (6/6) Accurately ripped
5 | (6/6) Accurately ripped
6 | (6/6) Accurately ripped
7 | (6/6) Accurately ripped
8 | (6/6) Accurately ripped
9 | (6/6) Accurately ripped
10 | (6/6) Accurately ripped
11 | (6/6) Accurately ripped
12 | (6/6) Accurately ripped
13 | (6/6) Accurately ripped
14 | (6/6) Accurately ripped
15 | (6/6) Accurately ripped

foobar2000 1.2.6 / Dynamic Range Meter 1.1.1
log date: 2015-07-05 22:13:18

––––––––––––––––––––––––––––––––––––––––
Analyzed: Shakin' Stevens / Shaky
––––––––––––––––––––––––––––––––––––––––

DR Peak RMS Duration Track
––––––––––––––––––––––––––––––––––––––––
DR7 0.00 dB -7.85 dB 2:16 01-Mona Lisa
DR6 -0.05 dB -7.45 dB 2:52 02-You Drive Me Crazy
DR7 0.00 dB -8.25 dB 2:53 03-I'm Knockin'
DR8 -0.05 dB -9.00 dB 3:19 04-It's Raining
DR6 0.00 dB -7.51 dB 2:12 05-Don't She Look Good
DR8 -0.05 dB -10.50 dB 3:14 06-Green Door
DR6 0.00 dB -7.60 dB 2:54 07-Don't Bug Me Baby
DR7 0.00 dB -7.52 dB 2:31 08-Don't Tell Me Your Troubles
DR5 0.00 dB -7.28 dB 3:28 09-I'm Gonna Sit Right Down And Write Myself A Letter
DR8 0.00 dB -9.62 dB 2:54 10-This Time
DR8 0.00 dB -9.70 dB 2:43 11-Baby You're A Child
DR6 0.00 dB -8.17 dB 3:03 12-Don't Turn Your Back
DR8 0.00 dB -9.09 dB 2:54 13-Let Me Show You How
DR7 0.00 dB -8.69 dB 2:48 14-I'm Lookin'
DR6 -0.05 dB -7.36 dB 2:20 15-You And I Were Meant To Be (B-Side of 'It's Raing' - Bonus Track)
––––––––––––––––––––––––––––––––––––––––

Number of tracks: 15
Official DR value: DR7

Samplerate: 44100 Hz
Channels: 2
Bits per sample: 16
Bitrate: 975 kbps
Codec: FLAC
================================================================================

[CUETools log; Date: 05.07.2015 22:13:18; Version: 2.1.5]
[CTDB TOCID: FkhKocX40K.VhhSAqN4B5Dgin0c-] found.
Track | CTDB Status
1 | (7/7) Accurately ripped
2 | (7/7) Accurately ripped
3 | (7/7) Accurately ripped
4 | (7/7) Accurately ripped
5 | (7/7) Accurately ripped
6 | (7/7) Accurately ripped
7 | (7/7) Accurately ripped
8 | (7/7) Accurately ripped
9 | (7/7) Accurately ripped
10 | (7/7) Accurately ripped
11 | (7/7) Accurately ripped
12 | (7/7) Accurately ripped
13 | (7/7) Accurately ripped
14 | (7/7) Accurately ripped
15 | (7/7) Accurately ripped
[AccurateRip ID: 001737f5-01089719-9f09ec0f] found.
Track [ CRC | V2 ] Status
01 [b0bf80e6|e6858fdb] (03+09/12) Accurately ripped
02 [182a5ca0|9f96bd62] (04+10/14) Accurately ripped
03 [87c21d66|b27ba071] (03+10/13) Accurately ripped
04 [295b0002|479577d0] (04+10/14) Accurately ripped
05 [cb344fa4|4857470a] (03+10/13) Accurately ripped
06 [7dcfa9a0|59a4c9ea] (03+10/13) Accurately ripped
07 [841a4edd|3d784774] (03+10/13) Accurately ripped
08 [bb797859|cadc7632] (03+10/13) Accurately ripped
09 [37cd2cdf|b761f82f] (04+10/14) Accurately ripped
10 [f98feb66|75c3228d] (04+10/14) Accurately ripped
11 [0f4b0bc9|2575bf44] (03+10/13) Accurately ripped
12 [6c4d625b|df5b3c6c] (03+10/13) Accurately ripped
13 [ae3d7174|3e55fbf1] (03+10/13) Accurately ripped
14 [366d23c5|925e2f6c] (03+10/13) Accurately ripped
15 [bb565650|5fbd0c01] (03+09/12) Accurately ripped

Track Peak [ CRC32 ] [W/O NULL] [ LOG ]
– 100,0 [048EC191] [C3BCAEFA]
01 100,0 [2196CFAB] [BA50EFE8] [048EC191]
02 99,4 [76912C48] [B58F2142] [048EC191]
03 100,0 [A8394AA8] [3FB8FA64]
04 99,4 [7EAE3CA2] [BFDF998D]
05 100,0 [D03E0195] [550AB0F5]
06 99,4 [35630064] [19839B71]
07 100,0 [1B2FB393] [A9E88D43]
08 100,0 [E69D4F31] [5339E622]
09 100,0 [F3BB9922] [125A02D7]
10 100,0 [F9EA3657] [4A3E299C]
11 100,0 [F13CC8FE] [98C6752B]
12 100,0 [83EBF4A0] [F6F7AE4A]
13 100,0 [7C22CCEA] [488DAD1C]
14 100,0 [F4323033] [0FDEC674]
15 99,4 [108874EF] [DF0CE6B8]

***************

Shakin' Stevens - The Epic Masters (2009) {10CD Box Set}

CD4: Shakin' Stevens - Give Me Your Heart Tonight (1982/2009)

The last of the Stuart Colman produced albums, 1982's Give Me Your Heart Tonight was Shaky's third top 3 album in two years. As well as the self-composed number 1 single "Oh Julie", the album also contained another three top 20 hits. Midway through the sessions, Stevens created a new studio band with the addition of The Rumour Brass, a four piece horn section, and only guitarist Roger McKew remaining from the previous three albums. Like the Shaky album, Give Me Your Heart Tonight was issued on compact disc with an altered track listing in Australia in the early 90s. The Epic Masters however, gives the album its first CD release in its original form.
Track List CD4:

01. Josephine [03:06]
02. Give Me Your Heart Tonight [03:09]
03. Sapphire [02:44]
04. Oh Julie [02:36]
05. I'll Be Satisfied [03:13]
06. Vanessa [03:54]
07. Boppity Bop [03:20]
08. Don't Tell Me We're Through [04:44]
09. Shirley [02:52]
10. You Never Talked About Me [02:33]
11. Too Too Much [03:29]
12. (Yeah) You're Evil [02:15]
13. Que Sera, Sera [03:06]
14. I'm For You (B-side of Shirley) [02:46]
15. Thinkin' Of You (B-side of Give me…) [02:25]
16. Don't Be Late (Miss Kate) (B-side of I'll be…) [02:43]
17. Lawdy Miss Clawdy (Live) (from Special Edition EP) [03:08]

Exact Audio Copy V1.0 beta 4 from 7. December 2014

Отчёт EAC об извлечении, выполненном 4. июля 2015, 16:46

Shakin' Stevens / Give Me Your Heart Tonight

Дисковод: ASUS DRW-24F1ST a Adapter: 1 ID: 0

Режим чтения : Достоверность
Использование точного потока : Да
Отключение кэша аудио : Да
Использование указателей C2 : Нет

Коррекция смещения при чтении : 6
Способность читать области Lead-in и Lead-out : Нет
Заполнение пропущенных сэмплов тишиной : Да
Удаление блоков с тишиной в начале и конце : Нет
При вычислениях CRC использовались нулевые сэмплы : Да
Интерфейс : Встроенный Win32-интерфейс для Win NT/2000

Выходной формат : Пользовательский кодировщик
Выбранный битрейт : 128 kBit/s
Качество : Высокий
Добавление ID3-тега : Нет
Утилита сжатия : C:\Program Files\Exact Audio Copy\Flac\flac.exe
Дополнительные параметры : -V -8 -T "Date=%year%" -T "Genre=%genre%" %source%


TOC извлечённого CD

Трек | Старт | Длительность | Начальный сектор | Конечный сектор
––––––––––––––––––––––––––––––––––-
1 | 0:00.00 | 3:05.25 | 0 | 13899
2 | 3:05.25 | 3:08.25 | 13900 | 28024
3 | 6:13.50 | 2:43.49 | 28025 | 40298
4 | 8:57.24 | 2:35.20 | 40299 | 51943
5 | 11:32.44 | 3:12.67 | 51944 | 66410
6 | 14:45.36 | 3:53.59 | 66411 | 83944
7 | 18:39.20 | 3:19.36 | 83945 | 98905
8 | 21:58.56 | 4:43.20 | 98906 | 120150
9 | 26:42.01 | 2:51.64 | 120151 | 133039
10 | 29:33.65 | 2:32.63 | 133040 | 144502
11 | 32:06.53 | 3:28.39 | 144503 | 160141
12 | 35:35.17 | 2:14.44 | 160142 | 170235
13 | 37:49.61 | 3:05.61 | 170236 | 184171
14 | 40:55.47 | 2:45.35 | 184172 | 196581
15 | 43:41.07 | 2:24.39 | 196582 | 207420
16 | 46:05.46 | 2:43.00 | 207421 | 219645
17 | 48:48.46 | 3:07.09 | 219646 | 233679


Характеристики диапазона извлечения и сообщения об ошибках

Выбранный диапазон

Имя файла C:\Users\Erik\Desktop\Shakin' Stevens - Give Me Your Heart Tonight.wav

Пиковый уровень 97.9 %
Скорость извлечения 2.9 X
Качество диапазона 100.0 %
CRC копии DCB35497
Копирование… OK

Ошибок не произошло


AccurateRip: сводка

Трек 1 : извлечено точно (доверие 10) [6304D195] (AR v2)
Трек 2 : извлечено точно (доверие 10) [33284EE3] (AR v2)
Трек 3 : извлечено точно (доверие 10) [9508B5BC] (AR v2)
Трек 4 : извлечено точно (доверие 10) [F2BD14B0] (AR v2)
Трек 5 : извлечено точно (доверие 10) [2968C143] (AR v2)
Трек 6 : извлечено точно (доверие 10) [9A571078] (AR v2)
Трек 7 : извлечено точно (доверие 10) [F325E881] (AR v2)
Трек 8 : извлечено точно (доверие 10) [5C25050D] (AR v2)
Трек 9 : извлечено точно (доверие 10) [887D589E] (AR v2)
Трек 10 : извлечено точно (доверие 9) [F7626E13] (AR v2)
Трек 11 : извлечено точно (доверие 9) [DF332732] (AR v2)
Трек 12 : извлечено точно (доверие 9) [960D0AEF] (AR v2)
Трек 13 : извлечено точно (доверие 9) [3D22E9FC] (AR v2)
Трек 14 : извлечено точно (доверие 9) [15CC7CA7] (AR v2)
Трек 15 : извлечено точно (доверие 9) [1179DDD5] (AR v2)
Трек 16 : извлечено точно (доверие 9) [07C8F97B] (AR v2)
Трек 17 : извлечено точно (доверие 9) [B05427D2] (AR v2)

Все треки извлечены точно

Конец отчёта

–– CUETools DB Plugin V2.1.4

[CTDB TOCID: lmLNqswUOsiqMw5cTyzm7LxEjKk-] found
Submit result: lmLNqswUOsiqMw5cTyzm7LxEjKk- has been confirmed
Track | CTDB Status
1 | (6/6) Accurately ripped
2 | (6/6) Accurately ripped
3 | (6/6) Accurately ripped
4 | (6/6) Accurately ripped
5 | (6/6) Accurately ripped
6 | (6/6) Accurately ripped
7 | (6/6) Accurately ripped
8 | (6/6) Accurately ripped
9 | (6/6) Accurately ripped
10 | (6/6) Accurately ripped
11 | (6/6) Accurately ripped
12 | (6/6) Accurately ripped
13 | (6/6) Accurately ripped
14 | (6/6) Accurately ripped
15 | (6/6) Accurately ripped
16 | (6/6) Accurately ripped
17 | (6/6) Accurately ripped

foobar2000 1.2.6 / Dynamic Range Meter 1.1.1
log date: 2015-07-05 22:15:44

––––––––––––––––––––––––––––––––––––––––
Analyzed: Shakin' Stevens / Give Me Your Heart Tonight
––––––––––––––––––––––––––––––––––––––––

DR Peak RMS Duration Track
––––––––––––––––––––––––––––––––––––––––
DR6 -0.18 dB -7.80 dB 3:05 01-Josephine
DR7 -0.18 dB -8.59 dB 3:08 02-Give Me Your Heart Tonight
DR6 -0.27 dB -7.11 dB 2:44 03-Sapphire
DR7 -0.25 dB -8.02 dB 2:35 04-Oh Julie
DR7 -0.18 dB -8.73 dB 3:13 05-I'll Be Satisfied
DR6 -0.18 dB -7.67 dB 3:54 06-Vanessa
DR7 -0.18 dB -9.05 dB 3:19 07-Boppity Bop
DR7 -0.18 dB -9.13 dB 4:43 08-Don't Tell Me We're Through
DR7 -0.18 dB -8.97 dB 2:52 09-Shirley
DR7 -0.18 dB -8.42 dB 2:33 10-You Never Talked About Me
DR7 -0.18 dB -8.65 dB 3:29 11-Too Too Much
DR7 -0.18 dB -8.56 dB 2:15 12-(Yeah) You're Evil
DR8 -0.19 dB -10.88 dB 3:06 13-Que Sera, Sera
DR8 -0.18 dB -9.70 dB 2:45 14-I'm For You (B-side of Shirley)
DR7 -0.18 dB -8.89 dB 2:25 15-Thinkin' Of You (B-side of Give me…)
DR8 -0.18 dB -9.40 dB 2:43 16-Don't Be Late (Miss Kate) (B-side of I'll be…)
DR7 -0.18 dB -8.35 dB 3:07 17-Lawdy Miss Clawdy (Live) (from Special Edition EP)
––––––––––––––––––––––––––––––––––––––––

Number of tracks: 17
Official DR value: DR7

Samplerate: 44100 Hz
Channels: 2
Bits per sample: 16
Bitrate: 962 kbps
Codec: FLAC
================================================================================

[CUETools log; Date: 05.07.2015 22:15:45; Version: 2.1.5]
[CTDB TOCID: lmLNqswUOsiqMw5cTyzm7LxEjKk-] found.
Track | CTDB Status
1 | (7/7) Accurately ripped
2 | (7/7) Accurately ripped
3 | (7/7) Accurately ripped
4 | (7/7) Accurately ripped
5 | (7/7) Accurately ripped
6 | (7/7) Accurately ripped
7 | (7/7) Accurately ripped
8 | (7/7) Accurately ripped
9 | (7/7) Accurately ripped
10 | (7/7) Accurately ripped
11 | (7/7) Accurately ripped
12 | (7/7) Accurately ripped
13 | (7/7) Accurately ripped
14 | (7/7) Accurately ripped
15 | (7/7) Accurately ripped
16 | (7/7) Accurately ripped
17 | (7/7) Accurately ripped
[AccurateRip ID: 0020da2b-019f8819-f60c2b11] found.
Track [ CRC | V2 ] Status
01 [e4415a14|6304d195] (03+10/13) Accurately ripped
02 [7e858fa7|33284ee3] (03+10/13) Accurately ripped
03 [5d0a37ca|9508b5bc] (03+10/13) Accurately ripped
04 [b4b766fa|f2bd14b0] (03+10/13) Accurately ripped
05 [abd129a8|2968c143] (03+10/13) Accurately ripped
06 [68c6922b|9a571078] (03+10/13) Accurately ripped
07 [90be87bb|f325e881] (03+10/13) Accurately ripped
08 [3805939a|5c25050d] (03+10/13) Accurately ripped
09 [eab00dde|887d589e] (03+10/13) Accurately ripped
10 [f92fb615|f7626e13] (03+09/12) Accurately ripped
11 [2ea354fd|df332732] (03+09/12) Accurately ripped
12 [e5a371af|960d0aef] (03+09/12) Accurately ripped
13 [94977b84|3d22e9fc] (03+09/12) Accurately ripped
14 [7632046c|15cc7ca7] (03+09/12) Accurately ripped
15 [562ad870|1179ddd5] (03+09/12) Accurately ripped
16 [48eee82a|07c8f97b] (03+09/12) Accurately ripped
17 [a7c377ea|b05427d2] (03+09/12) Accurately ripped

Track Peak [ CRC32 ] [W/O NULL] [ LOG ]
– 97,9 [DCB35497] [E1AC1FB6] CRC32
01 97,9 [ED727556] [DBABB0D9]
02 97,9 [76C07E87] [EFC98C0F]
03 96,9 [37F88D1A] [EC0B7E4C]
04 97,1 [3427AF21] [F24C0969]
05 97,9 [78621359] [A8C7A12F]
06 97,9 [C46C8416] [53B81C96]
07 97,9 [5A21FD4D] [ACEC2262]
08 97,9 [B73DE3A3] [2790E1D0]
09 97,9 [A2305D96] [CEB1640E]
10 97,9 [F13D5E8B] [1D7A65AE]
11 97,9 [B4F0E62E] [E95B554E]
12 97,9 [880D2825] [BFF21554]
13 97,8 [6FC943CA] [05140ABC]
14 97,9 [FC0F68EA] [130F0651]
15 97,9 [9D1B5DED] [C42108B5]
16 97,9 [E977C901] [4A1F2C70]
17 97,9 [3E8608B1] [46AAE30C]

***************

Shakin' Stevens - The Epic Masters (2009) {10CD Box Set}

CD5: Shakin' Stevens - The Bop Won't Stop (1983/2009)

Produced mainly by Christopher Neil, The Bop Won't Stop signalled a move towards a more contemporary pop sound, highlighted by the top 3 single "Cry Just A Little Bit". Despite producing three other top 20 singles (two reaching the top 5), the album itself did not perform as well on the charts as Stevens' previous three albums. Nevertheless, The Bop Won't Stop became Shaky's first compact disc release in 1984. Among the bonus tracks included on The Epic Masters are "Your Ma Said You Cried in Your Sleep Last Night" which was released as a Europe-only single in 1983, and "A Letter To You", a top 10 single released ahead of 1984's Greatest Hits compilation.
Track List CD5:

01. The Bop Won't Stop [02:35]
02. Why Do You Treat Me This Way? [02:30]
03. Diddle I [03:01]
04. Don't Be Two Faced [03:12]
05. Livin' Lovin' Wreck [02:13]
06. A Rockin' Good Way(To Mess Around And Fall In Love)(duet with Bonnie Tyler) [02:59]
07. Brand New Man [02:29]
08. Cry Just A Little Bit [03:15]
09. As Long As [03:03]
10. A Love Worth Waiting For [03:24]
11. Love Me Tonight [03:16]
12. It's Late [02:05]
13. It's Good For You(Baby) (B-side of 'It's Late') [03:02]
14. Your Ma Said You Cried In Your Sleep Last Night (B-side of 'Cry Just A Little… [03:27]
15. A Letter To You (single) [03:15]
16. Come Back And Love Me (B-side of 'A Letter To You') [02:49]

Exact Audio Copy V1.0 beta 4 from 7. December 2014

Отчёт EAC об извлечении, выполненном 4. июля 2015, 17:52

Shakin' Stevens / The Bop Won't Stop

Дисковод: ASUS DRW-24F1ST a Adapter: 1 ID: 0

Режим чтения : Достоверность
Использование точного потока : Да
Отключение кэша аудио : Да
Использование указателей C2 : Нет

Коррекция смещения при чтении : 6
Способность читать области Lead-in и Lead-out : Нет
Заполнение пропущенных сэмплов тишиной : Да
Удаление блоков с тишиной в начале и конце : Нет
При вычислениях CRC использовались нулевые сэмплы : Да
Интерфейс : Встроенный Win32-интерфейс для Win NT/2000

Выходной формат : Пользовательский кодировщик
Выбранный битрейт : 128 kBit/s
Качество : Высокий
Добавление ID3-тега : Нет
Утилита сжатия : C:\Program Files\Exact Audio Copy\Flac\flac.exe
Дополнительные параметры : -V -8 -T "Date=%year%" -T "Genre=%genre%" %source%


TOC извлечённого CD

Трек | Старт | Длительность | Начальный сектор | Конечный сектор
––––––––––––––––––––––––––––––––––-
1 | 0:00.00 | 2:34.71 | 0 | 11620
2 | 2:34.71 | 2:29.27 | 11621 | 22822
3 | 5:04.23 | 3:00.70 | 22823 | 36392
4 | 8:05.18 | 3:11.73 | 36393 | 50790
5 | 11:17.16 | 2:12.21 | 50791 | 60711
6 | 13:29.37 | 2:58.61 | 60712 | 74122
7 | 16:28.23 | 2:28.32 | 74123 | 85254
8 | 18:56.55 | 3:14.24 | 85255 | 99828
9 | 22:11.04 | 3:02.17 | 99829 | 113495
10 | 25:13.21 | 3:23.41 | 113496 | 128761
11 | 28:36.62 | 3:15.69 | 128762 | 143455
12 | 31:52.56 | 2:04.06 | 143456 | 152761
13 | 33:56.62 | 3:01.55 | 152762 | 166391
14 | 36:58.42 | 3:26.12 | 166392 | 181853
15 | 40:24.54 | 3:14.25 | 181854 | 196428
16 | 43:39.04 | 2:48.62 | 196429 | 209090


Характеристики диапазона извлечения и сообщения об ошибках

Выбранный диапазон

Имя файла C:\Users\Erik\Desktop\Shakin' Stevens - The Bop Won't Stop.wav

Пиковый уровень 99.3 %
Скорость извлечения 6.7 X
Качество диапазона 100.0 %
CRC теста 89B3746E
CRC копии 89B3746E
Копирование… OK

Ошибок не произошло


AccurateRip: сводка

Трек 1 : извлечено точно (доверие 10) [EFCBB3CE] (AR v2)
Трек 2 : извлечено точно (доверие 10) [D087AECA] (AR v2)
Трек 3 : извлечено точно (доверие 10) [9F4851D5] (AR v2)
Трек 4 : извлечено точно (доверие 10) [EA5BA560] (AR v2)
Трек 5 : извлечено точно (доверие 10) [640B7704] (AR v2)
Трек 6 : извлечено точно (доверие 10) [86C2AAFD] (AR v2)
Трек 7 : извлечено точно (доверие 10) [296B973A] (AR v2)
Трек 8 : извлечено точно (доверие 10) [920ECC11] (AR v2)
Трек 9 : извлечено точно (доверие 10) [10945B71] (AR v2)
Трек 10 : извлечено точно (доверие 10) [994A0402] (AR v2)
Трек 11 : извлечено точно (доверие 10) [D9B1977A] (AR v2)
Трек 12 : извлечено точно (доверие 10) [AC75FE49] (AR v2)
Трек 13 : извлечено точно (доверие 9) [1E2A2603] (AR v2)
Трек 14 : извлечено точно (доверие 9) [CB46275C] (AR v2)
Трек 15 : извлечено точно (доверие 9) [C1E77D3E] (AR v2)
Трек 16 : извлечено точно (доверие 9) [CDCE6058] (AR v2)

Все треки извлечены точно

Конец отчёта

–– CUETools DB Plugin V2.1.4

[CTDB TOCID: rUTnkyEM5Fbv1aATrRbPz.EWA4Q-] found
Submit result: rUTnkyEM5Fbv1aATrRbPz.EWA4Q- has been confirmed
Track | CTDB Status
1 | (5/5) Accurately ripped
2 | (5/5) Accurately ripped
3 | (5/5) Accurately ripped
4 | (5/5) Accurately ripped
5 | (5/5) Accurately ripped
6 | (5/5) Accurately ripped
7 | (5/5) Accurately ripped
8 | (5/5) Accurately ripped
9 | (5/5) Accurately ripped
10 | (5/5) Accurately ripped
11 | (5/5) Accurately ripped
12 | (5/5) Accurately ripped
13 | (5/5) Accurately ripped
14 | (5/5) Accurately ripped
15 | (5/5) Accurately ripped
16 | (5/5) Accurately ripped

foobar2000 1.2.6 / Dynamic Range Meter 1.1.1
log date: 2015-07-05 22:18:12

––––––––––––––––––––––––––––––––––––––––
Analyzed: Shakin' Stevens / The Bop Won't Stop
––––––––––––––––––––––––––––––––––––––––

DR Peak RMS Duration Track
––––––––––––––––––––––––––––––––––––––––
DR8 -0.26 dB -9.35 dB 2:35 01-The Bop Won't Stop
DR7 -0.26 dB -8.14 dB 2:29 02-Why Do You Treat Me This Way ?
DR7 -0.26 dB -8.41 dB 3:01 03-Diddle I
DR8 -0.26 dB -10.55 dB 3:12 04-Don't Be Two Faced
DR7 -0.26 dB -9.20 dB 2:12 05-Livin' Lovin' Wreck
DR7 -0.26 dB -8.81 dB 2:59 06-A Rockin' Good Way(To Mess Around And Fall In Love)(duet with Bonnie Tyler)
DR7 -0.26 dB -8.43 dB 2:28 07-Brand New Man
DR8 -0.26 dB -10.14 dB 3:14 08-Cry Just A Little Bit
DR7 -0.26 dB -8.58 dB 3:02 09-As Long As
DR7 -0.26 dB -8.70 dB 3:24 10-A Love Worth Waiting For
DR8 -0.26 dB -9.02 dB 3:16 11-Love Me Tonight
DR7 -0.26 dB -8.86 dB 2:04 12-It's Late
DR7 -0.26 dB -7.89 dB 3:02 13-It's Good For You(Baby) (B-side of 'It's Late')
DR8 -0.26 dB -9.19 dB 3:26 14-Your Ma Said You Cried In Your Sleep Last Night (B-side of 'Cry Just A Little…
DR7 -0.06 dB -8.54 dB 3:14 15-A Letter To You (single)
DR8 -0.26 dB -9.37 dB 2:49 16-Come Back And Love Me (B-side of 'A Letter To You')
––––––––––––––––––––––––––––––––––––––––

Number of tracks: 16
Official DR value: DR7

Samplerate: 44100 Hz
Channels: 2
Bits per sample: 16
Bitrate: 953 kbps
Codec: FLAC
================================================================================

[CUETools log; Date: 05.07.2015 22:18:10; Version: 2.1.5]
[CTDB TOCID: rUTnkyEM5Fbv1aATrRbPz.EWA4Q-] found.
Track | CTDB Status
1 | (6/6) Accurately ripped
2 | (6/6) Accurately ripped
3 | (6/6) Accurately ripped
4 | (6/6) Accurately ripped
5 | (6/6) Accurately ripped
6 | (6/6) Accurately ripped
7 | (6/6) Accurately ripped
8 | (6/6) Accurately ripped
9 | (6/6) Accurately ripped
10 | (6/6) Accurately ripped
11 | (6/6) Accurately ripped
12 | (6/6) Accurately ripped
13 | (6/6) Accurately ripped
14 | (6/6) Accurately ripped
15 | (6/6) Accurately ripped
16 | (6/6) Accurately ripped
[AccurateRip ID: 001a749d-013ff36e-cb0ae310] found.
Track [ CRC | V2 ] Status
01 [f9deb95c|efcbb3ce] (03+10/13) Accurately ripped
02 [9c944137|d087aeca] (03+10/13) Accurately ripped
03 [7d2e9090|9f4851d5] (03+10/13) Accurately ripped
04 [903f65b7|ea5ba560] (03+10/13) Accurately ripped
05 [e57b7521|640b7704] (03+10/13) Accurately ripped
06 [33821883|86c2aafd] (03+10/13) Accurately ripped
07 [ac085110|296b973a] (03+10/13) Accurately ripped
08 [0654d8ba|920ecc11] (03+10/13) Accurately ripped
09 [b5968f79|10945b71] (03+10/13) Accurately ripped
10 [b2290f1a|994a0402] (03+10/13) Accurately ripped
11 [065622df|d9b1977a] (03+10/13) Accurately ripped
12 [e634976c|ac75fe49] (03+10/13) Accurately ripped
13 [86ce2b82|1e2a2603] (03+09/12) Accurately ripped
14 [b6d1cd16|cb46275c] (03+09/12) Accurately ripped
15 [feee86cc|c1e77d3e] (03+09/12) Accurately ripped
16 [b0432f59|cdce6058] (03+09/12) Accurately ripped

Track Peak [ CRC32 ] [W/O NULL] [ LOG ]
– 99,3 [89B3746E] [90F3D377] CRC32
01 97,0 [4A531622] [54EF5548]
02 97,0 [C73E5B8D] [E6B44FD1]
03 97,1 [C4BDCFE4] [127C39DF]
04 97,0 [6721DA0E] [EFFC7EA3]
05 97,0 [4C2BD330] [B9D6E624]
06 97,0 [785431F3] [116D0B75]
07 97,0 [1329EBC3] [457C5F14]
08 97,0 [FB96934D] [070A80B9]
09 97,0 [6361CAD9] [7815F435]
10 97,0 [977A9BDE] [44F305D4]
11 97,0 [D5568325] [9518CB6D]
12 97,0 [E526468C] [FCC5609A]
13 97,0 [389DF146] [CFDB43AA]
14 97,0 [A4369825] [55E5790F]
15 99,3 [35249769] [AE128935]
16 97,0 [C823DDE7] [7D0CD4F3]

***************

Shakin' Stevens - The Epic Masters (2009) {10CD Box Set}

CD6: Shakin' Stevens - Lipstick Powder And Paint (1985/2009)

Lipstick, Powder And Paint saw Shaky reunite with fellow Welshman Dave Edmunds who had produced the first Shakin' Stevens and the Sunsets album A Legend in 1970. However, despite the inclusion of the rocking title track and covers of Chuck Berry and Billy Fury songs, the album was not a total return to the traditional rock and roll sound of earlier Stevens releases. It was also the first album since Take One! not to contain any top 10 singles, although the Christmas number 1 single "Merry Christmas Everyone" (not included on the album) was released during this period. Perhaps as an indication of Stevens' fading popularity, Epic chose not to issue the album on compact disc when originally released in 1985 and, as a result, The Epic Masters presents the album's first official CD release.

The bonus track "I'll Give You My Heart" featured on this disc is the remixed version which was the B-Side to the single "Lipstick Powder And Paint". There was an earlier version on the B-Side to "Breaking Up My Heart" which is not present in this box set. This version is listed incorrectly.
Track List CD6:

01. Lipstick Powder And Paint [02:47]
02. Bad Reputation [03:32]
03. Don't Lie To Me [03:22]
04. I'm Leaving You [03:03]
05. The Shape I'm In [02:13]
06. Don't Knock Upon My Door [01:50]
07. Turning Away [03:25]
08. Love You Out Loud [03:15]
09. As Long As I Have You [03:23]
10. With My Heart [02:47]
11. Ain't It A Shame (You Win Again) [03:28]
12. So Long Baby Goodbye [03:01]
13. Teardrops (Single) [03:59]
14. You Shake Me Up (B-side of Teardrops) [02:58]
15. Breaking Up My Heart (Single) [04:00]
16. I'll Give You My Heart (B-side of Breaking Up My Heart) [02:59]

Exact Audio Copy V1.0 beta 4 from 7. December 2014

Отчёт EAC об извлечении, выполненном 4. июля 2015, 18:14

Shakin' Stevens / Lipstick Powder And Paint

Дисковод: ASUS DRW-24F1ST a Adapter: 1 ID: 0

Режим чтения : Достоверность
Использование точного потока : Да
Отключение кэша аудио : Да
Использование указателей C2 : Нет

Коррекция смещения при чтении : 6
Способность читать области Lead-in и Lead-out : Нет
Заполнение пропущенных сэмплов тишиной : Да
Удаление блоков с тишиной в начале и конце : Нет
При вычислениях CRC использовались нулевые сэмплы : Да
Интерфейс : Встроенный Win32-интерфейс для Win NT/2000

Выходной формат : Пользовательский кодировщик
Выбранный битрейт : 128 kBit/s
Качество : Высокий
Добавление ID3-тега : Нет
Утилита сжатия : C:\Program Files\Exact Audio Copy\Flac\flac.exe
Дополнительные параметры : -V -8 -T "Date=%year%" -T "Genre=%genre%" %source%


TOC извлечённого CD

Трек | Старт | Длительность | Начальный сектор | Конечный сектор
––––––––––––––––––––––––––––––––––-
1 | 0:00.00 | 2:46.29 | 0 | 12478
2 | 2:46.29 | 3:31.41 | 12479 | 28344
3 | 6:17.70 | 3:21.46 | 28345 | 43465
4 | 9:39.41 | 3:02.07 | 43466 | 57122
5 | 12:41.48 | 2:12.73 | 57123 | 67095
6 | 14:54.46 | 1:49.39 | 67096 | 75309
7 | 16:44.10 | 3:24.32 | 75310 | 90641
8 | 20:08.42 | 3:14.01 | 90642 | 105192
9 | 23:22.43 | 3:22.52 | 105193 | 120394
10 | 26:45.20 | 2:46.59 | 120395 | 132903
11 | 29:32.04 | 3:27.56 | 132904 | 148484
12 | 32:59.60 | 3:00.21 | 148485 | 162005
13 | 36:00.06 | 3:58.55 | 162006 | 179910
14 | 39:58.61 | 2:57.45 | 179911 | 193230
15 | 42:56.31 | 3:59.56 | 193231 | 211211
16 | 46:56.12 | 2:58.16 | 211212 | 224577


Характеристики диапазона извлечения и сообщения об ошибках

Выбранный диапазон

Имя файла C:\Users\Erik\Desktop\Shakin' Stevens - Lipstick Powder And Paint.wav

Пиковый уровень 97.1 %
Скорость извлечения 6.9 X
Качество диапазона 100.0 %
CRC теста EA838D9A
CRC копии EA838D9A
Копирование… OK

Ошибок не произошло


AccurateRip: сводка

Трек 1 : извлечено точно (доверие 9) [94D7F7E4] (AR v2)
Трек 2 : извлечено точно (доверие 9) [6C6693C9] (AR v2)
Трек 3 : извлечено точно (доверие 9) [37E3177D] (AR v2)
Трек 4 : извлечено точно (доверие 9) [F4579F6E] (AR v2)
Трек 5 : извлечено точно (доверие 9) [8A0B0E49] (AR v2)
Трек 6 : извлечено точно (доверие 9) [7E8ACF1B] (AR v2)
Трек 7 : извлечено точно (доверие 9) [81D59F34] (AR v2)
Трек 8 : извлечено точно (доверие 9) [8388A882] (AR v2)
Трек 9 : извлечено точно (доверие 9) [860985B0] (AR v2)
Трек 10 : извлечено точно (доверие 9) [78A2093C] (AR v2)
Трек 11 : извлечено точно (доверие 9) [FFFC30EC] (AR v2)
Трек 12 : извлечено точно (доверие 9) [FB10AC61] (AR v2)
Трек 13 : извлечено точно (доверие 9) [15497B89] (AR v2)
Трек 14 : извлечено точно (доверие 9) [836028D8] (AR v2)
Трек 15 : извлечено точно (доверие 9) [5354447B] (AR v2)
Трек 16 : извлечено точно (доверие 9) [86ABF6EE] (AR v2)

Все треки извлечены точно

Конец отчёта

–– CUETools DB Plugin V2.1.4

[CTDB TOCID: jvOycgxJDI_YmUxpDjXoW1zd1Ug-] found
Submit result: jvOycgxJDI_YmUxpDjXoW1zd1Ug- has been confirmed
Track | CTDB Status
1 | (4/4) Accurately ripped
2 | (4/4) Accurately ripped
3 | (4/4) Accurately ripped
4 | (4/4) Accurately ripped
5 | (4/4) Accurately ripped
6 | (4/4) Accurately ripped
7 | (4/4) Accurately ripped
8 | (4/4) Accurately ripped
9 | (4/4) Accurately ripped
10 | (4/4) Accurately ripped
11 | (4/4) Accurately ripped
12 | (4/4) Accurately ripped
13 | (4/4) Accurately ripped
14 | (4/4) Accurately ripped
15 | (4/4) Accurately ripped
16 | (4/4) Accurately ripped

foobar2000 1.2.6 / Dynamic Range Meter 1.1.1
log date: 2015-07-05 22:21:47

––––––––––––––––––––––––––––––––––––––––
Analyzed: Shakin' Stevens / Lipstick Powder And Paint
––––––––––––––––––––––––––––––––––––––––

DR Peak RMS Duration Track
––––––––––––––––––––––––––––––––––––––––
DR7 -0.26 dB -8.08 dB 2:46 01-Lipstick Powder And Paint
DR9 -0.26 dB -10.22 dB 3:32 02-Bad Reputation
DR7 -0.26 dB -8.25 dB 3:22 03-Don't Lie To Me
DR8 -0.26 dB -9.73 dB 3:02 04-I'm Leaving You
DR8 -0.26 dB -9.49 dB 2:13 05-The Shape I'm In
DR8 -0.26 dB -8.85 dB 1:50 06-Don't Knock Upon My Door
DR8 -0.26 dB -9.54 dB 3:24 07-Turning Away
DR7 -0.26 dB -9.03 dB 3:14 08-Love You Out Loud
DR8 -0.26 dB -9.26 dB 3:23 09-As Long As I Have You
DR7 -0.26 dB -8.17 dB 2:47 10-With My Heart
DR7 -0.26 dB -8.99 dB 3:28 11-Ain't It A Shame (You Win Again)
DR7 -0.26 dB -8.29 dB 3:00 12-So Long Baby Goodbye
DR7 -0.25 dB -9.41 dB 3:59 13-Teardrops (Single)
DR8 -0.26 dB -9.01 dB 2:58 14-You Shake Me Up (B-side of Teardrops)
DR7 -0.26 dB -8.40 dB 4:00 15-Breaking Up My Heart (Single)
DR8 -0.26 dB -9.54 dB 2:58 16-I'll Give You My Heart (B-side of Breaking Up My Heart)
––––––––––––––––––––––––––––––––––––––––

Number of tracks: 16
Official DR value: DR8

Samplerate: 44100 Hz
Channels: 2
Bits per sample: 16
Bitrate: 946 kbps
Codec: FLAC
================================================================================

[CUETools log; Date: 05.07.2015 22:21:48; Version: 2.1.5]
[CTDB TOCID: jvOycgxJDI_YmUxpDjXoW1zd1Ug-] found.
Track | CTDB Status
1 | (5/5) Accurately ripped
2 | (5/5) Accurately ripped
3 | (5/5) Accurately ripped
4 | (5/5) Accurately ripped
5 | (5/5) Accurately ripped
6 | (5/5) Accurately ripped
7 | (5/5) Accurately ripped
8 | (5/5) Accurately ripped
9 | (5/5) Accurately ripped
10 | (5/5) Accurately ripped
11 | (5/5) Accurately ripped
12 | (5/5) Accurately ripped
13 | (5/5) Accurately ripped
14 | (5/5) Accurately ripped
15 | (5/5) Accurately ripped
16 | (5/5) Accurately ripped
[AccurateRip ID: 001c43d8-0154def9-db0bb210] found.
Track [ CRC | V2 ] Status
01 [6d7338d2|94d7f7e4] (03+09/12) Accurately ripped
02 [cfed1711|6c6693c9] (03+09/12) Accurately ripped
03 [38689768|37e3177d] (03+09/12) Accurately ripped
04 [6fe3bb75|f4579f6e] (03+09/12) Accurately ripped
05 [0a013d02|8a0b0e49] (03+09/12) Accurately ripped
06 [946c530b|7e8acf1b] (03+09/12) Accurately ripped
07 [35e6e7d7|81d59f34] (03+09/12) Accurately ripped
08 [66fc8887|8388a882] (03+09/12) Accurately ripped
09 [570367fe|860985b0] (03+09/12) Accurately ripped
10 [6efc7705|78a2093c] (03+09/12) Accurately ripped
11 [43e40b79|fffc30ec] (03+09/12) Accurately ripped
12 [789cf914|fb10ac61] (03+09/12) Accurately ripped
13 [8e9fdfa1|15497b89] (03+09/12) Accurately ripped
14 [3de443ac|836028d8] (03+09/12) Accurately ripped
15 [73e7954e|5354447b] (03+09/12) Accurately ripped
16 [fb20644b|86abf6ee] (03+09/12) Accurately ripped

Track Peak [ CRC32 ] [W/O NULL] [ LOG ]
– 97,1 [EA838D9A] [3B45BE9A] CRC32
01 97,0 [9C086C16] [A0104CD4]
02 97,0 [5C7B9366] [E99BED1E]
03 97,0 [BCDB6BA0] [090946F8]
04 97,0 [8B50E197] [65B2E04C]
05 97,0 [D6E3583C] [BB517455]
06 97,0 [43E15C3F] [AA085A3F]
07 97,0 [E3F18A96] [370E796F]
08 97,0 [C6B53FDB] [4006887F]
09 97,0 [9707DCFC] [D0BD5742]
10 97,0 [554CE1D8] [902F1AE8]
11 97,0 [DBAB1216] [0093E5AB]
12 97,0 [8931D7B5] [DDB82442]
13 97,1 [6B9A4FC9] [366530D8]
14 97,0 [6E5E479D] [377AE688]
15 97,0 [645C9B4A] [CF647BB2]
16 97,0 [4D399062] [02BF6908]

***************

Shakin' Stevens - The Epic Masters (2009) {10CD Box Set}

CD7: Shakin' Stevens - Let's Boogie (1987/2009)

Split into a studio side and a live side, 1987's Let's Boogie was Stevens' first album release for two years. Using a variety of producers, four of the five studio tracks were released as singles, one of which, "What Do You Want to Make Those Eyes at Me For?", was to become Shaky's last top 10 single in the UK. The version of the song included on The Epic Masters is the single mix and not the one included on the original album release, which was apparently an earlier recording that was issued in error by Epic Records. The second half of the album consisted entirely of a 23 minute medley of Shaky's hits recorded at the London Palladium in December 1986. The album received a full CD issue on its original 1987 release. The medley now plays as one complete track, where as before on the 1987 release it was chaptered. It was rectified for 'random' playing in CD players to let the live medley flow correctly.
Track List CD7:

01. Come See About Me [03:26]
02. Forever You [03:23]
03. A Little Boogie Woogie(In The Back Of My Mind) [03:34]
04. Because I Love You [03:21]
05. What Do You Want To Make Those Eyes At Me For? (Single Version) [02:53]
06. The Hits Keep Coming-Live Medley'86 [23:10]
07. Tell Me One More Time (B-side of 'Because I Love You') [03:14]
08. If You're Gonna Cry (B-side of 'A Little Boogie Woogie…') [03:46]

Exact Audio Copy V1.0 beta 4 from 7. December 2014

Отчёт EAC об извлечении, выполненном 4. июля 2015, 18:32

Shakin' Stevens / Let's Boogie

Дисковод: ASUS DRW-24F1ST a Adapter: 1 ID: 0

Режим чтения : Достоверность
Использование точного потока : Да
Отключение кэша аудио : Да
Использование указателей C2 : Нет

Коррекция смещения при чтении : 6
Способность читать области Lead-in и Lead-out : Нет
Заполнение пропущенных сэмплов тишиной : Да
Удаление блоков с тишиной в начале и конце : Нет
При вычислениях CRC использовались нулевые сэмплы : Да
Интерфейс : Встроенный Win32-интерфейс для Win NT/2000

Выходной формат : Пользовательский кодировщик
Выбранный битрейт : 128 kBit/s
Качество : Высокий
Добавление ID3-тега : Нет
Утилита сжатия : C:\Program Files\Exact Audio Copy\Flac\flac.exe
Дополнительные параметры : -V -8 -T "Date=%year%" -T "Genre=%genre%" %source%


TOC извлечённого CD

Трек | Старт | Длительность | Начальный сектор | Конечный сектор
––––––––––––––––––––––––––––––––––-
1 | 0:00.00 | 3:25.41 | 0 | 15415
2 | 3:25.41 | 3:22.47 | 15416 | 30612
3 | 6:48.13 | 3:33.11 | 30613 | 46598
4 | 10:21.24 | 3:20.66 | 46599 | 61664
5 | 13:42.15 | 2:52.68 | 61665 | 74632
6 | 16:35.08 | 23:09.61 | 74633 | 178868
7 | 39:44.69 | 3:13.38 | 178869 | 193381
8 | 42:58.32 | 3:45.47 | 193382 | 210303


Характеристики диапазона извлечения и сообщения об ошибках

Выбранный диапазон

Имя файла C:\Users\Erik\Desktop\Shakin' Stevens - Let's Boogie.wav

Пиковый уровень 99.4 %
Скорость извлечения 6.7 X
Качество диапазона 99.9 %
CRC теста 86E5DF44
CRC копии 86E5DF44
Копирование… OK

Ошибок не произошло


AccurateRip: сводка

Трек 1 : извлечено точно (доверие 9) [B1D46499] (AR v2)
Трек 2 : извлечено точно (доверие 9) [40DE04E2] (AR v2)
Трек 3 : извлечено точно (доверие 9) [657F35FE] (AR v2)
Трек 4 : извлечено точно (доверие 9) [FB78084C] (AR v2)
Трек 5 : извлечено точно (доверие 9) [52A53794] (AR v2)
Трек 6 : извлечено точно (доверие 9) [818BAB74] (AR v2)
Трек 7 : извлечено точно (доверие 9) [B3DD432F] (AR v2)
Трек 8 : извлечено точно (доверие 9) [CCAD21DA] (AR v2)

Все треки извлечены точно

Конец отчёта

–– CUETools DB Plugin V2.1.4

[CTDB TOCID: zlefUA3XXV9BaJHtAs4hEtCk0WA-] found
Submit result: zlefUA3XXV9BaJHtAs4hEtCk0WA- has been confirmed
Track | CTDB Status
1 | (6/6) Accurately ripped
2 | (6/6) Accurately ripped
3 | (6/6) Accurately ripped
4 | (6/6) Accurately ripped
5 | (6/6) Accurately ripped
6 | (6/6) Accurately ripped
7 | (6/6) Accurately ripped
8 | (6/6) Accurately ripped

foobar2000 1.2.6 / Dynamic Range Meter 1.1.1
log date: 2015-07-05 22:23:58

––––––––––––––––––––––––––––––––––––––––
Analyzed: Shakin' Stevens / Let's Boogie
––––––––––––––––––––––––––––––––––––––––

DR Peak RMS Duration Track
––––––––––––––––––––––––––––––––––––––––
DR7 -0.05 dB -8.51 dB 3:26 01-Come See About Me
DR7 -0.06 dB -8.28 dB 3:23 02-Forever You
DR6 -0.06 dB -7.46 dB 3:33 03-A Little Boogie Woogie(In The Back Of My Mind)
DR7 -0.06 dB -9.30 dB 3:21 04-Because I Love You
DR6 -0.06 dB -7.54 dB 2:53 05-What Do You Want To Make Those Eyes At Me For? (Single Version)
DR6 -0.06 dB -7.34 dB 23:10 06-The Hits Keep Coming-Live Medley'86
DR8 -0.06 dB -8.79 dB 3:14 07-Tell Me One More Time (B-side of 'Because I Love You')
DR7 -0.07 dB -8.25 dB 3:46 08-If You're Gonna Cry (B-side of 'A Little Boogie Woogie…')
––––––––––––––––––––––––––––––––––––––––

Number of tracks: 8
Official DR value: DR7

Samplerate: 44100 Hz
Channels: 2
Bits per sample: 16
Bitrate: 988 kbps
Codec: FLAC
================================================================================

[CUETools log; Date: 05.07.2015 22:24:01; Version: 2.1.5]
[CTDB TOCID: zlefUA3XXV9BaJHtAs4hEtCk0WA-] found.
Track | CTDB Status
1 | (7/7) Accurately ripped
2 | (7/7) Accurately ripped
3 | (7/7) Accurately ripped
4 | (7/7) Accurately ripped
5 | (7/7) Accurately ripped
6 | (7/7) Accurately ripped
7 | (7/7) Accurately ripped
8 | (7/7) Accurately ripped
[AccurateRip ID: 000c61d9-0057d88a-640af408] found.
Track [ CRC | V2 ] Status
01 [2088d190|b1d46499] (03+09/12) Accurately ripped
02 [2c063de6|40de04e2] (03+09/12) Accurately ripped
03 [53884ce5|657f35fe] (03+09/12) Accurately ripped
04 [1a0d6992|fb78084c] (03+09/12) Accurately ripped
05 [492b5782|52a53794] (03+09/12) Accurately ripped
06 [8464f42b|818bab74] (03+09/12) Accurately ripped
07 [cb8615f6|b3dd432f] (03+09/12) Accurately ripped
08 [3cd423c1|ccad21da] (03+09/12) Accurately ripped

Track Peak [ CRC32 ] [W/O NULL] [ LOG ]
– 99,4 [86E5DF44] [0000CD94] CRC32
01 99,4 [1A1B11BC] [E7095F39]
02 99,3 [57AC239A] [57311A69]
03 99,3 [4A6A0AD7] [BD33F52B]
04 99,3 [4F2EF347] [49F33543]
05 99,3 [4F672CEF] [5D52CBAF]
06 99,3 [4844856A] [E90BCAFC]
07 99,2 [B2B1D825] [7146A4F2]
08 99,2 [E0970A36] [8058A151]

***************

Shakin' Stevens - The Epic Masters (2009) {10CD Box Set}

CD8: Shakin' Stevens - A Whole Lotta Shaky (1988/2009)

A Whole Lotta Shaky, released in 1988, was a combination of newly recorded tracks sprinkled with a few older recordings. Three songs from 1981 were included ("Oh Julie", plus two tracks from the Shaky album) as well as the single mix of the previous year's "What Do You Want to Make Those Eyes at Me For?" (which means the same mix is now included on two discs of The Epic Masters). None of the newly recorded singles from the album reached the UK top 20, despite an attempt to bring Stevens' sound up to date by having Art Of Noise re-mix "Jezebel" for single release. That 7" mix is now included as a bonus track on The Epic Masters. "How Many Tears Can You Hide" is the PWL Pete Hammond mixed CD single version and not the original album or vinyl 7" version. Included for the first time on this release is a new mix of "Woman (What Have You Done To Me)" and a non fade out version of "Hello Josephine".
Track List CD8:

01. What Do You Want To Make Those Eyes At Me For? (Single version) [02:54]
02. How Many Tears You Can Hide [03:41]
03. Jezabel [03:01]
04. Sea Of Love [03:09]
05. True Love (Single version) [02:44]
06. Just One Look [03:43]
07. Oh Julie [02:35]
08. Do You Really Love Me Too [03:04]
09. I'm Gonna Sit Right Down And Write Myself A Letter [03:27]
10. Hello Josephine [02:57]
11. Woman(What Have You Done To Me) [03:16]
12. Heartbeat [03:04]
13. Tired Of Toein' The Line [03:37]
14. Mona Lisa [02:18]
15. Feel The Need In Me (single) [03:04]
16. If I Can't Have You (B-side of 'Feel The Need In Me') [03:23]
17. If I Really Knew (B-side of 'How Many Tears You Can Hide') [03:20]
18. Come On Little Girl(Chrome Sitar) (B-side of 'True Love') [03:32]
19. Jezabel (7'' re-mix single with Art Of Noise) [02:59]

Exact Audio Copy V1.0 beta 4 from 7. December 2014

Отчёт EAC об извлечении, выполненном 4. июля 2015, 19:58

Shakin' Stevens / A Whole Lotta Shaky

Дисковод: ASUS DRW-24F1ST a Adapter: 1 ID: 0

Режим чтения : Достоверность
Использование точного потока : Да
Отключение кэша аудио : Да
Использование указателей C2 : Нет

Коррекция смещения при чтении : 6
Способность читать области Lead-in и Lead-out : Нет
Заполнение пропущенных сэмплов тишиной : Да
Удаление блоков с тишиной в начале и конце : Нет
При вычислениях CRC использовались нулевые сэмплы : Да
Интерфейс : Встроенный Win32-интерфейс для Win NT/2000

Выходной формат : Пользовательский кодировщик
Выбранный битрейт : 128 kBit/s
Качество : Высокий
Добавление ID3-тега : Нет
Утилита сжатия : C:\Program Files\Exact Audio Copy\Flac\flac.exe
Дополнительные параметры : -V -8 -T "Date=%year%" -T "Genre=%genre%" %source%


TOC извлечённого CD

Трек | Старт | Длительность | Начальный сектор | Конечный сектор
––––––––––––––––––––––––––––––––––-
1 | 0:00.00 | 2:53.09 | 0 | 12983
2 | 2:53.09 | 3:40.47 | 12984 | 29530
3 | 6:33.56 | 3:00.09 | 29531 | 43039
4 | 9:33.65 | 3:08.22 | 43040 | 57161
5 | 12:42.12 | 2:43.58 | 57162 | 69444
6 | 15:25.70 | 3:42.44 | 69445 | 86138
7 | 19:08.39 | 2:34.69 | 86139 | 97757
8 | 21:43.33 | 3:03.37 | 97758 | 111519
9 | 24:46.70 | 3:26.16 | 111520 | 126985
10 | 28:13.11 | 2:56.72 | 126986 | 140257
11 | 31:10.08 | 3:15.38 | 140258 | 154920
12 | 34:25.46 | 3:03.32 | 154921 | 168677
13 | 37:29.03 | 3:36.24 | 168678 | 184901
14 | 41:05.27 | 2:17.21 | 184902 | 195197
15 | 43:22.48 | 3:03.13 | 195198 | 208935
16 | 46:25.61 | 3:22.07 | 208936 | 224092
17 | 49:47.68 | 3:19.42 | 224093 | 239059
18 | 53:07.35 | 3:31.33 | 239060 | 254917
19 | 56:38.68 | 2:58.05 | 254918 | 268272


Характеристики диапазона извлечения и сообщения об ошибках

Выбранный диапазон

Имя файла C:\Users\Erik\Desktop\Shakin' Stevens - A Whole Lotta Shaky.wav

Пиковый уровень 97.9 %
Скорость извлечения 2.9 X
Качество диапазона 99.9 %
CRC теста 757D90C2
CRC копии 757D90C2
Копирование… OK

Ошибок не произошло


AccurateRip: сводка

Трек 1 : извлечено точно (доверие 9) [760F3A39] (AR v2)
Трек 2 : извлечено точно (доверие 9) [8CDA1315] (AR v2)
Трек 3 : извлечено точно (доверие 9) [E50A3100] (AR v2)
Трек 4 : извлечено точно (доверие 9) [5C775FED] (AR v2)
Трек 5 : извлечено точно (доверие 9) [1CD5F577] (AR v2)
Трек 6 : извлечено точно (доверие 9) [590AD1F3] (AR v2)
Трек 7 : извлечено точно (доверие 9) [6194401F] (AR v2)
Трек 8 : извлечено точно (доверие 9) [1EC52462] (AR v2)
Трек 9 : извлечено точно (доверие 9) [1B1550EE] (AR v2)
Трек 10 : извлечено точно (доверие 9) [0CC7A9BE] (AR v2)
Трек 11 : извлечено точно (доверие 9) [241C7916] (AR v2)
Трек 12 : извлечено точно (доверие 9) [EFBDD151] (AR v2)
Трек 13 : извлечено точно (доверие 9) [59568E28] (AR v2)
Трек 14 : извлечено точно (доверие 9) [903E186A] (AR v2)
Трек 15 : извлечено точно (доверие 9) [6FD5CE51] (AR v2)
Трек 16 : извлечено точно (доверие 9) [B6D839F3] (AR v2)
Трек 17 : извлечено точно (доверие 9) [250E3808] (AR v2)
Трек 18 : извлечено точно (доверие 9) [03A71F02] (AR v2)
Трек 19 : извлечено точно (доверие 9) [04DDC7ED] (AR v2)

Все треки извлечены точно

Конец отчёта

–– CUETools DB Plugin V2.1.4

[CTDB TOCID: T716jbF8UyUZ3uBD6FUM9Fc1DMc-] found
Submit result: T716jbF8UyUZ3uBD6FUM9Fc1DMc- has been confirmed
Track | CTDB Status
1 | (6/6) Accurately ripped
2 | (6/6) Accurately ripped
3 | (6/6) Accurately ripped
4 | (6/6) Accurately ripped
5 | (6/6) Accurately ripped
6 | (6/6) Accurately ripped
7 | (6/6) Accurately ripped
8 | (6/6) Accurately ripped
9 | (6/6) Accurately ripped
10 | (6/6) Accurately ripped
11 | (6/6) Accurately ripped
12 | (6/6) Accurately ripped
13 | (6/6) Accurately ripped
14 | (6/6) Accurately ripped
15 | (6/6) Accurately ripped
16 | (6/6) Accurately ripped
17 | (6/6) Accurately ripped
18 | (6/6) Accurately ripped
19 | (6/6) Accurately ripped

foobar2000 1.2.6 / Dynamic Range Meter 1.1.1
log date: 2015-07-05 22:27:03

––––––––––––––––––––––––––––––––––––––––
Analyzed: Shakin' Stevens / A Whole Lotta Shaky
––––––––––––––––––––––––––––––––––––––––

DR Peak RMS Duration Track
––––––––––––––––––––––––––––––––––––––––
DR6 -0.18 dB -7.55 dB 2:53 01-What Do You Want To Make Those Eyes At Me For? (Single version)
DR7 -0.25 dB -8.57 dB 3:41 02-How Many Tears You Can Hide
DR7 -0.39 dB -8.40 dB 3:00 03-Jezabel
DR8 -0.40 dB -10.22 dB 3:08 04-Sea Of Love
DR8 -0.21 dB -10.79 dB 2:44 05-True Love (Single version)
DR7 -0.18 dB -8.62 dB 3:43 06-Just One Look
DR7 -0.24 dB -8.02 dB 2:35 07-Oh Julie
DR6 -0.18 dB -7.81 dB 3:03 08-Do You Really Love Me Too
DR5 -0.18 dB -7.42 dB 3:26 09-I'm Gonna Sit Right Down And Write Myself A Letter
DR7 -0.18 dB -8.42 dB 2:57 10-Hello Josephine
DR7 -0.19 dB -9.24 dB 3:16 11-Woman(What Have You Done To Me)
DR7 -0.19 dB -8.30 dB 3:03 12-Heartbeat
DR7 -0.18 dB -9.21 dB 3:36 13-Tired Of Toein' The Line
DR7 -0.18 dB -8.05 dB 2:17 14-Mona Lisa
DR7 -0.35 dB -8.26 dB 3:03 15-Feel The Need In Me (single)
DR7 -0.18 dB -8.64 dB 3:22 16-If I Can't Have You (B-side of 'Feel The Need In Me')
DR9 -0.20 dB -10.38 dB 3:20 17-If I Really Knew (B-side of 'How Many Tears You Can Hide')
DR7 -0.18 dB -8.84 dB 3:31 18-Come On Little Girl(Chrome Sitar) (B-side of 'True Love')
DR7 -0.25 dB -9.21 dB 2:58 19-Jezabel (7'' re-mix single with Art Of Noise)
––––––––––––––––––––––––––––––––––––––––

Number of tracks: 19
Official DR value: DR7

Samplerate: 44100 Hz
Channels: 2
Bits per sample: 16
Bitrate: 970 kbps
Codec: FLAC
================================================================================

[CUETools log; Date: 05.07.2015 22:27:07; Version: 2.1.5]
[CTDB TOCID: T716jbF8UyUZ3uBD6FUM9Fc1DMc-] found.
Track | CTDB Status
1 | (7/7) Accurately ripped
2 | (7/7) Accurately ripped
3 | (7/7) Accurately ripped
4 | (7/7) Accurately ripped
5 | (7/7) Accurately ripped
6 | (7/7) Accurately ripped
7 | (7/7) Accurately ripped
8 | (7/7) Accurately ripped
9 | (7/7) Accurately ripped
10 | (7/7) Accurately ripped
11 | (7/7) Accurately ripped
12 | (7/7) Accurately ripped
13 | (7/7) Accurately ripped
14 | (7/7) Accurately ripped
15 | (7/7) Accurately ripped
16 | (7/7) Accurately ripped
17 | (7/7) Accurately ripped
18 | (7/7) Accurately ripped
19 | (7/7) Accurately ripped
[AccurateRip ID: 0028cc8a-023b0a04-290df813] found.
Track [ CRC | V2 ] Status
01 [cf5486b2|760f3a39] (02+09/11) Accurately ripped
02 [c7eea7bd|8cda1315] (03+09/12) Accurately ripped
03 [d5a2b44c|e50a3100] (03+09/12) Accurately ripped
04 [8edf5837|5c775fed] (03+09/12) Accurately ripped
05 [da30d862|1cd5f577] (03+09/12) Accurately ripped
06 [7bacf926|590ad1f3] (03+09/12) Accurately ripped
07 [372b7c9c|6194401f] (03+09/12) Accurately ripped
08 [bbaee161|1ec52462] (03+09/12) Accurately ripped
09 [a11457f3|1b1550ee] (03+09/12) Accurately ripped
10 [cb2ae0d5|0cc7a9be] (03+09/12) Accurately ripped
11 [c619065f|241c7916] (03+09/12) Accurately ripped
12 [cc4f3206|efbdd151] (03+09/12) Accurately ripped
13 [edc49df8|59568e28] (03+09/12) Accurately ripped
14 [b67de52b|903e186a] (03+09/12) Accurately ripped
15 [74d5d87b|6fd5ce51] (03+09/12) Accurately ripped
16 [f797e119|b6d839f3] (03+09/12) Accurately ripped
17 [b06cc0e9|250e3808] (03+09/12) Accurately ripped
18 [cff8d424|03a71f02] (03+09/12) Accurately ripped
19 [77a02740|04ddc7ed] (03+09/12) Accurately ripped

Track Peak [ CRC32 ] [W/O NULL] [ LOG ]
– 97,9 [757D90C2] [3F3820A8] CRC32
01 97,9 [65DDF50A] [0D6CFBC6]
02 97,1 [657480EC] [2AC5173C]
03 95,6 [53A845F3] [8B191C86]
04 95,5 [290D388B] [D5195234]
05 97,6 [10D09539] [9B1D28C6]
06 97,8 [9FC8C5D1] [89848EA3]
07 97,2 [D0967B07] [22D4851A]
08 97,9 [5A1FCB35] [01FE9602]
09 97,9 [8B1C9D03] [0929C7FB]
10 97,9 [2E4D86D0] [2794BF19]
11 97,8 [ABBBA687] [148A0F35]
12 97,8 [AD5B4B51] [8412B65C]
13 97,9 [1B6B6562] [DDF2E124]
14 97,9 [A50E69D2] [D329789F]
15 96,0 [EBDEFF76] [068432B0]
16 97,9 [835CCC83] [AB8056C9]
17 97,7 [8808085E] [4C2D1477]
18 97,9 [754A821C] [D3CD4F5E]
19 97,1 [430E51AB] [AF697855]

***************

Shakin' Stevens - The Epic Masters (2009) {10CD Box Set}

CD9: Shakin' Stevens - There Are Two Kinds Of Music…Rock'n'Roll (1990/2009)

In a further attempt to update his sound, Stevens' recorded this 1990 album with producer Pete Hammond at Pete Waterman's PWL Studios. In total five singles were released from the album, although the last of these, "My Cutie Cutie", only managed to limp to number 75 in the UK singles chart. Although the singles were released by Epic (as well as the Europe edition of the album), the album itself was issued in the UK by Telstar Records and was supported by a TV advertising campaign. The album was also later released on Ronco. The Epic Masters edition also contains Stevens' last single for Epic, 1992's "Radio". Recorded with the help of Queen drummer Roger Taylor, "Radio" was released in support of The Epic Years, a greatest hits collection which effectively brought to an end Shaky's 14 year relationship with the label.
Track List CD9:

01. Love Attack [03:15]
02. I Might [03:06]
03. Yes I Do [03:07]
04. You Shake Me Up (Re-mix) [02:57]
05. Tell Me [02:59]
06. Tear It Up [02:25]
07. My Cutie Cutie [02:36]
08. The Night Time Is The Right Time [03:49]
09. Pink Champagne [03:23]
10. If I Lose You [03:01]
11. Queen Of The Hop [02:40]
12. Rockin' The Night Away [02:57]
13. Love Attack (Single version) [03:13]
14. Love Won't Stop (B-side of 'I Might') [02:39]
15. Radio (single version) [03:31]
16. Radio (Acoustic) (B-side of 'Radio' 12'') [03:26]
17. Oh Baby Don't (Out Take) (B-side of 'Radio') [02:36]

Exact Audio Copy V1.0 beta 4 from 7. December 2014

Отчёт EAC об извлечении, выполненном 4. июля 2015, 20:47

Shakin' Stevens / There Are Two Kinds Of Music…Rock'n'Roll

Дисковод: ASUS DRW-24F1ST a Adapter: 1 ID: 0

Режим чтения : Достоверность
Использование точного потока : Да
Отключение кэша аудио : Да
Использование указателей C2 : Нет

Коррекция смещения при чтении : 6
Способность читать области Lead-in и Lead-out : Нет
Заполнение пропущенных сэмплов тишиной : Да
Удаление блоков с тишиной в начале и конце : Нет
При вычислениях CRC использовались нулевые сэмплы : Да
Интерфейс : Встроенный Win32-интерфейс для Win NT/2000

Выходной формат : Пользовательский кодировщик
Выбранный битрейт : 128 kBit/s
Качество : Высокий
Добавление ID3-тега : Нет
Утилита сжатия : C:\Program Files\Exact Audio Copy\Flac\flac.exe
Дополнительные параметры : -V -8 -T "Date=%year%" -T "Genre=%genre%" %source%


TOC извлечённого CD

Трек | Старт | Длительность | Начальный сектор | Конечный сектор
––––––––––––––––––––––––––––––––––-
1 | 0:00.00 | 3:14.60 | 0 | 14609
2 | 3:14.60 | 3:05.11 | 14610 | 28495
3 | 6:19.71 | 3:06.18 | 28496 | 42463
4 | 9:26.14 | 2:56.02 | 42464 | 55665
5 | 12:22.16 | 2:58.28 | 55666 | 69043
6 | 15:20.44 | 2:24.41 | 69044 | 79884
7 | 17:45.10 | 2:35.40 | 79885 | 91549
8 | 20:20.50 | 3:48.54 | 91550 | 108703
9 | 24:09.29 | 3:22.70 | 108704 | 123923
10 | 27:32.24 | 3:00.18 | 123924 | 137441
11 | 30:32.42 | 2:39.71 | 137442 | 149437
12 | 33:12.38 | 2:56.04 | 149438 | 162641
13 | 36:08.42 | 3:12.36 | 162642 | 177077
14 | 39:21.03 | 2:38.19 | 177078 | 188946
15 | 41:59.22 | 3:30.10 | 188947 | 204706
16 | 45:29.32 | 3:25.39 | 204707 | 220120
17 | 48:54.71 | 2:35.51 | 220121 | 231796


Характеристики диапазона извлечения и сообщения об ошибках

Выбранный диапазон

Имя файла C:\Users\Erik\Desktop\Shakin' Stevens - There Are Two Kinds Of Music…Rock'n'Roll.wav

Пиковый уровень 99.3 %
Скорость извлечения 6.9 X
Качество диапазона 100.0 %
CRC теста 78802A5A
CRC копии 78802A5A
Копирование… OK

Ошибок не произошло


AccurateRip: сводка

Трек 1 : извлечено точно (доверие 9) [4CBD7C66] (AR v2)
Трек 2 : извлечено точно (доверие 9) [59FC9325] (AR v2)
Трек 3 : извлечено точно (доверие 9) [DBC3424F] (AR v2)
Трек 4 : извлечено точно (доверие 9) [143BDA18] (AR v2)
Трек 5 : извлечено точно (доверие 9) [980B4645] (AR v2)
Трек 6 : извлечено точно (доверие 9) [CC427246] (AR v2)
Трек 7 : извлечено точно (доверие 9) [70D09ED2] (AR v2)
Трек 8 : извлечено точно (доверие 9) [7798C5A6] (AR v2)
Трек 9 : извлечено точно (доверие 9) [9FDAEDD1] (AR v2)
Трек 10 : извлечено точно (доверие 9) [A3039307] (AR v2)
Трек 11 : извлечено точно (доверие 9) [B047FB68] (AR v2)
Трек 12 : извлечено точно (доверие 9) [9582660E] (AR v2)
Трек 13 : извлечено точно (доверие 9) [4D600868] (AR v2)
Трек 14 : извлечено точно (доверие 9) [73C2444B] (AR v2)
Трек 15 : извлечено точно (доверие 9) [0D9C03B1] (AR v2)
Трек 16 : извлечено точно (доверие 9) [FED35FC4] (AR v2)
Трек 17 : извлечено точно (доверие 9) [75E20528] (AR v2)

Все треки извлечены точно

Конец отчёта

–– CUETools DB Plugin V2.1.4

[CTDB TOCID: ucoXKZgoWXIMxxTi3GamBkOEouQ-] found
Submit result: ucoXKZgoWXIMxxTi3GamBkOEouQ- has been confirmed
Track | CTDB Status
1 | (5/5) Accurately ripped
2 | (5/5) Accurately ripped
3 | (5/5) Accurately ripped
4 | (5/5) Accurately ripped
5 | (5/5) Accurately ripped
6 | (5/5) Accurately ripped
7 | (5/5) Accurately ripped
8 | (5/5) Accurately ripped
9 | (5/5) Accurately ripped
10 | (5/5) Accurately ripped
11 | (5/5) Accurately ripped
12 | (5/5) Accurately ripped
13 | (5/5) Accurately ripped
14 | (5/5) Accurately ripped
15 | (5/5) Accurately ripped
16 | (5/5) Accurately ripped
17 | (5/5) Accurately ripped

foobar2000 1.2.6 / Dynamic Range Meter 1.1.1
log date: 2015-07-05 22:39:03

––––––––––––––––––––––––––––––––––––––––
Analyzed: Shakin' Stevens / There Are Two Kinds Of Music…Rock'n'Roll
––––––––––––––––––––––––––––––––––––––––

DR Peak RMS Duration Track
––––––––––––––––––––––––––––––––––––––––
DR7 -0.06 dB -7.43 dB 3:15 01-Love Attack
DR7 -0.06 dB -8.69 dB 3:05 02-I Might
DR7 -0.06 dB -8.85 dB 3:06 03-Yes I Do
DR7 -0.06 dB -8.21 dB 2:56 04-You Shake Me Up (Re-mix)
DR7 -0.06 dB -8.33 dB 2:58 05-Tell Me
DR7 -0.06 dB -7.61 dB 2:25 06-Tear It Up
DR7 -0.06 dB -8.28 dB 2:36 07-My Cutie Cutie
DR7 -0.06 dB -8.23 dB 3:49 08-The Night Time Is The Right Time
DR7 -0.06 dB -7.92 dB 3:23 09-Pink Champagne
DR7 -0.06 dB -9.02 dB 3:00 10-If I Lose You
DR7 -0.06 dB -8.15 dB 2:40 11-Queen Of The Hop
DR7 -0.06 dB -8.56 dB 2:56 12-Rockin' The Night Away
DR8 -0.06 dB -8.64 dB 3:12 13-Love Attack (Single version)
DR7 -0.06 dB -8.34 dB 2:38 14-Love Won't Stop (B-side of 'I Might')
DR6 -0.06 dB -8.04 dB 3:30 15-Radio (single version)
DR8 -0.06 dB -10.24 dB 3:26 16-Radio (Acoustic) (B-side of 'Radio' 12'')
DR8 -0.06 dB -9.16 dB 2:36 17-Oh Baby Don't (Out Take) (B-side of 'Radio')
––––––––––––––––––––––––––––––––––––––––

Number of tracks: 17
Official DR value: DR7

Samplerate: 44100 Hz
Channels: 2
Bits per sample: 16
Bitrate: 1011 kbps
Codec: FLAC
================================================================================

[CUETools log; Date: 05.07.2015 22:36:57; Version: 2.1.5]
[CTDB TOCID: ucoXKZgoWXIMxxTi3GamBkOEouQ-] found.
Track | CTDB Status
1 | (6/6) Accurately ripped
2 | (6/6) Accurately ripped
3 | (6/6) Accurately ripped
4 | (6/6) Accurately ripped
5 | (6/6) Accurately ripped
6 | (6/6) Accurately ripped
7 | (6/6) Accurately ripped
8 | (6/6) Accurately ripped
9 | (6/6) Accurately ripped
10 | (6/6) Accurately ripped
11 | (6/6) Accurately ripped
12 | (6/6) Accurately ripped
13 | (6/6) Accurately ripped
14 | (6/6) Accurately ripped
15 | (6/6) Accurately ripped
16 | (6/6) Accurately ripped
17 | (6/6) Accurately ripped
[AccurateRip ID: 001fd673-0192f766-e70c1211] found.
Track [ CRC | V2 ] Status
01 [6d5fa9ba|4cbd7c66] (02+09/11) Accurately ripped
02 [ebb98ddc|59fc9325] (02+09/11) Accurately ripped
03 [5a3dbdf7|dbc3424f] (02+09/11) Accurately ripped
04 [592cfaf3|143bda18] (02+09/11) Accurately ripped
05 [42f9a5a7|980b4645] (02+09/11) Accurately ripped
06 [f4599cde|cc427246] (02+09/11) Accurately ripped
07 [8cfc42dd|70d09ed2] (02+09/11) Accurately ripped
08 [8476eb95|7798c5a6] (02+09/11) Accurately ripped
09 [70ca3d54|9fdaedd1] (02+09/11) Accurately ripped
10 [f801672f|a3039307] (02+09/11) Accurately ripped
11 [b46fae88|b047fb68] (02+09/11) Accurately ripped
12 [2bb3cca2|9582660e] (02+09/11) Accurately ripped
13 [d15b14dc|4d600868] (03+09/12) Accurately ripped
14 [746404cf|73c2444b] (03+09/12) Accurately ripped
15 [7b467534|0d9c03b1] (03+09/12) Accurately ripped
16 [87c04d6a|fed35fc4] (03+09/12) Accurately ripped
17 [1aa1b060|75e20528] (03+09/12) Accurately ripped

Track Peak [ CRC32 ] [W/O NULL] [ LOG ]
– 99,3 [78802A5A] [CD37F9A0] CRC32
01 99,3 [24192F2A] [30B50237]
02 99,2 [65E558A1] [3B6188AC]
03 99,3 [B20927B7] [4CA28FB7]
04 99,3 [134B6242] [482949C3]
05 99,2 [9214660C] [13A25BBB]
06 99,3 [44EF8AAC] [7252BCDE]
07 99,3 [79060720] [65463045]
08 99,3 [4F9F969F] [9BA7500D]
09 99,3 [F46E48A6] [651740E6]
10 99,3 [26C9FAF3] [906F304B]
11 99,3 [22A31B7E] [DEC5D140]
12 99,3 [F083A35D] [074E69A4]
13 99,3 [4F4F2E48] [30E26115]
14 99,3 [5D390391] [CFCB6C98]
15 99,3 [54F917B5] [409E4398]
16 99,3 [ABEF18FE] [77A1387A]
17 99,3 [A31D0522] [80103D46]

***************

Shakin' Stevens - The Epic Masters (2009) {10CD Box Set}

CD10: Shakin' Stevens - The 12" CD (2009)

The tenth disc of The Epic Masters is entitled The 12" CD and is a collection of some extended mixes previously only issued on Stevens' 12" singles. John Luongo also remixed the 12" version of "Breaking Up My Heart" but unlike "Cry Just A Little Bit" it was not credited as 'Luongo's Mix' and simply became 'Extended Remix' on the vinyl 12" sleeve and label. The "Jezebel (Monster Remix)" was remixed by JJ Jeczalik of The Art Of Noise.
Track List CD10:

01. Cry Just A Little Bit (Luongos Mix) [06:47]
02. Breaking Up My Heart (Extended Mix) [06:55]
03. A Little Boogie Woogie(In The Back Of My Mind) (Boogie Mix) [09:00]
04. Come See About Me (Extended Re Mix) [05:52]
05. Feel The Need In Me (Dance Mix) [05:16]
06. How Many Tears You Can Hide (Dance Mix) [05:16]
07. Jezabel (Monster Re-Mix) [06:46]
08. Love Attack (Extended Version) [05:35]

Exact Audio Copy V1.0 beta 4 from 7. December 2014

Отчёт EAC об извлечении, выполненном 4. июля 2015, 21:06

Shakin' Stevens / The 12'' CD

Дисковод: ASUS DRW-24F1ST a Adapter: 1 ID: 0

Режим чтения : Достоверность
Использование точного потока : Да
Отключение кэша аудио : Да
Использование указателей C2 : Нет

Коррекция смещения при чтении : 6
Способность читать области Lead-in и Lead-out : Нет
Заполнение пропущенных сэмплов тишиной : Да
Удаление блоков с тишиной в начале и конце : Нет
При вычислениях CRC использовались нулевые сэмплы : Да
Интерфейс : Встроенный Win32-интерфейс для Win NT/2000

Выходной формат : Пользовательский кодировщик
Выбранный битрейт : 128 kBit/s
Качество : Высокий
Добавление ID3-тега : Нет
Утилита сжатия : C:\Program Files\Exact Audio Copy\Flac\flac.exe
Дополнительные параметры : -V -8 -T "Date=%year%" -T "Genre=%genre%" %source%


TOC извлечённого CD

Трек | Старт | Длительность | Начальный сектор | Конечный сектор
––––––––––––––––––––––––––––––––––-
1 | 0:00.00 | 6:46.44 | 0 | 30493
2 | 6:46.44 | 6:54.58 | 30494 | 61601
3 | 13:41.27 | 8:59.07 | 61602 | 102033
4 | 22:40.34 | 5:51.43 | 102034 | 128401
5 | 28:32.02 | 5:15.55 | 128402 | 152081
6 | 33:47.57 | 5:15.50 | 152082 | 175756
7 | 39:03.32 | 6:45.38 | 175757 | 206169
8 | 45:48.70 | 5:34.34 | 206170 | 231253


Характеристики диапазона извлечения и сообщения об ошибках

Выбранный диапазон

Имя файла C:\Users\Erik\Desktop\Shakin' Stevens - The 12'' CD.wav

Пиковый уровень 100.0 %
Скорость извлечения 7.0 X
Качество диапазона 100.0 %
CRC теста D415F74F
CRC копии D415F74F
Копирование… OK

Ошибок не произошло


AccurateRip: сводка

Трек 1 : извлечено точно (доверие 6) [34624958] (AR v2)
Трек 2 : извлечено точно (доверие 7) [FC2E0742] (AR v2)
Трек 3 : извлечено точно (доверие 7) [3F7B0552] (AR v2)
Трек 4 : извлечено точно (доверие 7) [D8ADB6AB] (AR v2)
Трек 5 : извлечено точно (доверие 7) [F5263BE0] (AR v2)
Трек 6 : извлечено точно (доверие 7) [7C5969EE] (AR v2)
Трек 7 : извлечено точно (доверие 7) [F28B73CE] (AR v2)
Трек 8 : извлечено точно (доверие 7) [0E2A8C23] (AR v2)

Все треки извлечены точно

Конец отчёта

–– CUETools DB Plugin V2.1.4

[CTDB TOCID: Bs3JvZDN7FatXmT0BBY5VZMQ068-] found
Submit result: Bs3JvZDN7FatXmT0BBY5VZMQ068- has been confirmed
Track | CTDB Status
1 | (7/7) Accurately ripped
2 | (7/7) Accurately ripped
3 | (7/7) Accurately ripped
4 | (7/7) Accurately ripped
5 | (7/7) Accurately ripped
6 | (7/7) Accurately ripped
7 | (7/7) Accurately ripped
8 | (7/7) Accurately ripped

foobar2000 1.2.6 / Dynamic Range Meter 1.1.1
log date: 2015-07-05 22:08:58

––––––––––––––––––––––––––––––––––––––––
Analyzed: Shakin' Stevens / The 12'' CD
––––––––––––––––––––––––––––––––––––––––

DR Peak RMS Duration Track
––––––––––––––––––––––––––––––––––––––––
DR7 -0.07 dB -8.60 dB 6:47 01-Cry Just A Little Bit (Luongos Mix)
DR7 -0.10 dB -8.39 dB 6:55 02-Breaking Up My Heart (Extended Mix)
DR8 0.00 dB -9.10 dB 8:59 03-A Little Boogie Woogie(In The Back Of My Mind) (Boogie Mix)
DR7 0.00 dB -8.92 dB 5:52 04-Come See About Me (Extended Re Mix)
DR7 -0.07 dB -7.92 dB 5:16 05-Feel The Need In Me (Dance Mix)
DR7 -0.10 dB -8.60 dB 5:16 06-How Many Tears You Can Hide (Dance Mix)
DR7 -0.10 dB -9.10 dB 6:46 07-Jezabel (Monster Re-Mix)
DR7 -0.07 dB -8.31 dB 5:34 08-Love Attack (Extended Version)
––––––––––––––––––––––––––––––––––––––––

Number of tracks: 8
Official DR value: DR7

Samplerate: 44100 Hz
Channels: 2
Bits per sample: 16
Bitrate: 983 kbps
Codec: FLAC
================================================================================

[CUETools log; Date: 05.07.2015 22:09:00; Version: 2.1.5]
[CTDB TOCID: Bs3JvZDN7FatXmT0BBY5VZMQ068-] found.
Track | CTDB Status
1 | (8/8) Accurately ripped
2 | (8/8) Accurately ripped
3 | (8/8) Accurately ripped
4 | (8/8) Accurately ripped
5 | (8/8) Accurately ripped
6 | (8/8) Accurately ripped
7 | (8/8) Accurately ripped
8 | (8/8) Accurately ripped
[AccurateRip ID: 00109933-006d6562-5d0c0b08] found.
Track [ CRC | V2 ] Status
01 [816dee88|34624958] (02+06/08) Accurately ripped
02 [12cb7ad0|fc2e0742] (03+07/10) Accurately ripped
03 [a8730813|3f7b0552] (03+07/10) Accurately ripped
04 [6874feff|d8adb6ab] (03+07/10) Accurately ripped
05 [4c4b803a|f5263be0] (03+07/10) Accurately ripped
06 [1a00ff53|7c5969ee] (03+07/10) Accurately ripped
07 [9baa030e|f28b73ce] (03+07/10) Accurately ripped
08 [f46cdad0|0e2a8c23] (03+07/10) Accurately ripped

Track Peak [ CRC32 ] [W/O NULL] [ LOG ]
– 100,0 [D415F74F] [6D621509] CRC32
01 99,2 [C3AF6AA7] [3E86A84C]
02 98,8 [593655AD] [351753FE]
03 100,0 [27DA3D97] [FC9CBA6A]
04 100,0 [6387E704] [75937D96]
05 99,2 [7C1254EF] [7C87EFF8]
06 98,8 [E35B326B] [2A581EB3]
07 98,8 [D3C22D1A] [13669D74]
08 99,2 [4DB0504A] [878733D8]

Shakin' Stevens - The Epic Masters (2009) {10CD Box Set}


All thanks go to Erik

>>> Shakin' Stevens in my Blog <<<

DOWNLOAD: