Tags
Language
Tags
June 2024
Su Mo Tu We Th Fr Sa
26 27 28 29 30 31 1
2 3 4 5 6 7 8
9 10 11 12 13 14 15
16 17 18 19 20 21 22
23 24 25 26 27 28 29
30 1 2 3 4 5 6

Roy Clark - Timeless: The Classic Concert Performances (2008)

Posted By: Designol
Roy Clark - Timeless: The Classic Concert Performances (2008)

Roy Clark - Timeless: The Classic Concert Performances (2008)
EAC | FLAC | Tracks (Cue&Log) ~ 436 Mb | Mp3 (CBR320) ~ 184 Mb | Scans included
Label: Varèse Sarabande | # 302 066 909 2 | Time: 01:09:28
Country-Pop, Nashville Sound, Instrumental Country, Guitar Virtuoso

This collection is compiled from two of Roy Clark's biggest and most popular live albums, Roy Clark Live!, and In Concert, These recordings have been unavailable for almost 30 years. The release also features two tracks with Buck Trent on banjo.

Timeless: The Classic Concert Performances contains tracks taken from Roy Clark's albums Roy Clark Live! and In Concert, both originally issued on ABC/Dot in 1972 and 1976, respectively. Highlights among the 17 tracks are "Yesterday When I Was Young," "Green Green Grass of Home," and a medley that contains the hits "Come Live with Me," "The Tips of My Fingers," and a reprise of "Yesterday When I Was Young".

Al Campbell, Allmusic.com

Master multi-instrumentalist Roy Clark is most broadly known for his 1969 crossover hit "Yesterday, When I Was Young" and the cornpone personality he played for more than two decades on the television program Hee Haw. But long before Hee Haw, Clark made a name as a musician, winning two national banjo championships as a teenager, appearing on the Grand Ole Opry, and appearing on regional television programs. Though well-known to country audiences, his 1969 pop success and the debut of Hee Haw provided national exposure that led to guest hosting slots on The Tonight Show and touring stops in showrooms of Las Vegas. His live shows had always proved him an entertainer who was both a deft comedian and a consummate musician. The seventeen tracks collected here, cherry-picked from a pair of live albums (1972's Roy Clark Live! And 1976's In Concert), were recorded at two long-gone Las Vegas hotels, and include generous helpings of Clark's humorous between-song patter, his hit singles, and extensive demonstration of his prowess on guitar, banjo and fiddle.

In an era when country music's mavericks were getting edgy, Clark provided twangy music in a comfortable adult-contemporary context. The breadth of his offerings is impressive, including hot-picked versions of "Foggy Mountain Breakdown," "Orange Blossom Special" and "Riders in the Sky," the old-timey "Alabama Bound," a cover of Wilbert Harrison's "Kansas City" that shows Clark a winning R&B picker, pop-country tunes "Thank God and Greyhound" and "Green Green Grass of Home" (the latter of which he colors with jokey new lyrics), and the full-on adult-contemporary sound of "Yesterday, When I Was Young." His eight-minute version of "Dueling Banjos" pits him in a master class battle against fellow five-string legend Buck Trent, and Clark's classical guitar technique is displayed on a dramatic version of "Malagueña."

Clark's show was geared to his mainstream audience of the time, with jokes about hippies and Geritol and a band that sounds more Vegas than Opry. Even so, he wove together genuine musical artistry with comedy schtick as only a master entertainer could manage. Taken from the peak of his mainstream popularity, these tracks have been out of print for over thirty years and are a vast improvement over the latter-day Branson-era live material that's been available on CD. This is a great introduction to the vast range of Clark's talents, as a musician and as a comedian, but mostly as an all-around entertainer.

Review by hyperbolium, Amazon.com

Roy Clark - Timeless: The Classic Concert Performances (2008)



Tracklist:

01. Introduction / Alabama Jubilee (2:33)
02. Kansas City (4:35)
03. Thank God and Greyhound (7:57)
04. Under the Double Eagle (2:56)
05. Foggy Mountain Breakdown (Banjo Solo) (2:00)
06. Orange Blossom Special (Fiddle Solo) (5:43)
07. Yesterday, When I Was Young (4:20)
08. Green, Green Grass of Home (2:23)
09. The Lawrence Welk-Hee Haw Counter-Revolution Polka (2:54)
10. Rocky Top (3:39)
11. Riders in the Sky (2:58)
12. Medley: Come Live With Me; Honeymoon Feeling; The Tips of My Fingers;
Thank God and Greyhound; Yesterday When I Was Young;
I Never Picked Cotton; Sally Was a Good Old Girl (5:58)
13. If I Had to Do It All Over Again (2:45)
14. Dueling Banjos (8:04)
15. Back Up and Push (2:27)
16. Think Summer (3:46)
17. Malagueña (4:30)


Exact Audio Copy V1.0 beta 1 from 15. November 2010

EAC extraction logfile from 6. January 2011, 14:21

Roy Clark / Timeless: The Classic Concert Performances

Used drive : Optiarc DVD RW AD-7203A Adapter: 4 ID: 0

Read mode : Secure
Utilize accurate stream : Yes
Defeat audio cache : Yes
Make use of C2 pointers : No

Read offset correction : 48
Overread into Lead-In and Lead-Out : No
Fill up missing offset samples with silence : Yes
Delete leading and trailing silent blocks : No
Null samples used in CRC calculations : Yes
Used interface : Native Win32 interface for Win NT & 2000
Gap handling : Appended to previous track

Used output format : User Defined Encoder
Selected bitrate : 768 kBit/s
Quality : High
Add ID3 tag : No
Command line compressor : C:\Program Files\Exact Audio Copy\Flac\flac.exe
Additional command line options : -8 -V -T "ARTIST=%a" -T "TITLE=%t" -T "ALBUM=%g" -T "DATE=%y" -T "TRACKNUMBER=%n" -T "TOTALTRACKS=%x" -T "GENRE=%m" -T "ALBUMARTIST=%v" -T "ALBUM ARTIST=%v" -T "COMMENT=EAC FLAC -8" %s


TOC of the extracted CD

Track | Start | Length | Start sector | End sector
––––––––––––––––––––––––––––-
1 | 0:00.00 | 2:33.32 | 0 | 11506
2 | 2:33.32 | 4:35.20 | 11507 | 32151
3 | 7:08.52 | 7:56.54 | 32152 | 67905
4 | 15:05.31 | 2:55.63 | 67906 | 81093
5 | 18:01.19 | 2:00.19 | 81094 | 90112
6 | 20:01.38 | 5:43.02 | 90113 | 115839
7 | 25:44.40 | 4:19.53 | 115840 | 135317
8 | 30:04.18 | 2:23.24 | 135318 | 146066
9 | 32:27.42 | 2:54.12 | 146067 | 159128
10 | 35:21.54 | 3:39.25 | 159129 | 175578
11 | 39:01.04 | 2:57.46 | 175579 | 188899
12 | 41:58.50 | 5:57.56 | 188900 | 215730
13 | 47:56.31 | 2:45.22 | 215731 | 228127
14 | 50:41.53 | 8:04.31 | 228128 | 264458
15 | 58:46.09 | 2:26.72 | 264459 | 275480
16 | 61:13.06 | 3:45.42 | 275481 | 292397
17 | 64:58.48 | 4:29.41 | 292398 | 312613


Track 1

Filename C:\Fet's Lossless Rips\01 - Introduction - Alabama Jubilee.wav

Pre-gap length 0:00:02.00

Peak level 94.3 %
Extraction speed 1.8 X
Track quality 99.9 %
Test CRC 02F48E4D
Copy CRC 02F48E4D
Accurately ripped (confidence 2) [EE8D269F]
Copy OK

Track 2

Filename C:\Fet's Lossless Rips\02 - Kansas City.wav

Peak level 86.7 %
Extraction speed 2.3 X
Track quality 99.9 %
Test CRC 93F08DCF
Copy CRC 93F08DCF
Accurately ripped (confidence 2) [E201863B]
Copy OK

Track 3

Filename C:\Fet's Lossless Rips\03 - Thank God and Greyhound.wav

Peak level 97.7 %
Extraction speed 3.2 X
Track quality 100.0 %
Test CRC 5DC281FE
Copy CRC 5DC281FE
Accurately ripped (confidence 2) [43DB7B7D]
Copy OK

Track 4

Filename C:\Fet's Lossless Rips\04 - Under the Double Eagle.wav

Peak level 91.0 %
Extraction speed 3.1 X
Track quality 100.0 %
Test CRC ECBED9EE
Copy CRC ECBED9EE
Accurately ripped (confidence 2) [9502F7A9]
Copy OK

Track 5

Filename C:\Fet's Lossless Rips\05 - Foggy Mountain Breakdown (Banjo Solo).wav

Peak level 97.7 %
Extraction speed 2.9 X
Track quality 100.0 %
Test CRC 90E6C69A
Copy CRC 90E6C69A
Accurately ripped (confidence 2) [C6456173]
Copy OK

Track 6

Filename C:\Fet's Lossless Rips\06 - Orange Blossom Special (Fiddle Solo).wav

Peak level 97.7 %
Extraction speed 3.4 X
Track quality 99.9 %
Test CRC 9A405526
Copy CRC 9A405526
Accurately ripped (confidence 2) [F6428D5B]
Copy OK

Track 7

Filename C:\Fet's Lossless Rips\07 - Yesterday, When I Was Young.wav

Peak level 97.7 %
Extraction speed 3.8 X
Track quality 100.0 %
Test CRC E461A920
Copy CRC E461A920
Accurately ripped (confidence 2) [205311F8]
Copy OK

Track 8

Filename C:\Fet's Lossless Rips\08 - Green, Green Grass of Home.wav

Peak level 97.7 %
Extraction speed 3.5 X
Track quality 100.0 %
Test CRC 1D53AA1A
Copy CRC 1D53AA1A
Accurately ripped (confidence 2) [CC6248F4]
Copy OK

Track 9

Filename C:\Fet's Lossless Rips\09 - The Lawrence Welk-Hee Haw Counter-Revolution Polka.wav

Peak level 97.7 %
Extraction speed 3.9 X
Track quality 100.0 %
Test CRC C124A128
Copy CRC C124A128
Accurately ripped (confidence 2) [6F35FBF5]
Copy OK

Track 10

Filename C:\Fet's Lossless Rips\10 - Rocky Top.wav

Peak level 92.7 %
Extraction speed 4.1 X
Track quality 100.0 %
Test CRC 7D754AC1
Copy CRC 7D754AC1
Accurately ripped (confidence 2) [ECC2F952]
Copy OK

Track 11

Filename C:\Fet's Lossless Rips\11 - Riders in the Sky.wav

Peak level 93.0 %
Extraction speed 4.0 X
Track quality 100.0 %
Test CRC 8F8EA203
Copy CRC 8F8EA203
Accurately ripped (confidence 2) [7356002D]
Copy OK

Track 12

Filename C:\Fet's Lossless Rips\12 - Medley.wav

Peak level 97.7 %
Extraction speed 4.7 X
Track quality 100.0 %
Test CRC 0ED9F67D
Copy CRC 0ED9F67D
Accurately ripped (confidence 2) [979F2B17]
Copy OK

Track 13

Filename C:\Fet's Lossless Rips\13 - If I Had to Do It All Over Again.wav

Peak level 97.7 %
Extraction speed 4.3 X
Track quality 100.0 %
Test CRC 0BBA6BF7
Copy CRC 0BBA6BF7
Accurately ripped (confidence 2) [B50813FD]
Copy OK

Track 14

Filename C:\Fet's Lossless Rips\14 - Dueling Banjos.wav

Peak level 94.7 %
Extraction speed 5.1 X
Track quality 100.0 %
Test CRC 351E7A11
Copy CRC 351E7A11
Accurately ripped (confidence 2) [B82A3365]
Copy OK

Track 15

Filename C:\Fet's Lossless Rips\15 - Back Up and Push.wav

Peak level 77.2 %
Extraction speed 4.5 X
Track quality 100.0 %
Test CRC 0B0CA0C3
Copy CRC 0B0CA0C3
Accurately ripped (confidence 2) [62133E9C]
Copy OK

Track 16

Filename C:\Fet's Lossless Rips\16 - Think Summer.wav

Peak level 90.9 %
Extraction speed 5.0 X
Track quality 100.0 %
Test CRC 3CEBEA53
Copy CRC 3CEBEA53
Accurately ripped (confidence 2) [F8D41A92]
Copy OK

Track 17

Filename C:\Fet's Lossless Rips\17 - Malaguena.wav

Peak level 80.0 %
Extraction speed 5.3 X
Track quality 100.0 %
Test CRC 7ED6EEB5
Copy CRC 7ED6EEB5
Accurately ripped (confidence 2) [4D848E57]
Copy OK


All tracks accurately ripped

No errors occurred

End of status report

==== Log checksum 87F08900D04C9811C841827D7E46C4B6F59136034432875C911308D7FFC1AFA0 ====

[CUETools log; Date: 16.11.2018 9:38:08; Version: 2.1.4]
[CTDB TOCID: yYm5CwkyocJZxZ_Wm6399m2zHcQ-] found.
Track | CTDB Status
1 | (6/6) Accurately ripped
2 | (6/6) Accurately ripped
3 | (6/6) Accurately ripped
4 | (6/6) Accurately ripped
5 | (6/6) Accurately ripped
6 | (6/6) Accurately ripped
7 | (6/6) Accurately ripped
8 | (6/6) Accurately ripped
9 | (6/6) Accurately ripped
10 | (6/6) Accurately ripped
11 | (6/6) Accurately ripped
12 | (6/6) Accurately ripped
13 | (6/6) Accurately ripped
14 | (6/6) Accurately ripped
15 | (6/6) Accurately ripped
16 | (6/6) Accurately ripped
17 | (6/6) Accurately ripped
[AccurateRip ID: 002a9be0-021ab7cf-df104811] found.
Track [ CRC | V2 ] Status
01 [ee8d269f|89d68e6b] (2+2/4) Accurately ripped
02 [e201863b|bb20925e] (2+2/4) Accurately ripped
03 [43db7b7d|ef524b4c] (2+2/4) Accurately ripped
04 [9502f7a9|0b21115c] (2+2/4) Accurately ripped
05 [c6456173|41604c32] (2+2/4) Accurately ripped
06 [f6428d5b|8dd814e3] (2+2/4) Accurately ripped
07 [205311f8|9c638c82] (2+2/4) Accurately ripped
08 [cc6248f4|a9c96397] (2+2/4) Accurately ripped
09 [6f35fbf5|0405d393] (2+2/4) Accurately ripped
10 [ecc2f952|0e6dd567] (2+2/4) Accurately ripped
11 [7356002d|0b149a98] (2+2/4) Accurately ripped
12 [979f2b17|a3582363] (2+2/4) Accurately ripped
13 [b50813fd|311f0a0d] (2+2/4) Accurately ripped
14 [b82a3365|7bfa475d] (2+2/4) Accurately ripped
15 [62133e9c|792b1f16] (2+2/4) Accurately ripped
16 [f8d41a92|01cbb521] (2+2/4) Accurately ripped
17 [4d848e57|dc191a27] (2+2/4) Accurately ripped

Track Peak [ CRC32 ] [W/O NULL] [ LOG ]
– 97,7 [D615FBAC] [14031003]
01 94,3 [02F48E4D] [A1FBA56A] CRC32
02 86,7 [93F08DCF] [0A802884] CRC32
03 97,7 [5DC281FE] [10DBE140] CRC32
04 91,0 [ECBED9EE] [0D0B7E80] CRC32
05 97,7 [90E6C69A] [3FEB9929] CRC32
06 97,7 [9A405526] [C94AE705] CRC32
07 97,7 [E461A920] [1902531D] CRC32
08 97,7 [1D53AA1A] [A8C020C4] CRC32
09 97,7 [C124A128] [74F199D5] CRC32
10 92,7 [7D754AC1] [E7E16CEC] CRC32
11 93,0 [8F8EA203] [5EE3B44D] CRC32
12 97,7 [0ED9F67D] [44B72FDB] CRC32
13 97,7 [0BBA6BF7] [4269AA0B] CRC32
14 94,7 [351E7A11] [CFAB252F] CRC32
15 77,2 [0B0CA0C3] [B16E7E07] CRC32
16 90,9 [3CEBEA53] [414BE14D] CRC32
17 80,0 [7ED6EEB5] [2F96ECDE] CRC32

foobar2000 1.2 / Dynamic Range Meter 1.1.1
log date: 2018-11-16 09:41:35

––––––––––––––––––––––––––––––––––––––––
Analyzed: Roy Clark / Timeless: The Classic Concert Performances
––––––––––––––––––––––––––––––––––––––––

DR Peak RMS Duration Track
––––––––––––––––––––––––––––––––––––––––
DR12 -0.50 dB -16.24 dB 2:33 01-Introduction / Alabama Jubilee
DR14 -1.24 dB -19.63 dB 4:35 02-Kansas City
DR16 -0.20 dB -22.75 dB 7:57 03-Thank God and Greyhound
DR13 -0.81 dB -16.30 dB 2:56 04-Under the Double Eagle
DR13 -0.20 dB -17.78 dB 2:00 05-Foggy Mountain Breakdown (Banjo Solo)
DR16 -0.20 dB -21.18 dB 5:43 06-Orange Blossom Special (Fiddle Solo)
DR15 -0.20 dB -20.62 dB 4:20 07-Yesterday, When I Was Young
DR13 -0.20 dB -17.98 dB 2:23 08-Green, Green Grass of Home
DR14 -0.20 dB -16.12 dB 2:54 09-The Lawrence Welk-Hee Haw Counter-Revolution Polka
DR14 -0.66 dB -18.12 dB 3:39 10-Rocky Top
DR13 -0.62 dB -16.61 dB 2:58 11-Riders in the Sky
DR14 -0.20 dB -18.52 dB 5:58 12-Medley: Come Live With Me / Honeymoon Feeling / The Tips of My Fingers / Thank God and Greyhound / Yesterday When I Was Young / I Never Picked Cotton / Sally Was a Good Old Girl
DR14 -0.20 dB -16.45 dB 2:45 13-If I Had to Do It All Over Again
DR16 -0.47 dB -22.72 dB 8:04 14-Dueling Banjos
DR12 -2.24 dB -17.67 dB 2:27 15-Back Up and Push
DR15 -0.83 dB -18.14 dB 3:46 16-Think Summer
DR15 -1.94 dB -23.62 dB 4:30 17-Malagueña
––––––––––––––––––––––––––––––––––––––––

Number of tracks: 17
Official DR value: DR14

Samplerate: 44100 Hz
Channels: 2
Bits per sample: 16
Bitrate: 748 kbps
Codec: FLAC
================================================================================

Roy Clark - Timeless: The Classic Concert Performances (2008)

Roy Clark - Timeless: The Classic Concert Performances (2008)

All thanks to original releaser

More interesting music in My Blog