Tags
Language
Tags
November 2022
Su Mo Tu We Th Fr Sa
30 31 1 2 3 4 5
6 7 8 9 10 11 12
13 14 15 16 17 18 19
20 21 22 23 24 25 26
27 28 29 30 1 2 3

Rory Gallagher - Jinx (1982) {2018, 24-bit Remaster}

Posted By: popsakov
Rory Gallagher - Jinx (1982) {2018, 24-bit Remaster}

Rory Gallagher - Jinx (1982) {2018, 24-bit Remaster}
EAC Rip | FLAC (Img) + Cue + Log ~ 359 Mb | MP3 CBR320 ~ 148 Mb
Full Scans | 00:46:20 | RAR 5% Recovery
Blues Rock, Hard Rock, Classic Rock, British Blues | UMC #5797715

Rory Gallagher sounds inspired throughout JInx, gamely leading new drummer Brendan O'Neill and keyboardist Bob Andrews through the blues-rock paces, even though the guitarist's personal fortunes were on a downslide from which they would never recover. "Big Guns" and "Bourbon," the album's opening selections find Rory in full fiery form, tossing out muscular guitar lines and fiery solos with descriptive lyrics catering to his infatuation with American gangsters. The album also features two of his best, and least known, songs in the spooky, paranoid title track, complete with simmering sax section, boiling tom-tom drums as well as his own stealthy harmonica, and "Easy Come Easy Go," a beautiful, bluesy ballad where Rory double tracks his acoustic and electric guitars. Gallagher's tough vocals take on a new emotional depth not previously heard, and are particularly poignant throughout. Diving into the blues, Lightnin' Slims' "Nothin' but the Devil," one of the two songs added for this reissue, is an acoustic solo showpiece revealing Gallagher's delta roots and substantial slide abilities. Louisiana Red's "Ride On Red, Ride On" is a crackling double-time burner with Rory charging through with an appropriately whisky-soaked approach and a shimmering electric slide solo. Another extra track, "Lonely Mile," a finished tune previously omitted due to the time restrictions of vinyl, is a worthy addition to Gallagher's mid-tempo grinding rocker catalog. Although not his best album, Jinx is a tough and confident release, and it's 2000 reappearance after being difficult to find for almost 20 years, especially in this pristine edition, is reason to rejoice for Rory Gallagher fans.

~ Hal Horowitz, All Music

***************

Rory Gallagher - Jinx (1982) {2018, 24-bit Remaster}

Rory Gallagher - Jinx (1982) {2018, 24-bit Remaster}

Track List:

01. Signals [4:38]
02. The Devil Made Me Do It [2:54]
03. Double Vision [4:52]
04. Easy Come, Easy Go [5:08]
05. Big Guns [3:30]
06. Jinxed [5:11]
07. Bourbon [3:55]
08. Ride On Red, Ride On [4:20]
09. Loose Talk [3:54]
10. Nothin' But The Devil [3:09]
11. Lonely Mile [4:50]

Personnel:
Rory Gallagher - Vocals, Guitars, Harmonica
Gerry McAvoy - Bass
Brendan O'Neill - Drums

With:
Bob Andrew - Keyboard
Ray Beavis & Dick Perry - Sax

Exact Audio Copy V1.3 from 2. September 2016

EAC extraction logfile from 11. November 2019, 10:51

Rory Gallagher / JINX

Used drive : ATAPI iHAS122 C Adapter: 1 ID: 0

Read mode : Secure
Utilize accurate stream : Yes
Defeat audio cache : Yes
Make use of C2 pointers : No

Read offset correction : 6
Overread into Lead-In and Lead-Out : No
Fill up missing offset samples with silence : Yes
Delete leading and trailing silent blocks : No
Null samples used in CRC calculations : Yes
Used interface : Native Win32 interface for Win NT & 2000

Used output format : Internal WAV Routines
Sample format : 44.100 Hz; 16 Bit; Stereo


TOC of the extracted CD

Track | Start | Length | Start sector | End sector
––––––––––––––––––––––––––––-
1 | 0:00.00 | 4:37.55 | 0 | 20829
2 | 4:37.55 | 2:54.32 | 20830 | 33911
3 | 7:32.12 | 4:51.48 | 33912 | 55784
4 | 12:23.60 | 5:07.54 | 55785 | 78863
5 | 17:31.39 | 3:29.41 | 78864 | 94579
6 | 21:01.05 | 5:11.35 | 94580 | 117939
7 | 26:12.40 | 3:54.67 | 117940 | 135556
8 | 30:07.32 | 4:19.66 | 135557 | 155047
9 | 34:27.23 | 3:53.51 | 155048 | 172573
10 | 38:20.74 | 3:09.35 | 172574 | 186783
11 | 41:30.34 | 4:49.43 | 186784 | 208501


Range status and errors

Selected range

Filename C:\Users\44740\Desktop\Rory Gallagher - JINX.wav

Peak level 97.0 %
Extraction speed 7.9 X
Range quality 100.0 %
Test CRC 1852CE42
Copy CRC 1852CE42
Copy OK

No errors occurred


AccurateRip summary

Track 1 accurately ripped (confidence 8) [07D2BEAC] (AR v2)
Track 2 accurately ripped (confidence 8) [58F2C38A] (AR v2)
Track 3 accurately ripped (confidence 8) [A3F96FB2] (AR v2)
Track 4 accurately ripped (confidence 8) [EC3FB308] (AR v2)
Track 5 accurately ripped (confidence 8) [C8C930BE] (AR v2)
Track 6 accurately ripped (confidence 8) [C92893E7] (AR v2)
Track 7 accurately ripped (confidence 8) [3489D2FB] (AR v2)
Track 8 accurately ripped (confidence 8) [2EDC74FE] (AR v2)
Track 9 accurately ripped (confidence 8) [77526FB5] (AR v2)
Track 10 accurately ripped (confidence 8) [0DDA4841] (AR v2)
Track 11 accurately ripped (confidence 8) [BC82AB2A] (AR v2)

All tracks accurately ripped

End of status report

–– CUETools DB Plugin V2.1.6

[CTDB TOCID: 7W7u1ocHIleUaZRGTm9tYz4lt.U-] found
Submit result: 7W7u1ocHIleUaZRGTm9tYz4lt.U- has been confirmed
Track | CTDB Status
1 | (32/32) Accurately ripped
2 | (32/32) Accurately ripped
3 | (32/32) Accurately ripped
4 | (32/32) Accurately ripped
5 | (32/32) Accurately ripped
6 | (32/32) Accurately ripped
7 | (32/32) Accurately ripped
8 | (32/32) Accurately ripped
9 | (32/32) Accurately ripped
10 | (32/32) Accurately ripped
11 | (32/32) Accurately ripped


==== Log checksum 2BB5CF96EC00AB73DA280158918467BF84825691877A6C01482861B4E6F57472 ====

[CUETools log; Date: 11.11.2019 16:32:00; Version: 2.1.6]
[CTDB TOCID: 7W7u1ocHIleUaZRGTm9tYz4lt.U-] found.
Track | CTDB Status
1 | (33/33) Accurately ripped
2 | (33/33) Accurately ripped
3 | (33/33) Accurately ripped
4 | (33/33) Accurately ripped
5 | (33/33) Accurately ripped
6 | (33/33) Accurately ripped
7 | (33/33) Accurately ripped
8 | (33/33) Accurately ripped
9 | (33/33) Accurately ripped
10 | (33/33) Accurately ripped
11 | (33/33) Accurately ripped
[AccurateRip ID: 00133b58-00a69161-920adc0b] found.
Track [ CRC | V2 ] Status
01 [f492cc20|07d2beac] (0+8/8) Accurately ripped
02 [a1d8e1a0|58f2c38a] (0+8/8) Accurately ripped
03 [53b95c11|a3f96fb2] (0+8/8) Accurately ripped
04 [006221b0|ec3fb308] (0+8/8) Accurately ripped
05 [ce3add0b|c8c930be] (0+8/8) Accurately ripped
06 [00581205|c92893e7] (0+8/8) Accurately ripped
07 [df41d679|3489d2fb] (0+8/8) Accurately ripped
08 [eb8d7de8|2edc74fe] (0+8/8) Accurately ripped
09 [53427cc2|77526fb5] (0+8/8) Accurately ripped
10 [66b751d4|0dda4841] (0+8/8) Accurately ripped
11 [f3029810|bc82ab2a] (0+8/8) Accurately ripped

Track Peak [ CRC32 ] [W/O NULL] [ LOG ]
– 97,0 [1852CE42] [558894ED] CRC32
01 97,0 [04C9321E] [677AE0F1]
02 97,0 [2A6586C6] [F11EF23F]
03 97,0 [7906ABAC] [89987808]
04 97,0 [46C3A24E] [8466BE04]
05 97,0 [9E495659] [876AA7AA]
06 97,0 [CD96EEA9] [D580B9F8]
07 97,0 [D6B150BC] [861EF27D]
08 97,0 [113CA0C3] [C4AFA6B2]
09 97,0 [B60FD41A] [FBE715C8]
10 91,2 [3F637511] [E57EDD8F]
11 97,0 [C651531F] [C9B623E0]

Rory Gallagher - Jinx (1982) {2018, 24-bit Remaster}


All thanks go to London

>>> Rory Gallagher in my Blog <<<

DOWNLOAD: