Tags
Language
Tags

Room - Pre-Flight (1970) [Reissue 2008] (Re-up)

Posted By: gribovar
Room - Pre-Flight (1970) [Reissue 2008] (Re-up)

Room - Pre-Flight (1970) [Reissue 2008]
EAC Rip | FLAC (tracks+.cue+log) - 238 MB | MP3 CBR 320 kbps (LAME 3.93) - 94 MB | Covers - 26 MB
Genre: Progressive Rock | RAR 3% Rec. | Label: Esoreric Recordings (ECLEC2043)

Recorded at the Decca studios in the summer of 1970, Room's Pre-Flight was an ambitious blend of rock, blues, jazz and classical influences. The album was critically well received but unfortunately like many strong releases of this genre at the time on the classic Deram label, did not achieve the hoped for breakthrough to greater commercial success. Room's only recorded work, the album has been re-mastered from the original analogue tapes and is now presented in this definitive edition from Esoteric Recordings.

Tracklist:
01. Pre-Flight (Parts I and II)
02. Where Did I Go Wrong?
03. No Warmth In My Life
04. Big John Blues
05. Andromeda
06. War
07. Cemetery Junction (Parts I and II)

Total time: 39:53

Exact Audio Copy V0.99 prebeta 4 from 23. January 2008

EAC extraction logfile from 17. May 2009, 8:39

Room / Pre-Flight

Used drive : ASUS DRW-2014S1 Adapter: 1 ID: 0

Read mode : Secure
Utilize accurate stream : Yes
Defeat audio cache : Yes
Make use of C2 pointers : No

Read offset correction : 6
Overread into Lead-In and Lead-Out : No
Fill up missing offset samples with silence : Yes
Delete leading and trailing silent blocks : No
Null samples used in CRC calculations : Yes
Used interface : Installed external ASPI interface
Gap handling : Appended to previous track

Used output format : User Defined Encoder
Selected bitrate : 768 kBit/s
Quality : High
Add ID3 tag : No
Command line compressor : C:\Program Files\Exact Audio Copy\FLAC\FLAC.EXE
Additional command line options : -6 -V -T "ARTIST=%a" -T "TITLE=%t" -T "ALBUM=%g" -T "DATE=%y" -T "TRACKNUMBER=%n" -T "GENRE=%m" -T "COMMENT=%e" %s -o %d


TOC of the extracted CD

Track | Start | Length | Start sector | End sector
––––––––––––––––––––––––––––-
1 | 0:00.00 | 8:59.29 | 0 | 40453
2 | 8:59.29 | 5:28.66 | 40454 | 65119
3 | 14:28.20 | 4:35.37 | 65120 | 85781
4 | 19:03.57 | 2:34.42 | 85782 | 97373
5 | 21:38.24 | 5:08.67 | 97374 | 120540
6 | 26:47.16 | 4:35.41 | 120541 | 141206
7 | 31:22.57 | 8:30.26 | 141207 | 179482


Track 1

Filename C:\byPr0gger\Room - Pre-Flight (1970 - 2008, Esoteric) 24-bit remaster[FLAC]\01. Pre-Flight - Parts I & II.wav

Pre-gap length 0:00:02.00

Peak level 98.8 %
Track quality 100.0 %
Test CRC D2A5423D
Copy CRC D2A5423D
Track not present in AccurateRip database
Copy OK

Track 2

Filename C:\byPr0gger\Room - Pre-Flight (1970 - 2008, Esoteric) 24-bit remaster[FLAC]\02. Where Did I Go Wrong.wav

Pre-gap length 0:00:02.82

Peak level 98.8 %
Track quality 100.0 %
Test CRC 5B2E47A0
Copy CRC 5B2E47A0
Track not present in AccurateRip database
Copy OK

Track 3

Filename C:\byPr0gger\Room - Pre-Flight (1970 - 2008, Esoteric) 24-bit remaster[FLAC]\03. No Warmth In My Life.wav

Pre-gap length 0:00:02.78

Peak level 98.8 %
Track quality 100.0 %
Test CRC 2CB0DEC3
Copy CRC 2CB0DEC3
Track not present in AccurateRip database
Copy OK

Track 4

Filename C:\byPr0gger\Room - Pre-Flight (1970 - 2008, Esoteric) 24-bit remaster[FLAC]\04. Big John Blues.wav

Pre-gap length 0:00:02.73

Peak level 98.8 %
Track quality 100.0 %
Test CRC 16E6FD51
Copy CRC 16E6FD51
Track not present in AccurateRip database
Copy OK

Track 5

Filename C:\byPr0gger\Room - Pre-Flight (1970 - 2008, Esoteric) 24-bit remaster[FLAC]\05. Andromeda.wav

Pre-gap length 0:00:02.76

Peak level 98.8 %
Track quality 100.0 %
Test CRC AA6E690D
Copy CRC AA6E690D
Track not present in AccurateRip database
Copy OK

Track 6

Filename C:\byPr0gger\Room - Pre-Flight (1970 - 2008, Esoteric) 24-bit remaster[FLAC]\06. War.wav

Pre-gap length 0:00:02.86

Peak level 98.8 %
Track quality 100.0 %
Test CRC B6A6FFCF
Copy CRC B6A6FFCF
Track not present in AccurateRip database
Copy OK

Track 7

Filename C:\byPr0gger\Room - Pre-Flight (1970 - 2008, Esoteric) 24-bit remaster[FLAC]\07. Cemetery Junction - Parts I & II.wav

Pre-gap length 0:00:02.81

Peak level 98.8 %
Track quality 100.0 %
Test CRC 1BE6B01C
Copy CRC 1BE6B01C
Track not present in AccurateRip database
Copy OK


None of the tracks are present in the AccurateRip database

No errors occurred

End of status report

[CUETools log; Date: 26.06.2022 15:29:53; Version: 2.1.4]
[CTDB TOCID: e3oC.qMPrFUC365dbtFZDfPkG90-] found.
Track | CTDB Status
1 | (10/11) Accurately ripped
2 | (11/11) Accurately ripped
3 | (11/11) Accurately ripped
4 | (11/11) Accurately ripped
5 | (11/11) Accurately ripped
6 | (11/11) Accurately ripped
7 | (11/11) Accurately ripped
[AccurateRip ID: 000b2369-0040e882-4f095907] found.
Track [ CRC | V2 ] Status
01 [a832561c|b41a923b] (00+14/16) Accurately ripped
02 [61170d1e|26669e3d] (00+14/16) Accurately ripped
03 [1543ee10|ed7fbbc2] (00+14/16) Accurately ripped
04 [9a68243e|a59ce4aa] (00+14/16) Accurately ripped
05 [cf46fcf0|bb693ee3] (00+14/16) Accurately ripped
06 [1bd6cc0a|5de63a15] (00+14/16) Accurately ripped
07 [0c8638b0|72987d6b] (00+14/16) Accurately ripped
Offsetted by -180:
01 [393dd910] (02/16) Accurately ripped
02 [85503b12] (02/16) Accurately ripped
03 [99b30ddc] (02/16) Accurately ripped
04 [f878ab76] (02/16) Accurately ripped
05 [c60c3d18] (02/16) Accurately ripped
06 [7d81e2aa] (02/16) Accurately ripped
07 [ee571658] (02/16) Accurately ripped

Track Peak [ CRC32 ] [W/O NULL] [ LOG ]
– 98,8 [E261C4CA] [FAD81FE6]
01 98,8 [D2A5423D] [03645049] CRC32
02 98,8 [5B2E47A0] [8DD2BD30] CRC32
03 98,8 [2CB0DEC3] [7EB469E6] CRC32
04 98,8 [16E6FD51] [3E4A5476] CRC32
05 98,8 [AA6E690D] [ACED9010] CRC32
06 98,8 [B6A6FFCF] [785A5EBA] CRC32
07 98,8 [1BE6B01C] [4C7BD0D0] CRC32

Thanks to pr0gger