Subcategories

Pulse - Worlds Apart (2004)

Posted By: Andi_Deris
Pulse - Worlds Apart (2004)

Pulse - Worlds Apart (2004)
EAC Rip | FLAC: Image+Cue+Log | 507 Mb | MP3 CBR 320 kbps | 159 Mb | Scans | 61 Mb | Time: 59:16
Genre: Melodic Hard Rock, AOR | Label: MTM Music/CD-Maximum | CDM CD1004-2041

2004's Worlds Apart was the second and final release from UK melodic rockers Pulse. Pulse, which features members of Bob Catley's supporting band, delivers a polished, classy brand of AOR that obviously draws inspiration from classic bands like Journey and Foreigner.

Pulse - Worlds Apart (2004)


Track Listing

01. Nothing I Can Do About It (05:33)
02. Worlds Apart (05:16)
03. Price Of Loving You (05:30)
04. Talk To My Heart (06:11)
05. Lost Without You (05:38)
06. You Re Not Alone (05:13)
07. Feels Like The First Time (05:07)
08. Break The Chain (05:44)
09. Do It All Again (05:52)
10. In Your Eyes (04:16)
11. No Turning Back (04:59)

Produced by Vince O'Regan

The Band

• Simon Abbotts - Vocals
• Vince O'Regan (Bob Catley, Eden, Alibi, Legion, Holy Rage) - Guitar, Keyboards & Vocals
• Andy Mills (Escape, Alibi) - Bass
• Scott Barrow - Drums
• Lee Small - Backing Vocals

Pulse - Worlds Apart (2004)


Exact Audio Copy V1.0 beta 3 from 29. August 2011

EAC extraction logfile from 11. November 2012, 12:25

Pulse / Worlds Apart

Used drive : SlimtypeDVD A DS8A5SH Adapter: 0 ID: 1

Read mode : Secure
Utilize accurate stream : Yes
Defeat audio cache : Yes
Make use of C2 pointers : No

Read offset correction : 6
Overread into Lead-In and Lead-Out : No
Fill up missing offset samples with silence : Yes
Delete leading and trailing silent blocks : No
Null samples used in CRC calculations : Yes
Used interface : Native Win32 interface for Win NT & 2000

Used output format : User Defined Encoder
Selected bitrate : 320 kBit/s
Quality : High
Add ID3 tag : No
Command line compressor : C:\Program Files (x86)\Exact Audio Copy\Flac\flac.exe
Additional command line options : -V -8 -T "Date=%year%" -T "Genre=%genre%" %source%


TOC of the extracted CD

Track | Start | Length | Start sector | End sector
––––––––––––––––––––––––––––-
1 | 0:00.00 | 5:32.66 | 0 | 24965
2 | 5:32.66 | 5:15.57 | 24966 | 48647
3 | 10:48.48 | 5:29.09 | 48648 | 73331
4 | 16:17.57 | 6:10.58 | 73332 | 101139
5 | 22:28.40 | 5:37.46 | 101140 | 126460
6 | 28:06.11 | 5:11.74 | 126461 | 149859
7 | 33:18.10 | 5:06.66 | 149860 | 172875
8 | 38:25.01 | 5:43.50 | 172876 | 198650
9 | 44:08.51 | 5:51.50 | 198651 | 225025
10 | 50:00.26 | 4:15.16 | 225026 | 244166
11 | 54:15.42 | 4:58.55 | 244167 | 266571
12 | 61:46.22 | 1:41.68 | 277972 | 285614


Range status and errors

Selected range

Filename D:\My Music\Pulse - 2004 Worlds Apart\Pulse - Worlds Apart.wav

Peak level 99.9 %
Extraction speed 3.0 X
Range quality 100.0 %
Test CRC DD6F6F2D
Copy CRC DD6F6F2D
Copy OK

No errors occurred


AccurateRip summary

Track 1 accurately ripped (confidence 1) [E70DF5C1] (AR v1)
Track 2 accurately ripped (confidence 1) [5F3C1D77] (AR v1)
Track 3 accurately ripped (confidence 1) [09C6C832] (AR v1)
Track 4 accurately ripped (confidence 1) [438410B4] (AR v1)
Track 5 accurately ripped (confidence 1) [A62D273B] (AR v1)
Track 6 accurately ripped (confidence 1) [94ECB936] (AR v1)
Track 7 accurately ripped (confidence 1) [DEC71C07] (AR v1)
Track 8 accurately ripped (confidence 1) [178056B0] (AR v1)
Track 9 accurately ripped (confidence 1) [DA4451FC] (AR v1)
Track 10 accurately ripped (confidence 1) [16826F11] (AR v1)
Track 11 accurately ripped (confidence 1) [0B2F7ACA] (AR v1)

All tracks accurately ripped

End of status report

==== Log checksum B6D3ABBB11AAABC71D0B660D04521D14A42EF328B34067BE0933743BD25E32E8 ====


Many thanks to the original uploader: kolushew