Tags
Language
Tags

Peter Jablonski - Grażyna Bacewicz: Piano Works (2022)

Posted By: ArlegZ
Peter Jablonski - Grażyna Bacewicz: Piano Works (2022)

Peter Jablonski - Grażyna Bacewicz: Piano Works (2022)
EAC | FLAC | Image (Cue & Log) ~ 211 Mb | Total time: 71:24 | Scans included
Classical | Label: Ondine | # ODE 1399-2 | Recorded: 2021

This album is pianist Peter Jablonski’s third solo album for the Ondine label. In this album Jablonski represents Grazyna Bacewicz’s (1909–1969) dazzling piano etudes and piano sonatas which are hardly known outside of her native Poland. Jablonski’s piano albums have received an enthusiastic response and his previous album release received Editor’s Choice from the Gramophone magazine.

Performer:
Peter Jablonski, piano

Track List:
Grażyna Bacewicz (1909–1969)
01. Concert Krakowiak (Krakowiak koncertowy) (1949)
02-11. Ten Concert Etudes (1956–57)
12-13. Two Etudes on Double Notes (Dwie etiudy na podwójne dźwięki) (1955)
14-17. Piano Sonata No. 1 (1949)
18-20. Piano Sonata No. 2 (1953)


Exact Audio Copy V1.6 from 23. October 2020

EAC extraction logfile from 27. June 2022, 21:48

Peter Jablonski / Bacewicz - Piano Works

Used drive : ASUS SDRW-08U7M-U Adapter: 1 ID: 0

Read mode : Secure
Utilize accurate stream : Yes
Defeat audio cache : Yes
Make use of C2 pointers : No

Read offset correction : 6
Overread into Lead-In and Lead-Out : No
Fill up missing offset samples with silence : Yes
Delete leading and trailing silent blocks : No
Null samples used in CRC calculations : Yes
Used interface : Native Win32 interface for Win NT & 2000

Used output format : User Defined Encoder
Selected bitrate : 128 kBit/s
Quality : High
Add ID3 tag : No
Command line compressor : C:\Program Files (x86)\Exact Audio Copy\Flac\flac.exe
Additional command line options : -V -8 -T "Date=%year%" -T "Genre=%genre%" %source%


TOC of the extracted CD

Track | Start | Length | Start sector | End sector
––––––––––––––––––––––––––––-
1 | 0:00.00 | 6:41.66 | 0 | 30140
2 | 6:41.66 | 2:35.69 | 30141 | 41834
3 | 9:17.60 | 1:42.15 | 41835 | 49499
4 | 11:00.00 | 2:34.28 | 49500 | 61077
5 | 13:34.28 | 1:35.18 | 61078 | 68220
6 | 15:09.46 | 3:25.32 | 68221 | 83627
7 | 18:35.03 | 2:06.14 | 83628 | 93091
8 | 20:41.17 | 1:59.38 | 93092 | 102054
9 | 22:40.55 | 3:22.17 | 102055 | 117221
10 | 26:02.72 | 1:36.05 | 117222 | 124426
11 | 27:39.02 | 1:50.73 | 124427 | 132749
12 | 29:30.00 | 3:21.32 | 132750 | 147856
13 | 32:51.32 | 2:48.11 | 147857 | 160467
14 | 35:39.43 | 5:43.25 | 160468 | 186217
15 | 41:22.68 | 4:28.47 | 186218 | 206364
16 | 45:51.40 | 3:12.68 | 206365 | 220832
17 | 49:04.33 | 4:48.23 | 220833 | 242455
18 | 53:52.56 | 6:47.07 | 242456 | 272987
19 | 60:39.63 | 7:04.33 | 272988 | 304820
20 | 67:44.21 | 3:36.41 | 304821 | 321061


Range status and errors

Selected range

Filename C:\temp\Bacewicz - Piano Works - Jablonski - 2022\Bacewicz - Piano Works.wav

Peak level 98.8 %
Extraction speed 5.2 X
Range quality 99.9 %
Test CRC C09BEA64
Copy CRC C09BEA64
Copy OK

No errors occurred


AccurateRip summary

Track 1 accurately ripped (confidence 1) [9EFE44D5] (AR v2)
Track 2 accurately ripped (confidence 1) [11218A34] (AR v2)
Track 3 accurately ripped (confidence 1) [86F06975] (AR v2)
Track 4 accurately ripped (confidence 1) [F80751C2] (AR v2)
Track 5 accurately ripped (confidence 1) [D6CEC9DB] (AR v2)
Track 6 accurately ripped (confidence 1) [F64DF17C] (AR v2)
Track 7 accurately ripped (confidence 1) [211660E9] (AR v2)
Track 8 accurately ripped (confidence 1) [2B9502E6] (AR v2)
Track 9 accurately ripped (confidence 1) [4B8E095E] (AR v2)
Track 10 accurately ripped (confidence 1) [FA49C3AC] (AR v2)
Track 11 accurately ripped (confidence 1) [23B90E0C] (AR v2)
Track 12 accurately ripped (confidence 1) [3DDAAA0A] (AR v2)
Track 13 accurately ripped (confidence 1) [5EF9AFAD] (AR v2)
Track 14 accurately ripped (confidence 1) [94A0DA1B] (AR v2)
Track 15 accurately ripped (confidence 1) [64638262] (AR v2)
Track 16 accurately ripped (confidence 1) [EACD60D9] (AR v2)
Track 17 accurately ripped (confidence 1) [91276AEF] (AR v2)
Track 18 accurately ripped (confidence 1) [B14554FD] (AR v2)
Track 19 accurately ripped (confidence 1) [D2036DF3] (AR v2)
Track 20 accurately ripped (confidence 1) [9C74083B] (AR v2)

All tracks accurately ripped

End of status report

==== Log checksum 79A7F21F6316E837DC800FA6DCF6201C559D9867A935C64C2FE4992242CE4809 ====

Peter Jablonski - Grażyna Bacewicz: Piano Works (2022)

Thanks to the original releaser