Tags
Language
Tags

Pat Benatar - The Very Best Of Pat Benatar (1994)

Posted By: Designol
Pat Benatar - The Very Best Of Pat Benatar (1994)

Pat Benatar - The Very Best Of Pat Benatar (1994)
EAC | FLAC | Image (Cue&Log) ~ 487 Mb | Mp3 (CBR320) ~ 181 Mb | Scans included | 01:11:50
Rock, Hard Rock, Pop Rock, New Wave | Label: Chrysalis | # 7243 8 28408 2 4, CDCHR 6070

This is a great reminder of what the best 1980s pop/rock sounded like. It includes most of Pat Benatar's hits, with the unfortunate omission of I Need A Lover, the passionate melodic churner from 1979. It also includes her best album tracks like the poignant Hell Is For Children but her excellent version of Kate Bush's Wuthering Heights is missing. Benatar specialised in powerful rock numbers with strong power chords and catchy hooks, delivered to full effect in her belting voice, like Heartbreaker, Hit Me With Your Best Shot and Love Is A Battlefield. In this sense Benatar was something like a female Meat Loaf and in fact not too far from Bonnie Tyler. But there were also the quiter songs in a more tender voice, like the synth-driven We Live For Love, a pop classic. With 18 tracks, this is a better compilation than Best Shots with its 15 tracks.

Review by Peter Uys, Amazon.com

Pat Benatar's polished mainstream pop/rock made her one of the more popular female vocalists of the early '80s. Although she came on like an arena rocker with her power chords, tough sexuality, and powerful vocals, her music was straight pop/rock underneath all the bluster. Born Patricia Andrzejewski on January 10, 1953, in Greenpoint, Brooklyn, the singer was raised in the nearby town of Lindenhurst on Long Island, New York. Benatar began singing regularly in the New York City area in the '70s, where she was discovered at the Catch a Rising Star club and signed by Chrysalis Records. A stellar band led by guitarist Neil Geraldo (who the singer would later marry), provided the perfect accompaniment that was able to effortlessly alternate between rockers and ballads. Benatar quickly established herself as one of rock's top vocalists, scoring a hit right off the bat with her debut album, 1979's In the Heat of the Night, which spawned such radio favorites as "Heartbreaker" and "I Need a Lover" (the latter of which was written by a then unknown John Mellencamp).

Benatar's sophomore effort, 1980's Crimes of Passion, more than delivered on the debut's promise and it's often considered to be the finest recording of her career. Spurred on by such classic rock radio standards as "Hit Me with Your Best Shot," "Treat Me Right," and "You Better Run," the album was certified platinum shortly after its release and Benatar became a certified arena headliner in the U.S. She also became one of the most-played artists during MTV's early days, received several Grammy Awards around this time, and continued to enjoy massive hits and sold-out tours throughout the early and mid-'80s. She released such albums as 1981's Precious Time, 1982's Get Nervous, 1983's Live from Earth, 1984's Tropico, 1985's Seven the Hard Way, and 1988's Wide Awake in Dreamland, plus the singles "Fire & Ice," "Promises in the Dark," "Shadows of the Night," "Love Is a Battlefield," "We Belong," and "Invincible." But by the end of the decade, it appeared that Benatar had fallen of the face of the Earth as the hits seemed to dry up.

Benatar opted to shift musical gears and issue an album of blues and R&B, 1991's True Love, which failed to return the singer to the top of the charts. She returned to her patented arena rock sound with such further studio releases as 1993's Gravity's Rainbow and 1997's Innamorata (although the latter was largely acoustic-based), and while the albums didn't exactly measure up to her earlier releases, both were solid efforts. The late '90s saw a pair of live archival releases hit record store shelves, 1998's 8-15-80 and 1999's The King Biscuit Flower Hour Live, in addition to countless hits collections (although the best of the bunch proved to be 1989's Best Shots, which remains a steady seller). The singer began touring again in the middle of the decade (after taking a five-year hiatus from the road), co-headlining shows with REO Speedwagon, Fleetwood Mac, the Steve Miller Band, and Styx. She also continued to dabble in acting, appearing in the ABC Afterschool Special Torn Between Two Fathers and on various sitcoms. In August 2003, Benatar returned to recording with Go (Vanguard), her first studio LP since 1997's Innamorata. The LP revisited the arena rock/MOR sound that had defined Benatar's career, and was accompanied by an extensive tour.

Benatar's next big project was the 2010 publication of her memoir, Between a Heart and a Rock Place. Following that, she and Neil Giraldo regularly toured, including a 35th Anniversary blow-out that began in 2014 and ran into 2015, a year that also saw a commemorative live CD/DVD release of the tour.

Greg Prato, Allmusic.com

Pat Benatar - The Very Best Of Pat Benatar (1994)



Tracklist:

01. Heartbreaker (3:27)
02. We Live For Love (3:54)
03. Promises In The Dark (4:49)
04. Fire And Ice (3:16)
05. Ooh Ooh Song (4:09)
06. Hit Me With Your Best Shot (2:51)
07. Shadows Of The Night (3:39)
08. Anxiety (Get Nervous) (3:42)
09. I Want Out (3:44)
10. Lipstick Lies (3:51)
11. Love Is A Battlefield (4:06)
12. We Belong (3:40)
13. All Fired Up (4:29)
14. Hell Is For Children (4:50)
15. Invincible (4:00)
16. Somebody's Baby (4:22)
17. Everybody Lay Down (4:20)
18. True Love (4:39)


Exact Audio Copy V1.0 beta 3 from 29. August 2011

Отчёт EAC об извлечении, выполненном 12. января 2012, 12:47

Pat Benatar / The Very Best Of

Дисковод: TEAC DV-W518GM Adapter: 2 ID: 0

Режим чтения : Достоверность
Использование точного потока : Да
Отключение кэша аудио : Да
Использование указателей C2 : Нет

Коррекция смещения при чтении : 6
Способность читать области Lead-in и Lead-out : Нет
Заполнение пропущенных сэмплов тишиной : Да
Удаление блоков с тишиной в начале и конце : Нет
При вычислениях CRC использовались нулевые сэмплы : Да
Интерфейс : Установленный внешний ASPI-интерфейс

Выходной формат : Пользовательский кодировщик
Выбранный битрейт : 128 kBit/s
Качество : Высокий
Добавление ID3-тега : Нет
Утилита сжатия : C:\Program Files (x86)\Exact Audio Copy\Flac\flac.exe
Дополнительные параметры : -V -8 -T "Genre=%genre%" -T "Artist=%artist%" -T "Title=%title%" -T "Album=%albumtitle%" -T "Date=%year%" -T "Tracknumber=%tracknr%" -T "Comment=%comment%" %source%


TOC извлечённого CD

Трек | Старт | Длительность | Начальный сектор | Конечный сектор
––––––––––––––––––––––––––––––––––-
1 | 0:00.00 | 3:26.42 | 0 | 15491
2 | 3:26.42 | 3:54.23 | 15492 | 33064
3 | 7:20.65 | 4:49.30 | 33065 | 54769
4 | 12:10.20 | 3:16.05 | 54770 | 69474
5 | 15:26.25 | 4:09.35 | 69475 | 88184
6 | 19:35.60 | 2:51.07 | 88185 | 101016
7 | 22:26.67 | 3:39.13 | 101017 | 117454
8 | 26:06.05 | 3:42.10 | 117455 | 134114
9 | 29:48.15 | 3:43.47 | 134115 | 150886
10 | 33:31.62 | 3:50.53 | 150887 | 168189
11 | 37:22.40 | 4:06.32 | 168190 | 186671
12 | 41:28.72 | 3:40.10 | 186672 | 203181
13 | 45:09.07 | 4:29.18 | 203182 | 223374
14 | 49:38.25 | 4:50.17 | 223375 | 245141
15 | 54:28.42 | 4:00.15 | 245142 | 263156
16 | 58:28.57 | 4:22.05 | 263157 | 282811
17 | 62:50.62 | 4:19.70 | 282812 | 302306
18 | 67:10.57 | 4:39.28 | 302307 | 323259


Характеристики диапазона извлечения и сообщения об ошибках

Выбранный диапазон

Имя файла E:\MUZON\Pat Benatar\Pat Benatar\Pat Benatar - The Very Best Of.wav

Пиковый уровень 89.1 %
Скорость извлечения 3.5 X
Качество диапазона 100.0 %
CRC теста 02039D35
CRC копии 02039D35
Копирование… OK

Ошибок не произошло

Конец отчёта

==== Контрольная сумма отчёта 4D4E26601947A96A97543E5D2733B95E66E5DEA69145199BB177EDD46A10D3E8 ====

[CUETools log; Date: 30.05.2018 22:47:36; Version: 2.1.4]
[CTDB TOCID: dIdVnDaxoIS9l_IHqurljooNJM8-] found.
Track | CTDB Status
1 | (203/245) Accurately ripped
2 | (199/245) Accurately ripped
3 | (197/245) Accurately ripped
4 | (197/245) Accurately ripped
5 | (198/245) Accurately ripped
6 | (200/245) Accurately ripped
7 | (199/245) Accurately ripped
8 | (199/245) Accurately ripped
9 | (197/245) Accurately ripped
10 | (198/245) Accurately ripped
11 | (197/245) Accurately ripped
12 | (197/245) Accurately ripped
13 | (197/245) Accurately ripped
14 | (197/245) Accurately ripped
15 | (198/245) Accurately ripped
16 | (199/245) Accurately ripped
17 | (195/245) Accurately ripped
18 | (199/245) Accurately ripped
[AccurateRip ID: 002d347e-025e2c0b-ea10d612] found.
Track [ CRC | V2 ] Status
01 [2a8e432e|2893eacc] (062+090/209) Accurately ripped
02 [4a9acaca|7c9f1d6d] (062+091/210) Accurately ripped
03 [dacd79e1|430bf333] (062+091/206) Accurately ripped
04 [db119786|74cfc002] (063+092/210) Accurately ripped
05 [b1d8e943|14ad8261] (063+089/207) Accurately ripped
06 [3cf7af64|6b92e8ad] (065+092/214) Accurately ripped
07 [2fe6ad6c|32f04bd7] (064+092/213) Accurately ripped
08 [b981daad|fa3e68c9] (064+090/209) Accurately ripped
09 [96fb4352|a45e3e12] (064+087/206) Accurately ripped
10 [ce9a3aec|d9607778] (064+089/208) Accurately ripped
11 [d416b516|cba6ea4e] (065+093/213) Accurately ripped
12 [e7ce4c0f|7ffdcbe4] (065+092/211) Accurately ripped
13 [0bdeb3c2|b74eee25] (063+087/206) Accurately ripped
14 [dfec95fe|10fd0564] (063+087/206) Accurately ripped
15 [36216320|7bccae85] (063+087/203) Accurately ripped
16 [e4fff077|e8e97538] (063+089/207) Accurately ripped
17 [4fbb463f|f426f483] (064+088/208) Accurately ripped
18 [b37d3078|875931d4] (065+088/208) Accurately ripped
Offsetted by -900:
01 [450800d6] (002/209) Accurately ripped
02 [146f7306] (002/210) Accurately ripped
03 [0a79182d] (000/206) No match (V2 was not tested)
04 [734b2d8e] (000/210) No match (V2 was not tested)
05 [3fed5203] (002/207) Accurately ripped
06 [8c4ce05c] (002/214) Accurately ripped
07 [f5ea5c00] (002/213) Accurately ripped
08 [d94349d9] (002/209) Accurately ripped
09 [ae158f62] (002/206) Accurately ripped
10 [75b0fd40] (002/208) Accurately ripped
11 [4bb6f4ee] (002/213) Accurately ripped
12 [75f4732b] (000/211) No match (V2 was not tested)
13 [ec681a2a] (002/206) Accurately ripped
14 [49a607ea] (002/206) Accurately ripped
15 [4047fd3c] (002/203) Accurately ripped
16 [ba4e48d7] (002/207) Accurately ripped
17 [5c93a5d3] (002/208) Accurately ripped
18 [d2859b48] (002/208) Accurately ripped
Offsetted by -676:
01 [6ad0ac16] (002/209) Accurately ripped
02 [8e01a1e6] (002/210) Accurately ripped
03 [e470838d] (000/206) No match (V2 was not tested)
04 [93f2e3ce] (002/210) Accurately ripped
05 [2b5b2803] (000/207) No match (V2 was not tested)
06 [a060a21c] (002/214) Accurately ripped
07 [deccffa0] (002/213) Accurately ripped
08 [036be439] (000/209) No match (V2 was not tested)
09 [7bf5fbe2] (000/206) No match (V2 was not tested)
10 [a9670ee0] (000/208) No match (V2 was not tested)
11 [caf455ae] (000/213) No match (V2 was not tested)
12 [32b7c10b] (000/211) No match (V2 was not tested)
13 [7de89b6a] (000/206) No match (V2 was not tested)
14 [d32cc84a] (000/206) No match (V2 was not tested)
15 [7c55231c] (000/203) No match (V2 was not tested)
16 [248153d7] (000/207) No match (V2 was not tested)
17 [1bf09173] (000/208) No match (V2 was not tested)
18 [ffa02d79] (000/208) No match (V2 was not tested)
Offsetted by -30:
01 [5ea3631a] (000/209) No match (V2 was not tested)
02 [f37736cc] (000/210) No match (V2 was not tested)
03 [4b53325b] (000/206) No match (V2 was not tested)
04 [a468d842] (000/210) No match (V2 was not tested)
05 [f2510ee3] (000/207) No match (V2 was not tested)
06 [6a475328] (000/214) No match (V2 was not tested)
07 [c7917782] (000/213) No match (V2 was not tested)
08 [986eb3b7] (000/209) No match (V2 was not tested)
09 [648d34ca] (000/206) No match (V2 was not tested)
10 [431afd22] (000/208) No match (V2 was not tested)
11 [be79ea6a] (000/213) No match (V2 was not tested)
12 [b0cf91a1] (000/211) No match (V2 was not tested)
13 [2cf4594e] (000/206) No match (V2 was not tested)
14 [96a5f7a8] (000/206) No match (V2 was not tested)
15 [8bcd5732] (000/203) No match (V2 was not tested)
16 [96c6d147] (000/207) No match (V2 was not tested)
17 [1cf5afd5] (000/208) No match (V2 was not tested)
18 [499413fa] (000/208) No match (V2 was not tested)
Offsetted by 6:
01 [2023a332] (000/209) No match (V2 was not tested)
02 [c26eb530] (000/210) No match (V2 was not tested)
03 [f77f882f] (000/206) No match (V2 was not tested)
04 [b2ccf0fa] (000/210) No match (V2 was not tested)
05 [d8274823] (000/207) No match (V2 was not tested)
06 [cd815b70] (000/214) No match (V2 was not tested)
07 [119151ce] (000/213) No match (V2 was not tested)
08 [8cec15ab] (000/209) No match (V2 was not tested)
09 [a111463a] (000/206) No match (V2 was not tested)
10 [1db3adae] (000/208) No match (V2 was not tested)
11 [a53610d2] (000/213) No match (V2 was not tested)
12 [26013e25] (000/211) No match (V2 was not tested)
13 [d20d92a6] (000/206) No match (V2 was not tested)
14 [882de8dc] (000/206) No match (V2 was not tested)
15 [be9898b6] (000/203) No match (V2 was not tested)
16 [27d829e7] (000/207) No match (V2 was not tested)
17 [c0493121] (000/208) No match (V2 was not tested)
18 [6245695e] (000/208) No match (V2 was not tested)

Track Peak [ CRC32 ] [W/O NULL] [ LOG ]
– 89,1 [02039D35] [AB793460] CRC32
01 87,4 [41F4B6B9] [CA21F825]
02 63,4 [3A79DECE] [954B9867]
03 89,1 [F06B8228] [5B1480CE]
04 67,2 [57539E94] [27E9836B]
05 78,5 [70169DE8] [9BE7DA5F]
06 89,1 [E0663C17] [BBFFC3B6]
07 89,1 [864D2ABF] [76FEB942]
08 78,4 [44FD437A] [96D029FC]
09 83,5 [A5132796] [0057A732]
10 72,4 [203B8F49] [F9571EC0]
11 79,6 [04DD5F6B] [5B6C2979]
12 89,1 [1A74220C] [8A6D83D6]
13 80,3 [51330C3B] [B675BC06]
14 89,1 [B064C20E] [A1D22602]
15 77,9 [60D3F8B7] [E249A008]
16 75,0 [3D97D04E] [1399D5E5]
17 74,7 [7685C882] [4CE4FE9A]
18 74,5 [59FD2A15] [5474960A]

foobar2000 1.2 / Dynamic Range Meter 1.1.1
log date: 2018-05-30 22:25:30

––––––––––––––––––––––––––––––––––––––––
Analyzed: Pat Benatar / The Very Best Of
––––––––––––––––––––––––––––––––––––––––

DR Peak RMS Duration Track
––––––––––––––––––––––––––––––––––––––––
DR12 -1.16 dB -15.57 dB 3:27 01-Heartbreaker
DR10 -3.96 dB -16.45 dB 3:54 02-We Live For Love
DR12 -1.00 dB -15.61 dB 4:49 03-Promises In The Dark
DR9 -3.44 dB -15.35 dB 3:16 04-Fire And Ice
DR12 -2.10 dB -15.85 dB 4:09 05-Ooh Ooh Song
DR13 -1.00 dB -16.16 dB 2:51 06-Hit Me With Your Best Shot
DR13 -1.00 dB -16.51 dB 3:39 07-Shadows Of The Night
DR11 -2.10 dB -15.87 dB 3:42 08-Anxiety (Get Nervous)
DR12 -1.56 dB -16.26 dB 3:44 09-I Want Out
DR12 -2.80 dB -17.53 dB 3:51 10-Lipstick Lies
DR12 -1.98 dB -15.74 dB 4:06 11-Love Is A Battlefield
DR14 -1.00 dB -18.61 dB 3:40 12-We Belong
DR13 -1.90 dB -17.83 dB 4:29 13-All Fired Up
DR13 -1.00 dB -16.73 dB 4:50 14-Hell Is For Children
DR12 -2.17 dB -16.00 dB 4:00 15-Invincible
DR9 -2.49 dB -12.54 dB 4:22 16-Somebody's Baby
DR8 -2.53 dB -12.20 dB 4:20 17-Everybody Lay Down
DR12 -2.55 dB -16.79 dB 4:39 18-True Love
––––––––––––––––––––––––––––––––––––––––

Number of tracks: 18
Official DR value: DR12

Samplerate: 44100 Hz
Channels: 2
Bits per sample: 16
Bitrate: 917 kbps
Codec: FLAC
================================================================================

Pat Benatar - The Very Best Of Pat Benatar (1994)

Pat Benatar - The Very Best Of Pat Benatar (1994)

All thanks to original releaser

More interesting music in My Blog