Subcategories

VA - Parties Fines (2008)

Posted By: mook45
VA - Parties Fines (2008)

VA - Parties Fines (2008)
A Voluptuous Journey Through French Erotic Cinema - Part 1
EAC | FLAC IMG,CUE+LOG = 282MB | MP3@320 = 119MB | 400 dpi Scans
Soundtrack | Label: Vadim Music - VAD016CD | FSo/FSe


DJ Vadim's label brings us this compilation of sleazy easy listening as used to soundtrack classic French Erotica. '0' et Sir Stephen' was worth the cost of the CD alone.

Tracklisting
1. Disco Circus - Pierre Bachelet
2. Two Partners - Jean Pierre Pouret
3. Kiss - Gizil
4. O' Et Sir Stephen - Pierre Bachelet
5. Motel Show - Pierre Bachelet
6. Introduction Of Love - Jean Pierre Pouret
7. Laure - E. Arzan
8. Stephania - Jean Pierre Pouret
9. La Roulotte - Bachelet
10. Get It Up Baby - Mort Schumann
11. Premiers D├ęsirs - Phillipe Sarde
12. Fascination - Patrick Juvet
13. Femmes - Gizil
14. Bach Anal - Michel Magne
15. Fantasme D'emmanuelle - Michel Magne

Exact Audio Copy V0.99 prebeta 5 from 4. May 2009

EAC extraction logfile from 21. September 2009, 20:55

Diverse / Parties Fines part one

Used drive : HP DVD Writer 1040r Adapter: 1 ID: 0

Read mode : Secure
Utilize accurate stream : Yes
Defeat audio cache : Yes
Make use of C2 pointers : No

Read offset correction : 6
Overread into Lead-In and Lead-Out : No
Fill up missing offset samples with silence : Yes
Delete leading and trailing silent blocks : No
Null samples used in CRC calculations : Yes
Used interface : Native Win32 interface for Win NT & 2000

Used output format : User Defined Encoder
Selected bitrate : 1024 kBit/s
Quality : High
Add ID3 tag : No
Command line compressor : C:\Program Files\Exact Audio Copy\FLAC\FLAC.EXE
Additional command line options : -5 -V -T "ARTIST=%a" -T "TITLE=%t" -T "ALBUM=%g" -T "DATE=%y" -T "TRACKNUMBER=%n" -T "GENRE=%m" -T "COMMENT=EAC Flac 1.1.2 -5" %s


TOC of the extracted CD

Track | Start | Length | Start sector | End sector
––––––––––––––––––––––––––––-
1 | 0:00.00 | 3:09.36 | 0 | 14210
2 | 3:09.36 | 2:57.44 | 14211 | 27529
3 | 6:07.05 | 5:06.67 | 27530 | 50546
4 | 11:13.72 | 3:08.21 | 50547 | 64667
5 | 14:22.18 | 2:32.50 | 64668 | 76117
6 | 16:54.68 | 3:24.18 | 76118 | 91435
7 | 20:19.11 | 5:22.13 | 91436 | 115598
8 | 25:41.24 | 1:43.62 | 115599 | 123385
9 | 27:25.11 | 2:48.15 | 123386 | 136000
10 | 30:13.26 | 3:50.19 | 136001 | 153269
11 | 34:03.45 | 2:44.19 | 153270 | 165588
12 | 36:47.64 | 3:15.11 | 165589 | 180224
13 | 40:03.00 | 4:28.61 | 180225 | 200385
14 | 44:31.61 | 3:33.69 | 200386 | 216429
15 | 48:05.55 | 2:09.11 | 216430 | 226115


Range status and errors

Selected range

Filename C:\Users\Mike3\Desktop\Parties Fines (Flac)\Diverse - Parties Fines part one.wav

Peak level 98.9 %
Range quality 100.0 %
Copy CRC DAD2A2F6
Copy OK

No errors occurred


AccurateRip summary

Track 1 not present in database
Track 2 not present in database
Track 3 not present in database
Track 4 not present in database
Track 5 not present in database
Track 6 not present in database
Track 7 not present in database
Track 8 not present in database
Track 9 not present in database
Track 10 not present in database
Track 11 not present in database
Track 12 not present in database
Track 13 not present in database
Track 14 not present in database
Track 15 not present in database

None of the tracks are present in the AccurateRip database

End of status report


Files
Lame 320 Kbps = 118MB
Flac 778 Kbps = 282MB
200 DPI PDF Booklet (in French and English) 14MB