Boston Symphony Orchestra, Seiji Ozawa - Peter Ilyich Tchaikovsky: Swan Lake, Op. 20 (1979) 2CDs, Reissue 1996

Posted By: Designol
Boston Symphony Orchestra, Seiji Ozawa - Peter Ilyich Tchaikovsky: Swan Lake, Op. 20 (1979) 2CDs, Reissue 1996

Peter Ilyich Tchaikovsky: Swan Lake, Ballet In Four Acts, Op. 20 (1979) 2CDs, Reissue 1996
Boston Symphony Orchestra, conducted by Seiji Ozawa

EAC | FLAC | Image (Cue&Log) ~ 745 Mb (incl 5%) | Mp3 (CBR320) ~ 414 Mb (incl 5%) | Scans included
Genre: Classical | Label: Deutsche Grammophon | # 453 055-2 | Time: 02:30:04

Swan Lake was the first of Tchaikovsky's three great ballets– works which added a new level of depth and sophistication to what had been a purely superficial art form. Today the music is so well-known and popular that it's impossible to comprehend the difficulties the composer experienced at early performances. Audiences found the music "too symphonic," and the dancers were put off by the prominence given to the orchestra which, they felt, distracted ballet fans from the action on stage. Of course, all of these supposed "defects" are precisely what we admire about the music today, and this elegant but exciting performance reveals the music in all of its glory.

David Hurwitz

If you stumble upon the original DG CD issue (415367-2), it will be slightly edited. About four minutes of repeated and previously herad bars will be absent. Back in the 1980's when first issued on CD, the technologhy was just not there to present the performance entirely complete on 2 CD's, as heard on its original 3 LP issue (DG 2709 099). This re-issue (DG 453055-2) has restored all the missing bars. This remains the most exciting complete "Swan Lake" out there. The only complete "Swan Lakes" which are more exciting than this, are the live Ozawa/Boston performances, dating just a week or two before this recording was made by DG; and those live performances are locked in The Boston Symphony Orchestra archives!!

Update: I just noticed (quite some time later) that the pamphlet which comes with this re-issued 453055-2 edition did not get an exactly perfect revision. The restored bars are all on CD # 2, tracks 7, 19, and 20 respectively. The longer playing timings have been updated, but DG missed a couple of details on the text portion. Each number of the score is described in detail, track by track. In the original 415367-2 CD booklet, it is notated in small print after tracks 7, 19, 20 on CD # 2, "abridged." In the 453055-2 booklet, it still says "abridged" in the same areas of the text, although they are now thoroughly complete and restored. Most likely someone didn't proof read thoroughly.

Review by Bertram Christmas, Amazon.com

Boston Symphony Orchestra, Seiji Ozawa - Peter Ilyich Tchaikovsky: Swan Lake, Op. 20 (1979) 2CDs, Reissue 1996



Boston Symphony Orchestra, Seiji Ozawa - Peter Ilyich Tchaikovsky: Swan Lake, Op. 20 (1979) 2CDs, Reissue 1996



Boston Symphony Orchestra
Seiji Ozawa, conductor

Tracklist:

CD1:

ACT 1:
01. Introduction (Moderato assai - Allegro non troppo - Tempo I) (02:51)
02. No. 1. Scène (Allegro giusto) (02:57)
03. No. 2. Valse (Tempo di valse) (07:10)
04. No. 3. Scène (Allegro moderato) (03:49)
05. No. 4. Pas de trois (I. Intrada - Allegro) (02:26)
06. No. 4. Pas de trois (II. Andante sostenuto) (03:20)
07. No. 4. Pas de trois (III. Allegro simplice - Presto) (01:15)
08. No. 4. Pas de trois (IV. Moderato) (01:15)
09. No. 4. Pas de trois (V. Allegro) (01:13)
10. No. 4. Pas de trois (VI. Coda. Allegro vivace) (01:38)
11. No. 5. Pas de deux (I. Tempo di valse … - II. Andante - Allegro) (07:44)
12. No. 5. Pas de deux (III. Tempo di valse) (01:36)
13. No. 5. Pas de deux (IV. Coda. Allegro molto vivace) (01:57)
14. No. 6. Pas d'action (Andantino quasi moderato - Allegro) - No. 7. Sujet (03:50)
15. No. 8. Danse des coupes (Tempo di polacca) (06:48)
16. No. 9. Finale. Sujet (Andante) (02:46)

ACT 2:
17. No. 10. Scène (Moderato) (02:34)
18. No. 11. Scène (Allegro moderato - Moderato - Allegro vivo) (05:33)
19. No. 12. Scène (Allegro - Moderato assai quasi andante) (03:27)
20. No. 13. Danses des cygnes (I. Tempo di valse) (02:25)
21. No. 13. Danses des cygnes (II. Moderato assai) (01:45)
22. No. 13. Danses des cygnes (III. Tempo di valse) (01:42)
23. No. 13. Danses des cygnes (IV. Allegro moderato) (01:31)


CD2:

01. No. 13. Danses des cygnes (V. Pas d'action. Andante - …) (07:19)
02. No. 13. Danses des cygnes (VI. Tempo di valse) (01:25)
03. No. 13. Danses des cygnes (VII. Coda. Allegro vivo) (01:30)
04. No. 14. Scene (Moderato) (02:43)

ACT 3:
05. No. 15. Danse de fancailles (Allegro giusto) (02:37)
06. No. 16. Danses du corps de ballet et des nains (Moderato assai - …) (02:50)
07. No. 17. Scene. Sortie des invites et valse (Allegro - Tempo di valse) (06:40)
08. No. 18. Scene (Allegro - Allegro giusto) (01:39)
09. No. 19. Pas de six. (Intrada. Moderato assai) (02:40)
10. No. 19. Pas de six (Var. I. Allegro - Var. II. Andante con moto) (04:55)
11. No. 19. Pas de six (Var. III. Moderato - Var. IV. Allegro) (01:28)
12. No. 19. Pas de six (Var. V. Moderato - Allegro… - Coda. Allegro molto) (03:07)
13. No. 20. Danse hongroise. Czardas (Moderato assai - Allegro moderato …) (03:02)
14. No. 20a. Danse russe (Moderato - Andante simplice - Allegro vivo-Presto) (04:29)
15. No. 21. Danse espagnole (Allegro non troppo. Tempo di bolero) (02:47)
16. No. 22. Danse napolitaine (Allegro moderato - Andantino … - Presto) (02:08)
17. No. 23. Mazurka (Tempo di mazurka) (03:58)
18. No. 24. Scene (Allegro - Valse - Allegro vivo) (03:35)

ACT 4:
19. No. 25. Entr'acte (Moderato) - No. 26. Scene (Allegro non troppo) (04:57)
20. No. 27. Danses des petits cygnes (Moderato) (05:37)
21. No. 28. Scene (Allegro agitato - Molto meno mosso - Allegro vivace) (03:13)
22. No. 29. Scene finale (Andante - Allegro agitato - Moderato e maest…) (05:38)


Exact Audio Copy V1.0 beta 3 from 29. August 2011

EAC extraction logfile from 10. February 2017, 22:31

Boston Symphony Orchestra, Seiji Ozawa / Tchaikovsky - Swan Lake

Used drive : hp DVD-RAM UJ8D1 Adapter: 0 ID: 0

Read mode : Secure
Utilize accurate stream : Yes
Defeat audio cache : Yes
Make use of C2 pointers : No

Read offset correction : 6
Overread into Lead-In and Lead-Out : No
Fill up missing offset samples with silence : Yes
Delete leading and trailing silent blocks : No
Null samples used in CRC calculations : Yes
Used interface : Native Win32 interface for Win NT & 2000

Used output format : User Defined Encoder
Selected bitrate : 768 kBit/s
Quality : High
Add ID3 tag : No
Command line compressor : C:\Program Files (x86)\Exact Audio Copy\FLAC\FLAC.EXE
Additional command line options : -8 -V -T "ARTIST=%artist%" -T "TITLE=%title%" -T "ALBUM=%albumtitle%" -T "DATE=%year%" -T "TRACKNUMBER=%tracknr%" -T "GENRE=%genre%" -T "PERFORMER=%albuminterpret%" -T "COMPOSER=%composer%" %haslyrics%–tag-from-file=LYRICS="%lyricsfile%"%haslyrics% -T "ALBUMARTIST=%albumartist%" -T "DISCNUMBER=%cdnumber%" -T "TOTALDISCS=%totalcds%" -T "TOTALTRACKS=%numtracks%" -T "COMMENT=%comment%" %source% -o %dest%


TOC of the extracted CD

Track | Start | Length | Start sector | End sector
––––––––––––––––––––––––––––-
1 | 0:00.00 | 2:51.37 | 0 | 12861
2 | 2:51.37 | 2:57.08 | 12862 | 26144
3 | 5:48.45 | 7:10.20 | 26145 | 58414
4 | 12:58.65 | 3:49.10 | 58415 | 75599
5 | 16:48.00 | 2:26.00 | 75600 | 86549
6 | 19:14.00 | 3:20.00 | 86550 | 101549
7 | 22:34.00 | 1:15.05 | 101550 | 107179
8 | 23:49.05 | 1:15.17 | 107180 | 112821
9 | 25:04.22 | 1:13.53 | 112822 | 118349
10 | 26:18.00 | 1:38.00 | 118350 | 125699
11 | 27:56.00 | 7:44.00 | 125700 | 160499
12 | 35:40.00 | 1:36.42 | 160500 | 167741
13 | 37:16.42 | 1:57.33 | 167742 | 176549
14 | 39:14.00 | 3:50.50 | 176550 | 193849
15 | 43:04.50 | 6:48.62 | 193850 | 224511
16 | 49:53.37 | 2:46.38 | 224512 | 236999
17 | 52:40.00 | 2:34.00 | 237000 | 248549
18 | 55:14.00 | 5:33.12 | 248550 | 273536
19 | 60:47.12 | 3:27.63 | 273537 | 289124
20 | 64:15.00 | 2:25.00 | 289125 | 299999
21 | 66:40.00 | 1:45.50 | 300000 | 307924
22 | 68:25.50 | 1:42.25 | 307925 | 315599
23 | 70:08.00 | 1:31.00 | 315600 | 322424


Range status and errors

Selected range

Filename C:\cunctator\Tchaikovsky - Swan Lake (CD1) - Ozawa.wav

Peak level 99.9 %
Extraction speed 5.2 X
Range quality 100.0 %
Test CRC D85B8134
Copy CRC D85B8134
Copy OK

No errors occurred


AccurateRip summary

Track 1 accurately ripped (confidence 6) [7AC341ED] (AR v1)
Track 2 accurately ripped (confidence 6) [CB553861] (AR v1)
Track 3 accurately ripped (confidence 6) [1D91E527] (AR v1)
Track 4 accurately ripped (confidence 5) [2D7743DC] (AR v1)
Track 5 accurately ripped (confidence 5) [160E7D3B] (AR v1)
Track 6 accurately ripped (confidence 5) [F8861DDD] (AR v1)
Track 7 accurately ripped (confidence 5) [082BC6D2] (AR v1)
Track 8 accurately ripped (confidence 5) [EAFFD1D4] (AR v1)
Track 9 accurately ripped (confidence 5) [78ED8127] (AR v1)
Track 10 accurately ripped (confidence 5) [55A2AF04] (AR v1)
Track 11 accurately ripped (confidence 5) [4319C01F] (AR v1)
Track 12 accurately ripped (confidence 5) [58D95465] (AR v1)
Track 13 accurately ripped (confidence 5) [3AD24F46] (AR v1)
Track 14 accurately ripped (confidence 4) [E43D70B9] (AR v1)
Track 15 accurately ripped (confidence 5) [C09AE7A4] (AR v1)
Track 16 accurately ripped (confidence 4) [E163C3B8] (AR v1)
Track 17 accurately ripped (confidence 5) [19019905] (AR v1)
Track 18 accurately ripped (confidence 4) [C5A7C13C] (AR v1)
Track 19 accurately ripped (confidence 5) [6A839872] (AR v1)
Track 20 accurately ripped (confidence 5) [17825649] (AR v1)
Track 21 accurately ripped (confidence 6) [8CF2371F] (AR v1)
Track 22 accurately ripped (confidence 6) [51B99AE5] (AR v1)
Track 23 accurately ripped (confidence 6) [4093A83F] (AR v1)

All tracks accurately ripped

End of status report

==== Log checksum C1B175C05AC3118BE9157845AD19C5D1431FA6B10208FAB1D50EF5B41C38CB69 ====

foobar2000 1.2 / Dynamic Range Meter 1.1.1
log date: 2017-02-17 22:09:11

––––––––––––––––––––––––––––––––––––––––
Analyzed: Boston Symphony Orchestra, Seiji Ozawa / Tchaikovsky - Swan Lake
––––––––––––––––––––––––––––––––––––––––

DR Peak RMS Duration Track
––––––––––––––––––––––––––––––––––––––––
DR12 -0.25 dB -22.86 dB 2:51 01-Act 1 - Introduction (Moderato assai - Allegro non troppo - Tempo I)
DR13 -0.86 dB -18.10 dB 2:57 02-Act 1 - No. 1. Scène (Allegro giusto)
DR13 0.00 dB -19.02 dB 7:10 03-Act 1 - No. 2. Valse (Tempo di valse)
DR14 -0.38 dB -21.54 dB 3:49 04-Act 1 - No. 3. Scène (Allegro moderato)
DR12 -13.29 dB -30.95 dB 2:26 05-Act 1 - No. 4. Pas de trois (I. Intrada - Allegro)
DR11 -18.11 dB -34.31 dB 3:20 06-Act 1 - No. 4. Pas de trois (II. Andante sostenuto)
DR15 -1.29 dB -25.46 dB 1:15 07-Act 1 - No. 4. Pas de trois (III. Allegro simplice - Presto)
DR12 -2.14 dB -18.77 dB 1:15 08-Act 1 - No. 4. Pas de trois (IV. Moderato)
DR13 -7.00 dB -28.86 dB 1:14 09-Act 1 - No. 4. Pas de trois (V. Allegro)
DR12 -0.04 dB -17.08 dB 1:38 10-Act 1 - No. 4. Pas de trois (VI. Coda. Allegro vivace)
DR17 -2.58 dB -26.11 dB 7:44 11-Act 1 - No. 5. Pas de deux (I. Tempo di valse … - II. Andante - Allegro)
DR12 -9.30 dB -30.00 dB 1:37 12-Act 1 - No. 5. Pas de deux (III. Tempo di valse)
DR13 0.00 dB -16.73 dB 1:57 13-Act 1 - No. 5. Pas de deux (IV. Coda. Allegro molto vivace)
DR17 -1.98 dB -26.92 dB 3:51 14-Act 1 - No. 6. Pas d'action (Andantino quasi moderato - Allegro) - No. 7. Sujet
DR13 -0.21 dB -18.22 dB 6:49 15-Act 1 - No. 8. Danse des coupes (Tempo di polacca)
DR13 -0.27 dB -19.95 dB 2:47 16-Act 1 - No. 9. Finale. Sujet (Andante)
DR12 -1.52 dB -19.47 dB 2:34 17-Act 2 - No. 10. Scène (Moderato)
DR14 -0.38 dB -21.81 dB 5:33 18-Act 2 - No. 11. Scène (Allegro moderato - Moderato - Allegro vivo)
DR13 -2.73 dB -23.52 dB 3:28 19-Act 2 - No. 12. Scène (Allegro - Moderato assai quasi andante)
DR14 -6.62 dB -28.60 dB 2:25 20-Act 2 - No. 13. Danses des cygnes (I. Tempo di valse)
DR14 -3.78 dB -26.13 dB 1:46 21-Act 2 - No. 13. Danses des cygnes (II. Moderato assai)
DR11 -11.26 dB -27.61 dB 1:42 22-Act 2 - No. 13. Danses des cygnes (III. Tempo di valse)
DR15 -5.12 dB -34.16 dB 1:31 23-Act 2 - No. 13. Danses des cygnes (IV. Allegro moderato)
––––––––––––––––––––––––––––––––––––––––

Number of tracks: 23
Official DR value: DR13

Samplerate: 44100 Hz
Channels: 2
Bits per sample: 16
Bitrate: 613 kbps
Codec: FLAC
================================================================================


Exact Audio Copy V1.0 beta 3 from 29. August 2011

EAC extraction logfile from 11. February 2017, 0:56

Boston Symphony Orchestra, Seiji Ozawa / Tchaikovsky - Swan Lake

Used drive : hp DVD-RAM UJ8D1 Adapter: 0 ID: 0

Read mode : Secure
Utilize accurate stream : Yes
Defeat audio cache : Yes
Make use of C2 pointers : No

Read offset correction : 6
Overread into Lead-In and Lead-Out : No
Fill up missing offset samples with silence : Yes
Delete leading and trailing silent blocks : No
Null samples used in CRC calculations : Yes
Used interface : Native Win32 interface for Win NT & 2000

Used output format : User Defined Encoder
Selected bitrate : 768 kBit/s
Quality : High
Add ID3 tag : No
Command line compressor : C:\Program Files (x86)\Exact Audio Copy\FLAC\FLAC.EXE
Additional command line options : -8 -V -T "ARTIST=%artist%" -T "TITLE=%title%" -T "ALBUM=%albumtitle%" -T "DATE=%year%" -T "TRACKNUMBER=%tracknr%" -T "GENRE=%genre%" -T "PERFORMER=%albuminterpret%" -T "COMPOSER=%composer%" %haslyrics%–tag-from-file=LYRICS="%lyricsfile%"%haslyrics% -T "ALBUMARTIST=%albumartist%" -T "DISCNUMBER=%cdnumber%" -T "TOTALDISCS=%totalcds%" -T "TOTALTRACKS=%numtracks%" -T "COMMENT=%comment%" %source% -o %dest%


TOC of the extracted CD

Track | Start | Length | Start sector | End sector
––––––––––––––––––––––––––––-
1 | 0:00.32 | 7:19.33 | 32 | 32989
2 | 7:19.65 | 1:25.72 | 32990 | 39436
3 | 8:45.62 | 1:30.08 | 39437 | 46194
4 | 10:15.70 | 2:43.37 | 46195 | 58456
5 | 12:59.32 | 2:37.00 | 58457 | 70231
6 | 15:36.32 | 2:50.48 | 70232 | 83029
7 | 18:27.05 | 6:40.05 | 83030 | 113034
8 | 25:07.10 | 1:39.72 | 113035 | 120531
9 | 26:47.07 | 2:40.70 | 120532 | 132601
10 | 29:28.02 | 4:55.20 | 132602 | 154746
11 | 34:23.22 | 1:28.08 | 154747 | 161354
12 | 35:51.30 | 3:07.02 | 161355 | 175381
13 | 38:58.32 | 3:02.65 | 175382 | 189096
14 | 42:01.22 | 4:29.10 | 189097 | 209281
15 | 46:30.32 | 2:47.00 | 209282 | 221806
16 | 49:17.32 | 2:08.63 | 221807 | 231469
17 | 51:26.20 | 3:58.00 | 231470 | 249319
18 | 55:24.20 | 3:35.12 | 249320 | 265456
19 | 58:59.32 | 4:57.00 | 265457 | 287731
20 | 63:56.32 | 5:37.20 | 287732 | 313026
21 | 69:33.52 | 3:13.10 | 313027 | 327511
22 | 72:46.62 | 5:38.45 | 327512 | 352906


Range status and errors

Selected range

Filename C:\cunctator\Tchaikovsky - Swan Lake (CD2) - Ozawa.wav

Peak level 99.9 %
Extraction speed 2.4 X
Range quality 99.9 %
Test CRC 04B148F0
Copy CRC 04B148F0
Copy OK

No errors occurred


AccurateRip summary

Track 1 accurately ripped (confidence 3) [3815010C] (AR v2)
Track 2 accurately ripped (confidence 3) [BD0C9272] (AR v2)
Track 3 accurately ripped (confidence 3) [6CB338D6] (AR v2)
Track 4 accurately ripped (confidence 3) [FDBA806C] (AR v2)
Track 5 accurately ripped (confidence 3) [422B4E63] (AR v2)
Track 6 accurately ripped (confidence 3) [E4E941BF] (AR v2)
Track 7 accurately ripped (confidence 3) [3743F8AA] (AR v2)
Track 8 accurately ripped (confidence 3) [0671C54F] (AR v2)
Track 9 accurately ripped (confidence 3) [BC165640] (AR v2)
Track 10 accurately ripped (confidence 3) [0D854F87] (AR v2)
Track 11 accurately ripped (confidence 3) [D3AA4EC6] (AR v2)
Track 12 accurately ripped (confidence 3) [CD15A817] (AR v2)
Track 13 accurately ripped (confidence 3) [45D1DE03] (AR v2)
Track 14 accurately ripped (confidence 3) [F05578A5] (AR v2)
Track 15 accurately ripped (confidence 3) [E7772231] (AR v2)
Track 16 accurately ripped (confidence 3) [8575556B] (AR v2)
Track 17 accurately ripped (confidence 3) [F400EB7F] (AR v2)
Track 18 accurately ripped (confidence 3) [1E96EA4D] (AR v2)
Track 19 accurately ripped (confidence 3) [B8E8494B] (AR v2)
Track 20 accurately ripped (confidence 3) [0C5F85A8] (AR v2)
Track 21 accurately ripped (confidence 2) [30973FA0] (AR v2)
Track 22 accurately ripped (confidence 3) [08C17F46] (AR v2)

All tracks accurately ripped

End of status report

==== Log checksum 1EABDF147C9DA587184338117B47B38B0379754F2BD8DEA37692E0726CE0CE3A ====

foobar2000 1.2 / Dynamic Range Meter 1.1.1
log date: 2017-02-17 22:09:40

––––––––––––––––––––––––––––––––––––––––
Analyzed: Boston Symphony Orchestra, Seiji Ozawa / Tchaikovsky - Swan Lake
––––––––––––––––––––––––––––––––––––––––

DR Peak RMS Duration Track
––––––––––––––––––––––––––––––––––––––––
DR19 -3.08 dB -29.85 dB 7:19 01-Act 2 - No. 13. Danses des cygnes (V. Pas d'action. Andante - …)
DR13 -2.78 dB -20.84 dB 1:26 02-Act 2 - No. 13. Danses des cygnes (VI. Tempo di valse)
DR11 -0.27 dB -16.27 dB 1:30 03-Act 2 - No. 13. Danses des cygnes (VII. Coda. Allegro vivo)
DR12 -1.66 dB -19.33 dB 2:43 04-Act 2 - No. 14. Scene (Moderato)
DR13 0.00 dB -16.75 dB 2:37 05-Act 3 - No. 15. Danse de fancailles (Allegro giusto)
DR14 0.00 dB -18.28 dB 2:51 06-Act 3 - No. 16. Danses du corps de ballet et des nains (Moderato assai - …)
DR15 -0.71 dB -24.22 dB 6:40 07-Act 3 - No. 17. Scene. Sortie des invites et valse (Allegro - Tempo di valse)
DR15 0.00 dB -20.73 dB 1:40 08-Act 3 - No. 18. Scene (Allegro - Allegro giusto)
DR15 -0.86 dB -26.26 dB 2:41 09-Act 3 - No. 19. Pas de six. (Intrada. Moderato assai)
DR14 -1.60 dB -23.12 dB 4:55 10-Act 3 - No. 19. Pas de six (Var. I. Allegro - Var. II. Andante con moto)
DR13 -0.45 dB -18.92 dB 1:28 11-Act 3 - No. 19. Pas de six (Var. III. Moderato - Var. IV. Allegro)
DR12 0.00 dB -17.35 dB 3:07 12-Act 3 - No. 19. Pas de six (Var. V. Moderato - Allegro… - Coda. Allegro molto)
DR14 -0.21 dB -20.47 dB 3:03 13-Act 3 - No. 20. Danse hongroise. Czardas (Moderato assai - Allegro moderato …)
DR17 0.00 dB -25.33 dB 4:29 14-Act 3 - No. 20a. Danse russe (Moderato - Andante simplice - Allegro vivo-Presto)
DR14 -1.15 dB -23.23 dB 2:47 15-Act 3 - No. 21. Danse espagnole (Allegro non troppo. Tempo di bolero)
DR13 -0.90 dB -19.17 dB 2:09 16-Act 3 - No. 22. Danse napolitaine (Allegro moderato - Andantino … - Presto)
DR13 -0.93 dB -17.49 dB 3:58 17-Act 3 - No. 23. Mazurka (Tempo di mazurka)
DR11 0.00 dB -17.40 dB 3:35 18-Act 3 - No. 24. Scene (Allegro - Valse - Allegro vivo)
DR18 -0.74 dB -28.02 dB 4:57 19-Act 4 - No. 25. Entr'acte (Moderato) - No. 26. Scene (Allegro non troppo)
DR20 -2.76 dB -29.25 dB 5:37 20-Act 4 - No. 27. Danses des petits cygnes (Moderato)
DR14 -0.72 dB -21.08 dB 3:13 21-Act 4 - No. 28. Scene (Allegro agitato - Molto meno mosso - Allegro vivace)
DR12 0.00 dB -15.59 dB 5:39 22-Act 4 - No. 29. Scene finale (Andante - Allegro agitato - Moderato e maest…)
––––––––––––––––––––––––––––––––––––––––

Number of tracks: 22
Official DR value: DR14

Samplerate: 44100 Hz
Channels: 2
Bits per sample: 16
Bitrate: 614 kbps
Codec: FLAC
================================================================================

Boston Symphony Orchestra, Seiji Ozawa - Peter Ilyich Tchaikovsky: Swan Lake, Op. 20 (1979) 2CDs, Reissue 1996