Tags
Language
Tags

Opeth - In Cauda Venenum (2019) [3CD Extended Edition 2022]

Posted By: gribovar
Opeth - In Cauda Venenum (2019) [3CD Extended Edition 2022]

Opeth - In Cauda Venenum (2019) [3CD Extended Edition 2022]
EAC Rip | FLAC (image+.cue+log) - 1,04 GB | MP3 CBR 320 kbps (LAME 3.93) - 388 MB | Covers - 69 MB
Genre: Progressive Metal | RAR 3% Rec. | Label: Atomic Fire (AF0060CDB)

After concluding their successful co-headline tour through North America, progressive metal legends Opeth finally release "In Cauda Venenum (Extended Edition)". This special edition, available on digipack, contains the English and Swedish versions of Opeth’s latest album "In Cauda Venenum" with new illustrations by internationally renowned Travis Smith in the booklet. In addition, there is also a third CD including 3 unreleased bonus tracks, both in English and Swedish.
In interviews before the release of In Cauda Venenum, Mikael Åkerfeldt, Opeth's vocalist, guitarist, and chief songwriter, stated that "heaviness" was an aesthetic rather than a sound, to explain why he had abandoned death metal. Beginning with 2011's Heritage, Opeth made a conscious shift toward progressive rock that has, as evidenced here, become pervasive. This set is their first to be issued in English and Swedish editions. Sonically and musically, the album contains musical and production traits already evident on Heritage and Sorceress - and to a lesser degree, on Pale Communion - as organs, synths, Mellotron, acoustic guitars, syncopated rhythms, strings, choirs, and key changes are crafted into the band's two-guitar-bass-drum attack. But where the previous three studio albums were rife with experimentation, In Cauda Venenum is focused on a cohesively pre-arranged whole. It may be the fourth entry in their progressive evolution, but it's their first to deliver the full realization of the band's potential.
These ten songs are laden with lush textures, painstakingly crafted melodies, unapologetic gothic overtones, startling dynamics, and visceral presence. Opeth may deliberately borrow inspiration from many sources, but they aren’t trying to re-create them. The band recorded at Park Studios in Stockholm with all-analog gear and a goal: "to be as epic as possible." While set-opener "The Garden of Earthly Delights" is a three-and-a-half-minute Gothic intro; the first tune proper, "Dignity," is heavy as hell, with multi-tracked wordless choral choruses, swirling organs and Mellotron, sampled spoken voices, sound effects, popping drums, and spiky lead guitars. Its intense opening section gives way to fingerpicked acoustic, gently sung lyrics, and textural atmospherics before roaring back into riff-laden hard rock. "Heart on Hand," the other advance track, commences with a guitar-and-bass riff right out of "Immigrant Song," framing the cleanest, most emotionally resonant vocals in Åkerfeldt's career before swirling into instrumental chaos and transforming itself into a lilting ballad in the final third. There are brutal moments here, too, in angular jams like "Charlatan," with its overdriven, filthy bassline. "Universal Truth" alternates between folk-inflected prog and spidery hard rock. The moody classical guitar and piano intro to "The Garroter" gives way to spooky, swinging dark jazz. While the sprightly keyboard and strummed guitar vamp on "Continuum" are a sinister musical perversity, they circle toward spiraling prog metal with the vocal and rhythmic section syncopations of Yes, then unwind into moody pastoral, poly-harmonic, folk-inflected Gothic rock. Though it emerges slowly, there is a biting crackle in the sweeping majesty of closer "All Things Pass." Åkerfeldt's and Fredrik Åkesson's guitars spiral and slash in a loss-saturated vibe colored by swirling organ, Mellotron, and crashing tom-toms, as Opeth buoy the singer whose lyric is drenched in loss and grief. On In Cauda Venenum, Opeth have thoroughly revisioned prog rock for the 21st century. While there are referents to the past, they have merely been folded into a brand of heavy music that reflects not progressive rock's history, but Opeth's enduring, evolving image.

CD 1 Tracklist (English version):
01. Garden Of Earthly Delights
02. Dignity
03. Heart In Hand
04. Next Of Kin
05. Lovelorn Crime
06. Charlatan
07. Universal Truth
08. The Garroter
09. Continuum
10. All Things Will Pass

Total time: 01:08:00

CD 2 Tracklist (Swedish version):
01. Livets Trädgård
02. Svekets Prins
03. Hjärtat Vet Vad Handen Gör
04. De Närmast Sörjande
05. Minnets Yta
06. Charlatan
07. Ingen Sanning Är Allas
08. Banemannen
09. Kontinuerlig Drift
10. Allting Tar Slut

Total time: 01:07:49

CD 3 Tracklist (Bonus tracks):
01. The Mob
02. Width Of A Circle
03. Freedom & Tyranny
04. Pöbeln
05. Cirkelns Riktning
06. Frihet & Tyranni

Total time: 29:26

Exact Audio Copy V1.3 from 2. September 2016

EAC extraction logfile from 19. May 2022, 16:35

Opeth / In Cauda Venenum - English

Used drive : ASUS DRW-24D5MT Adapter: 1 ID: 0

Read mode : Secure
Utilize accurate stream : Yes
Defeat audio cache : Yes
Make use of C2 pointers : No

Read offset correction : 6
Overread into Lead-In and Lead-Out : No
Fill up missing offset samples with silence : Yes
Delete leading and trailing silent blocks : No
Null samples used in CRC calculations : Yes
Used interface : Native Win32 interface for Win NT & 2000

Used output format : User Defined Encoder
Selected bitrate : 768 kBit/s
Quality : High
Add ID3 tag : No
Command line compressor : C:\Program Files (x86)\Exact Audio Copy\FLAC\FLAC.EXE
Additional command line options : -6 -V -T "ARTIST=%artist%" -T "TITLE=%title%" -T "ALBUM=%albumtitle%" -T "DATE=%year%" -T "TRACKNUMBER=%tracknr%" -T "GENRE=%genre%" -T "COMMENT=%comment%" -T "BAND=%albuminterpret%" -T "ALBUMARTIST=%albuminterpret%" -T "COMPOSER=%composer%" %haslyrics%–tag-from-file=LYRICS="%lyricsfile%"%haslyrics% -T "DISCNUMBER=%cdnumber%" -T "TOTALDISCS=%totalcds%" -T "TOTALTRACKS=%numtracks%" %hascover%–picture="%coverfile%"%hascover% %source% -o %dest%


TOC of the extracted CD

Track | Start | Length | Start sector | End sector
––––––––––––––––––––––––––––-
1 | 0:00.00 | 3:28.59 | 0 | 15658
2 | 3:28.59 | 6:36.04 | 15659 | 45362
3 | 10:04.63 | 8:30.00 | 45363 | 83612
4 | 18:34.63 | 7:10.00 | 83613 | 115862
5 | 25:44.63 | 6:34.00 | 115863 | 145412
6 | 32:18.63 | 5:29.01 | 145413 | 170088
7 | 37:47.64 | 7:30.58 | 170089 | 203896
8 | 45:18.47 | 6:45.09 | 203897 | 234280
9 | 52:03.56 | 7:22.70 | 234281 | 267500
10 | 59:26.51 | 8:33.31 | 267501 | 306006


Range status and errors

Selected range

Filename E:\Música\EAC\Opeth\Opeth - In Cauda Venenum - English.wav

Peak level 100.0 %
Extraction speed 7.3 X
Range quality 100.0 %
Test CRC 92486E84
Copy CRC 92486E84
Copy OK

No errors occurred


AccurateRip summary

Track 1 accurately ripped (confidence 9) [86FA0FF8] (AR v2)
Track 2 accurately ripped (confidence 9) [49DAE994] (AR v2)
Track 3 accurately ripped (confidence 9) [FCC5C2E7] (AR v2)
Track 4 accurately ripped (confidence 9) [AC023BB6] (AR v2)
Track 5 accurately ripped (confidence 9) [74325866] (AR v2)
Track 6 accurately ripped (confidence 9) [6662D1D3] (AR v2)
Track 7 accurately ripped (confidence 9) [44612448] (AR v2)
Track 8 accurately ripped (confidence 9) [65926D6E] (AR v2)
Track 9 accurately ripped (confidence 9) [CA261C0B] (AR v2)
Track 10 accurately ripped (confidence 9) [F5DECEBA] (AR v2)

All tracks accurately ripped

End of status report

–– CUETools DB Plugin V2.1.6

[CTDB TOCID: BRwqDoAFU0b2xDQ5NyfDqcED8uU-] found
Submit result: already submitted
Track | CTDB Status
1 | (1062/1066) Accurately ripped
2 | (1065/1066) Accurately ripped
3 | (1063/1066) Accurately ripped
4 | (1064/1066) Accurately ripped
5 | (1065/1066) Accurately ripped
6 | (1064/1066) Accurately ripped
7 | (1066/1066) Accurately ripped
8 | (1064/1066) Accurately ripped
9 | (1064/1066) Accurately ripped
10 | (1042/1066) Accurately ripped


==== Log checksum 5AF50E99C9204D6A4C406F28837586E0536EC067106C995E9D4870B9AFDECB8A ====

[CUETools log; Date: 24.05.2022 17:57:24; Version: 2.1.4]
[CTDB TOCID: BRwqDoAFU0b2xDQ5NyfDqcED8uU-] found.
Track | CTDB Status
1 | (1066/1070) Accurately ripped
2 | (1069/1070) Accurately ripped
3 | (1067/1070) Accurately ripped
4 | (1068/1070) Accurately ripped
5 | (1069/1070) Accurately ripped
6 | (1068/1070) Accurately ripped
7 | (1070/1070) Accurately ripped
8 | (1068/1070) Accurately ripped
9 | (1068/1070) Accurately ripped
10 | (1046/1070) Accurately ripped
[AccurateRip ID: 001839e6-00c5388c-770ff00a] found.
Track [ CRC | V2 ] Status
01 [ba6d713a|86fa0ff8] (000+009/212) Accurately ripped
02 [f86df235|49dae994] (000+009/212) Accurately ripped
03 [23a0febe|fcc5c2e7] (000+009/212) Accurately ripped
04 [c5a1272d|ac023bb6] (000+009/212) Accurately ripped
05 [d0058a82|74325866] (000+009/212) Accurately ripped
06 [a9e1ab6c|6662d1d3] (000+009/212) Accurately ripped
07 [9c073232|44612448] (000+009/212) Accurately ripped
08 [1d14a174|65926d6e] (000+009/212) Accurately ripped
09 [02d078f7|ca261c0b] (000+009/212) Accurately ripped
10 [e6cbdf51|f5deceba] (000+009/212) Accurately ripped
Offsetted by 12:
01 [5267089c] (003/212) Accurately ripped
02 [37b93c67] (003/212) Accurately ripped
03 [96468e52] (003/212) Accurately ripped
04 [0a29a355] (003/212) Accurately ripped
05 [642326be] (003/212) Accurately ripped
06 [001c80e5] (003/212) Accurately ripped
07 [9ff5d0c9] (003/212) Accurately ripped
08 [1251347e] (003/212) Accurately ripped
09 [2720aa7e] (003/212) Accurately ripped
10 [779862c0] (003/212) Accurately ripped

Track Peak [ CRC32 ] [W/O NULL] [ LOG ]
– 100,0 [92486E84] [4DA630F9] CRC32
01 76,9 [E62FD25A] [7CF51E18]
02 89,1 [DB3E9F9A] [296CBD07]
03 100,0 [7D6F0A8E] [BD2E354D]
04 100,0 [58A0EE51] [E67ADA3A]
05 100,0 [1F9D0824] [2FCBC62E]
06 100,0 [943B2319] [13EA2A2F]
07 100,0 [F6F5E736] [5D5CADCB]
08 100,0 [A449A439] [CD75C53F]
09 100,0 [8F7D51BF] [5734E66C]
10 100,0 [2C3F1908] [56C77890]

Exact Audio Copy V1.3 from 2. September 2016

EAC extraction logfile from 19. May 2022, 17:48

Opeth / In Cauda Venenum - Swedish

Used drive : ASUS DRW-24D5MT Adapter: 1 ID: 0

Read mode : Secure
Utilize accurate stream : Yes
Defeat audio cache : Yes
Make use of C2 pointers : No

Read offset correction : 6
Overread into Lead-In and Lead-Out : No
Fill up missing offset samples with silence : Yes
Delete leading and trailing silent blocks : No
Null samples used in CRC calculations : Yes
Used interface : Native Win32 interface for Win NT & 2000

Used output format : User Defined Encoder
Selected bitrate : 768 kBit/s
Quality : High
Add ID3 tag : No
Command line compressor : C:\Program Files (x86)\Exact Audio Copy\FLAC\FLAC.EXE
Additional command line options : -6 -V -T "ARTIST=%artist%" -T "TITLE=%title%" -T "ALBUM=%albumtitle%" -T "DATE=%year%" -T "TRACKNUMBER=%tracknr%" -T "GENRE=%genre%" -T "COMMENT=%comment%" -T "BAND=%albuminterpret%" -T "ALBUMARTIST=%albuminterpret%" -T "COMPOSER=%composer%" %haslyrics%–tag-from-file=LYRICS="%lyricsfile%"%haslyrics% -T "DISCNUMBER=%cdnumber%" -T "TOTALDISCS=%totalcds%" -T "TOTALTRACKS=%numtracks%" %hascover%–picture="%coverfile%"%hascover% %source% -o %dest%


TOC of the extracted CD

Track | Start | Length | Start sector | End sector
––––––––––––––––––––––––––––-
1 | 0:00.00 | 3:28.59 | 0 | 15658
2 | 3:28.59 | 6:36.43 | 15659 | 45401
3 | 10:05.27 | 8:29.50 | 45402 | 83626
4 | 18:35.02 | 7:10.30 | 83627 | 115906
5 | 25:45.32 | 6:34.01 | 115907 | 145457
6 | 32:19.33 | 5:29.16 | 145458 | 170148
7 | 37:48.49 | 7:21.67 | 170149 | 203290
8 | 45:10.41 | 6:43.71 | 203291 | 233586
9 | 51:54.37 | 7:23.27 | 233587 | 266838
10 | 59:17.64 | 8:31.24 | 266839 | 305187


Range status and errors

Selected range

Filename E:\Música\EAC\Opeth\Opeth - In Cauda Venenum - Swedish.wav

Peak level 100.0 %
Extraction speed 1.8 X
Range quality 100.0 %
Test CRC 7FD21C2D
Copy CRC 7FD21C2D
Copy OK

No errors occurred


AccurateRip summary

Track 1 accurately ripped (confidence 5) [7301B7DC] (AR v2)
Track 2 accurately ripped (confidence 5) [70650E3B] (AR v2)
Track 3 accurately ripped (confidence 5) [52AD8885] (AR v2)
Track 4 accurately ripped (confidence 5) [CFE356C2] (AR v2)
Track 5 accurately ripped (confidence 5) [78089F77] (AR v2)
Track 6 accurately ripped (confidence 5) [EED3637D] (AR v2)
Track 7 accurately ripped (confidence 5) [7C63E356] (AR v2)
Track 8 accurately ripped (confidence 5) [034B1E7A] (AR v2)
Track 9 accurately ripped (confidence 5) [32488C54] (AR v2)
Track 10 accurately ripped (confidence 5) [46D463E9] (AR v2)

All tracks accurately ripped

End of status report

–– CUETools DB Plugin V2.1.6

[CTDB TOCID: Vck.Eb85Z.LoCpk9GDUO.YqUqZk-] found
Submit result: already submitted
Track | CTDB Status
1 | (872/875) Accurately ripped
2 | (873/875) Accurately ripped
3 | (873/875) Accurately ripped
4 | (873/875) Accurately ripped
5 | (873/875) Accurately ripped
6 | (872/875) Accurately ripped
7 | (872/875) Accurately ripped
8 | (872/875) Accurately ripped
9 | (870/875) Accurately ripped
10 | (868/875) Accurately ripped


==== Log checksum B05A2AAB9C87292503450DE54AAB957C9755A2F96649D7AA54CCE6EDC5C08918 ====

[CUETools log; Date: 24.05.2022 17:58:05; Version: 2.1.4]
[CTDB TOCID: Vck.Eb85Z.LoCpk9GDUO.YqUqZk-] found.
Track | CTDB Status
1 | (878/881) Accurately ripped
2 | (879/881) Accurately ripped
3 | (878/881) Accurately ripped
4 | (879/881) Accurately ripped
5 | (879/881) Accurately ripped
6 | (878/881) Accurately ripped
7 | (878/881) Accurately ripped
8 | (878/881) Accurately ripped
9 | (876/881) Accurately ripped
10 | (874/881) Accurately ripped
[AccurateRip ID: 00182fd3-00c4d464-740fe50a] found.
Track [ CRC | V2 ] Status
01 [a4994d4b|7301b7dc] (000+005/195) Accurately ripped
02 [0597bd8d|70650e3b] (000+005/197) Accurately ripped
03 [89c1c6f7|52ad8885] (000+005/198) Accurately ripped
04 [dd241d66|cfe356c2] (000+005/198) Accurately ripped
05 [bb9e5554|78089f77] (000+005/197) Accurately ripped
06 [cd334626|eed3637d] (000+005/196) Accurately ripped
07 [5a09813b|7c63e356] (000+005/196) Accurately ripped
08 [f1c1ac7b|034b1e7a] (000+005/196) Accurately ripped
09 [8d1c484d|32488c54] (000+005/196) Accurately ripped
10 [51fd78e1|46d463e9] (000+005/196) Accurately ripped
Offsetted by 12:
01 [95d08c88] (003/195) Accurately ripped
02 [430bfd3c] (003/197) Accurately ripped
03 [1458290b] (003/198) Accurately ripped
04 [3022f986] (003/198) Accurately ripped
05 [c212fbc3] (003/197) Accurately ripped
06 [3394b1f5] (003/196) Accurately ripped
07 [2cfd5cf5] (003/196) Accurately ripped
08 [688b2ce2] (003/196) Accurately ripped
09 [3befa10a] (003/196) Accurately ripped
10 [4358546d] (003/196) Accurately ripped
Offsetted by 18:
01 [bf5678c8] (000/195) No match (V2 was not tested)
02 [66769e36] (000/197) No match (V2 was not tested)
03 [d9a35a15] (000/198) No match (V2 was not tested)
04 [d9a26796] (000/198) No match (V2 was not tested)
05 [a8626086] (000/197) No match (V2 was not tested)
06 [6a273508] (000/196) No match (V2 was not tested)
07 [177949cb] (000/196) No match (V2 was not tested)
08 [fd9769fd] (000/196) No match (V2 was not tested)
09 [9d183017] (000/196) No match (V2 was not tested)
10 [cb5ad6fd] (000/196) No match (V2 was not tested)

Track Peak [ CRC32 ] [W/O NULL] [ LOG ]
– 100,0 [7FD21C2D] [46B3C0A7] CRC32
01 76,9 [E70528EF] [0AFFF9E1]
02 99,9 [2D21A16F] [62E74552]
03 100,0 [A1391330] [3E2420C6]
04 100,0 [A7E30FE7] [5E262006]
05 100,0 [B6C2F69B] [CDB7ACFB]
06 100,0 [2919FB1F] [F6D2E9C6]
07 100,0 [97044E27] [BE62056F]
08 100,0 [7838BD2B] [75466BE6]
09 100,0 [422B6AF2] [4DE4CC0F]
10 100,0 [00609892] [D83E4E96]

Exact Audio Copy V1.3 from 2. September 2016

EAC extraction logfile from 19. May 2022, 19:36

Opeth / In Cauda Venenum - Extended Ed. CD3

Used drive : ASUS DRW-24D5MT Adapter: 1 ID: 0

Read mode : Secure
Utilize accurate stream : Yes
Defeat audio cache : Yes
Make use of C2 pointers : No

Read offset correction : 6
Overread into Lead-In and Lead-Out : No
Fill up missing offset samples with silence : Yes
Delete leading and trailing silent blocks : No
Null samples used in CRC calculations : Yes
Used interface : Native Win32 interface for Win NT & 2000

Used output format : User Defined Encoder
Selected bitrate : 768 kBit/s
Quality : High
Add ID3 tag : No
Command line compressor : C:\Program Files (x86)\Exact Audio Copy\FLAC\FLAC.EXE
Additional command line options : -6 -V -T "ARTIST=%artist%" -T "TITLE=%title%" -T "ALBUM=%albumtitle%" -T "DATE=%year%" -T "TRACKNUMBER=%tracknr%" -T "GENRE=%genre%" -T "COMMENT=%comment%" -T "BAND=%albuminterpret%" -T "ALBUMARTIST=%albuminterpret%" -T "COMPOSER=%composer%" %haslyrics%–tag-from-file=LYRICS="%lyricsfile%"%haslyrics% -T "DISCNUMBER=%cdnumber%" -T "TOTALDISCS=%totalcds%" -T "TOTALTRACKS=%numtracks%" %hascover%–picture="%coverfile%"%hascover% %source% -o %dest%


TOC of the extracted CD

Track | Start | Length | Start sector | End sector
––––––––––––––––––––––––––––-
1 | 0:00.00 | 4:36.12 | 0 | 20711
2 | 4:36.12 | 5:31.05 | 20712 | 45541
3 | 10:07.17 | 4:35.70 | 45542 | 66236
4 | 14:43.12 | 4:36.09 | 66237 | 86945
5 | 19:19.21 | 5:31.05 | 86946 | 111775
6 | 24:50.26 | 4:35.71 | 111776 | 132471


Range status and errors

Selected range

Filename E:\Música\EAC\Opeth\Opeth - In Cauda Venenum - Extended Ed. CD3.wav

Peak level 99.5 %
Extraction speed 1.5 X
Range quality 100.0 %
Test CRC 155EF13A
Copy CRC 155EF13A
Copy OK

No errors occurred


AccurateRip summary

Track 1 not present in database
Track 2 not present in database
Track 3 not present in database
Track 4 not present in database
Track 5 not present in database
Track 6 not present in database

None of the tracks are present in the AccurateRip database

End of status report

–– CUETools DB Plugin V2.1.6

[CTDB TOCID: VN79D_Afm2zv.UM9O1T46OkIJ2o-] found
Submit result: already submitted
Track | CTDB Status
1 | (12/12) Accurately ripped
2 | (12/12) Accurately ripped
3 | (12/12) Accurately ripped
4 | (12/12) Accurately ripped
5 | (12/12) Accurately ripped
6 | (12/12) Accurately ripped


==== Log checksum 483F13CD6B63148E9AD18074ED383537BAD8FCEF8B56A84A939C43220B392AD3 ====

[CUETools log; Date: 24.05.2022 17:59:10; Version: 2.1.4]
[CTDB TOCID: VN79D_Afm2zv.UM9O1T46OkIJ2o-] found.
Track | CTDB Status
1 | (18/18) Accurately ripped
2 | (18/18) Accurately ripped
3 | (18/18) Accurately ripped
4 | (18/18) Accurately ripped
5 | (18/18) Accurately ripped
6 | (18/18) Accurately ripped
[AccurateRip ID: 00071345-0025c6a9-5006e606] disk not present in database.

Track Peak [ CRC32 ] [W/O NULL] [ LOG ]
– 99,5 [155EF13A] [53C4BC45] CRC32
01 99,4 [0BB102A1] [B63D581B]
02 99,5 [27A82EA1] [0D2072C6]
03 99,5 [BE0BD59D] [01773122]
04 99,5 [82828DEA] [B67DBA87]
05 99,5 [81061CBE] [3754E20D]
06 99,5 [3A95A051] [8D9A82E6]

Thanks to jarpomarx

See also:
Opeth - Deliverance (2002) & Damnation (2003) [Remixed 2015]
Opeth - Pale Communion (2014) [Japanese Edition]
Storm Corrosion - Storm Corrosion (2012)