Tags
Language
Tags
November 2022
Su Mo Tu We Th Fr Sa
30 31 1 2 3 4 5
6 7 8 9 10 11 12
13 14 15 16 17 18 19
20 21 22 23 24 25 26
27 28 29 30 1 2 3

VA - Now 100 Hits The Legends (2020)

Posted By: Rtax
VA - Now 100 Hits The Legends (2020)

VA - Now 100 Hits The Legends (2020)
EAC Rip | FLAC (tracks, cue, log) - 2.5 GB | MP3 CBR 320 kbps - 824 MB
5:56:41 | Full Scans Included Pop, Rock | Label: Sony Music

An icon, transcending through popular music creates a true legend. Here are 5 CDs packed full of none other than the best musical legends of the past 40 years. This is not one to miss. NOW Legends features an all-star cast including Elton John, Elvis Presley, Bob Dylan, Amy Winehouse, Tom Jones and many more.

Tracklist
CD 1
01. George Michael - Faith (3:17)
02. Elton John - Sacrifice (5:04)
03. Tina Turner - The Best (5:29)
04. Amy Winehouse - Rehab (3:33)
05. Aretha Franklin - Respect (2:23)
06. Gloria Gaynor - I Will Survive (3:16)
07. Lionel Richie - All Night Long (All Night) (4:00)
08. Diana Ross - Upside Down (3:39)
09. Paul Simon - You Can Call Me Al (4:40)
10. Barry White - You’re the First, The Last, My Everything (3:25)
11. Stevie Wonder - For Once In My Life (2:49)
12. Bill Withers - Lovely Day (4:08)
13. The Temptations - My Girl (2:55)
14. The Supremes - You Can’t Hurry Love (2:45)
15. Dusty Springfield - Son Of A Preacher Man (2:25)
16. Ben E. King - Stand By Me (2:54)
17. Dionne Warwick - Walk On By (2:53)
18. Otis Redding - (Sittin' On) The Dock Of The Bay (2:43)
19. Marvin Gaye - I Heard It Through The Grapevine (3:13)
20. Elvis Presley - Suspicious Minds (4:32)

CD 2
01. John Lennon - Woman (3:31)
02. Bob Dylan - Knockin' On Heaven's Door (2:29)
03. Rod Stewart - Maggie May (5:13)
04. Bon Jovi - You Give Love A Bad Name (3:43)
05. Fleetwood Mac - Don’t Stop (3:10)
06. Don McLean - American Pie (4:05)
07. Dolly Parton - Jolene (2:37)
08. Johnny Cash - Ring Of Fire (2:36)
09. Daryl Hall & John Oates - Maneater (4:29)
10. Electric Light Orchestra - Livin’ Thing (3:31)
11. Kate Bush - Wuthering Heights (4:29)
12. The Hollies - He Ain’t Heavy He’s My Brother (4:15)
13. David Essex - Hold Me Close (3:51)
14. Steve Winwood - Valerie (4:06)
15. Robert Palmer - Addicted To Love (3:56)
16. Paul McCartney & Wings - Live And Let Die (3:13)
17. Status Quo - Rockin’ All Over The World (3:31)
18. The Jam - Town Called Malice (2:52)
19. The Who - My Generation (3:17)
20. The Clash - Should I Stay Or Should I Go (3:08)

CD 3
01. Annie Lennox - Why (4:54)
02. ABBA - The Winner Takes It All (4:54)
03. Blondie - Sunday Girl (3:13)
04. Billy Joel - Uptown Girl (3:14)
05. Chaka Khan - I Feel for You (4:11)
06. James Brown - I Got You (I Feel Good) (2:48)
07. Tom Jones - It’s Not Unusual (1:59)
08. Billy Ocean - Love Really Hurts Without You (3:00)
09. Coldplay - Viva La Vida (4:03)
10. Kylie Minogue - Can’t Get You Out Of My Head (3:50)
11. Britney Spears - …Baby One More Time (3:31)
12. P!nk - What About Us (4:30)
13. Christina Aguilera - Beautiful (3:59)
14. Take That - Back For Good (4:01)
15. Culture Club - Do You Really Want To Hurt Me (4:24)
16. UB40 - (I Can’t Help) Falling In Love With You (3:25)
17. John Legend - All Of Me (2:59)
18. Whitney Houston - I Will Always Love You (4:32)
19. Cйline Dion - Because You Loved Me (0:00)
20. Robbie Williams - Angels (4:25)

CD 4
01. Dean Martin - Memories Are Made Of This (2:17)
02. Frank Sinatra - Fly Me To The Moon (2:30)
03. Nat King Cole - Unforgettable (3:11)
04. Lionel Richie & Diana Ross - Endless Love (4:26)
05. Four Tops - Reach Out I’ll Be There (2:58)
06. Frankie Valli & The Four Seasons - December, 1963 (Oh, What A Night) (3:29)
07. Earth, Wind & Fire - September (3:35)
08. Sly & the Family Stone - Dance To The Music (2:57)
09. Donna Summer - I Feel Love (3:47)
10. Curtis Mayfield - Move On Up (2:46)
11. The Jacksons - ABC (3:11)
12. Kool & The Gang - Celebration (3:40)
13. Luther Vandross - Never Too Much (3:49)
14. The Supremes - Baby Love (3:10)
15. The Drifters - Saturday Night At The Movies (2:25)
16. Commodores - Easy (4:13)
17. Smokey Robinson - Being With You (4:00)
18. Percy Sledge - When A Man Loves A Woman (2:56)
19. Randy Crawford - One Day I’ll Fly Away (4:20)
20. Louis Armstrong - What A Wonderful World (2:19)

CD 5
01. Shirley Bassey - Goldfinger (2:50)
02. Janis Joplin - Piece Of My Heart (4:27)
03. The Temptations - Papa Was A Rollin’ Stone (6:57)
04. Stevie Wonder - Uptight (Everything’s Alright) (2:54)
05. Martha & The Vandellas - Dancing In The Street (2:38)
06. Andy Williams - Music To Watch Girls By (2:34)
07. Buddy Holly - Peggy Sue (2:30)
08. Roy Orbison - Oh Pretty Woman (2:57)
09. Glen Campbell - Wichita Lineman (3:02)
10. Simon & Garfunkel - The Sound Of Silence (3:05)
11. Barry Manilow - Mandy (3:17)
12. Tom Jones - Delilah (3:22)
13. Engelbert Humperdinck - Quando Quando Quando (3:18)
14. 10cc - I’m Not In Love (3:42)
15. Marvin Gaye - Let’s Get It On (4:50)
16. Gladys Knight & The Pips - Help Me Make It Through The Night (4:20)
17. Etta James - At Last (2:59)
18. Nina Simone - Feeling Good (2:54)
19. Patsy Cline - Crazy (2:43)
20. Jeff Buckley - Hallelujah (6:53)
Exact Audio Copy V1.6 from 23. October 2020

EAC extraction logfile from 20. September 2022, 21:01

Various Artists / Now 100 Hits The Legends

Used drive : PLEXTOR PX-891SAF PLUS Adapter: 1 ID: 0

Read mode : Secure
Utilize accurate stream : Yes
Defeat audio cache : Yes
Make use of C2 pointers : No

Read offset correction : 6
Overread into Lead-In and Lead-Out : No
Fill up missing offset samples with silence : Yes
Delete leading and trailing silent blocks : No
Null samples used in CRC calculations : Yes
Used interface : Native Win32 interface for Win NT & 2000
Gap handling : Appended to previous track

Used output format : User Defined Encoder
Selected bitrate : 1024 kBit/s
Quality : High
Add ID3 tag : No
Command line compressor : C:\Program Files (x86)\Exact Audio Copy\Flac\flac.exe
Additional command line options : -0 -V -T "ARTIST=%artist%" -T "TITLE=%title%" -T "ALBUM=%albumtitle%" -T "DATE=%year%" -T "TRACKNUMBER=%tracknr%" -T "TOTALTRACKS=%numtracks%" -T "GENRE=%genre%" -T "COMMENT=%comment%" %source%


TOC of the extracted CD

Track | Start | Length | Start sector | End sector
––––––––––––––––––––––––––––-
1 | 0:00.00 | 3:16.48 | 0 | 14747
2 | 3:16.48 | 5:03.38 | 14748 | 37510
3 | 8:20.11 | 5:28.70 | 37511 | 62180
4 | 13:49.06 | 3:33.37 | 62181 | 78192
5 | 17:22.43 | 2:22.65 | 78193 | 88907
6 | 19:45.33 | 3:15.68 | 88908 | 103600
7 | 23:01.26 | 4:00.29 | 103601 | 121629
8 | 27:01.55 | 3:38.47 | 121630 | 138026
9 | 30:40.27 | 4:39.55 | 138027 | 159006
10 | 35:20.07 | 3:25.14 | 159007 | 174395
11 | 38:45.21 | 2:49.05 | 174396 | 187075
12 | 41:34.26 | 4:07.47 | 187076 | 205647
13 | 45:41.73 | 2:54.64 | 205648 | 218761
14 | 48:36.62 | 2:45.32 | 218762 | 231168
15 | 51:22.19 | 2:25.26 | 231169 | 242069
16 | 53:47.45 | 2:54.29 | 242070 | 255148
17 | 56:41.74 | 2:52.71 | 255149 | 268119
18 | 59:34.70 | 2:42.50 | 268120 | 280319
19 | 62:17.45 | 3:13.22 | 280320 | 294816
20 | 65:30.67 | 4:31.58 | 294817 | 315199


Track 1

Filename E:\VA - Now 100 Hits The Legends (5 CD 2020)[FLAC]\CD 1\01 - George Michael - Faith.wav

Pre-gap length 0:00:02.00

Peak level 97.7 %
Extraction speed 2.0 X
Track quality 100.0 %
Test CRC 25933FEA
Copy CRC 25933FEA
Accurately ripped (confidence 4) [B1B2D633] (AR v2)
Copy OK

Track 2

Filename E:\VA - Now 100 Hits The Legends (5 CD 2020)[FLAC]\CD 1\02 - Elton John - Sacrifice.wav

Peak level 88.2 %
Extraction speed 2.4 X
Track quality 100.0 %
Test CRC 4391002D
Copy CRC 4391002D
Accurately ripped (confidence 4) [1FDCE7EC] (AR v2)
Copy OK

Track 3

Filename E:\VA - Now 100 Hits The Legends (5 CD 2020)[FLAC]\CD 1\03 - Tina Turner - The Best.wav

Peak level 97.7 %
Extraction speed 2.6 X
Track quality 100.0 %
Test CRC 0C1660EA
Copy CRC 0C1660EA
Accurately ripped (confidence 4) [AD4244DE] (AR v2)
Copy OK

Track 4

Filename E:\VA - Now 100 Hits The Legends (5 CD 2020)[FLAC]\CD 1\04 - Amy Winehouse - Rehab.wav

Peak level 78.6 %
Extraction speed 2.6 X
Track quality 100.0 %
Test CRC 8BF711CC
Copy CRC 8BF711CC
Accurately ripped (confidence 4) [F14B0328] (AR v2)
Copy OK

Track 5

Filename E:\VA - Now 100 Hits The Legends (5 CD 2020)[FLAC]\CD 1\05 - Aretha Franklin - Respect.wav

Peak level 97.7 %
Extraction speed 2.6 X
Track quality 100.0 %
Test CRC 0837F8E0
Copy CRC 0837F8E0
Accurately ripped (confidence 4) [8AB7F6C7] (AR v2)
Copy OK

Track 6

Filename E:\VA - Now 100 Hits The Legends (5 CD 2020)[FLAC]\CD 1\06 - Gloria Gaynor - I Will Survive.wav

Peak level 97.7 %
Extraction speed 2.8 X
Track quality 100.0 %
Test CRC 1CBD5B22
Copy CRC 1CBD5B22
Accurately ripped (confidence 4) [CD6136A7] (AR v2)
Copy OK

Track 7

Filename E:\VA - Now 100 Hits The Legends (5 CD 2020)[FLAC]\CD 1\07 - Lionel Richie - All Night Long (All Night).wav

Peak level 97.7 %
Extraction speed 3.0 X
Track quality 100.0 %
Test CRC 8028AFC6
Copy CRC 8028AFC6
Accurately ripped (confidence 4) [377B6972] (AR v2)
Copy OK

Track 8

Filename E:\VA - Now 100 Hits The Legends (5 CD 2020)[FLAC]\CD 1\08 - Diana Ross - Upside Down.wav

Peak level 97.7 %
Extraction speed 3.2 X
Track quality 100.0 %
Test CRC 1BD47920
Copy CRC 1BD47920
Accurately ripped (confidence 4) [3A5D9140] (AR v2)
Copy OK

Track 9

Filename E:\VA - Now 100 Hits The Legends (5 CD 2020)[FLAC]\CD 1\09 - Paul Simon - You Can Call Me Al.wav

Peak level 97.7 %
Extraction speed 3.4 X
Track quality 100.0 %
Test CRC D1A85F77
Copy CRC D1A85F77
Accurately ripped (confidence 4) [E4D9A890] (AR v2)
Copy OK

Track 10

Filename E:\VA - Now 100 Hits The Legends (5 CD 2020)[FLAC]\CD 1\10 - Barry White - You’re the First, The Last, My Everything.wav

Peak level 97.7 %
Extraction speed 2.4 X
Track quality 99.9 %
Test CRC 2E1C8FF1
Copy CRC 2E1C8FF1
Accurately ripped (confidence 4) [B7D1D3A7] (AR v2)
Copy OK

Track 11

Filename E:\VA - Now 100 Hits The Legends (5 CD 2020)[FLAC]\CD 1\11 - Stevie Wonder - For Once In My Life.wav

Peak level 97.7 %
Extraction speed 3.4 X
Track quality 100.0 %
Test CRC 11465E2A
Copy CRC 11465E2A
Accurately ripped (confidence 4) [B0E1EBF2] (AR v2)
Copy OK

Track 12

Filename E:\VA - Now 100 Hits The Legends (5 CD 2020)[FLAC]\CD 1\12 - Bill Withers - Lovely Day.wav

Peak level 97.7 %
Extraction speed 2.7 X
Track quality 99.9 %
Test CRC A03629B3
Copy CRC A03629B3
Accurately ripped (confidence 4) [28856745] (AR v2)
Copy OK

Track 13

Filename E:\VA - Now 100 Hits The Legends (5 CD 2020)[FLAC]\CD 1\13 - The Temptations - My Girl.wav

Peak level 97.7 %
Extraction speed 3.6 X
Track quality 100.0 %
Test CRC F3AC77AD
Copy CRC F3AC77AD
Accurately ripped (confidence 4) [D194691E] (AR v2)
Copy OK

Track 14

Filename E:\VA - Now 100 Hits The Legends (5 CD 2020)[FLAC]\CD 1\14 - The Supremes - You Can’t Hurry Love.wav

Peak level 97.7 %
Extraction speed 3.6 X
Track quality 100.0 %
Test CRC 69AC162D
Copy CRC 69AC162D
Accurately ripped (confidence 4) [E5F8814A] (AR v2)
Copy OK

Track 15

Filename E:\VA - Now 100 Hits The Legends (5 CD 2020)[FLAC]\CD 1\15 - Dusty Springfield - Son Of A Preacher Man.wav

Peak level 97.7 %
Extraction speed 3.6 X
Track quality 100.0 %
Test CRC DCECF8C2
Copy CRC DCECF8C2
Accurately ripped (confidence 4) [EC7779B9] (AR v2)
Copy OK

Track 16

Filename E:\VA - Now 100 Hits The Legends (5 CD 2020)[FLAC]\CD 1\16 - Ben E. King - Stand By Me.wav

Peak level 97.7 %
Extraction speed 3.8 X
Track quality 100.0 %
Test CRC FED70BC6
Copy CRC FED70BC6
Accurately ripped (confidence 4) [A94CA525] (AR v2)
Copy OK

Track 17

Filename E:\VA - Now 100 Hits The Legends (5 CD 2020)[FLAC]\CD 1\17 - Dionne Warwick - Walk On By.wav

Peak level 97.7 %
Extraction speed 2.6 X
Track quality 99.9 %
Test CRC AFB4DB64
Copy CRC AFB4DB64
Accurately ripped (confidence 4) [E9B27520] (AR v2)
Copy OK

Track 18

Filename E:\VA - Now 100 Hits The Legends (5 CD 2020)[FLAC]\CD 1\18 - Otis Redding - (Sittin' On) The Dock Of The Bay.wav

Peak level 97.7 %
Extraction speed 2.5 X
Track quality 99.9 %
Test CRC 1D627DF1
Copy CRC 1D627DF1
Accurately ripped (confidence 4) [F19E2F49] (AR v2)
Copy OK

Track 19

Filename E:\VA - Now 100 Hits The Legends (5 CD 2020)[FLAC]\CD 1\19 - Marvin Gaye - I Heard It Through The Grapevine.wav

Peak level 97.7 %
Extraction speed 4.0 X
Track quality 100.0 %
Test CRC 53609A79
Copy CRC 53609A79
Accurately ripped (confidence 4) [462A9C6C] (AR v2)
Copy OK

Track 20

Filename E:\VA - Now 100 Hits The Legends (5 CD 2020)[FLAC]\CD 1\20 - Elvis Presley - Suspicious Minds.wav

Peak level 97.7 %
Extraction speed 4.3 X
Track quality 100.0 %
Test CRC 8E051DD2
Copy CRC 8E051DD2
Accurately ripped (confidence 4) [6E2F8F51] (AR v2)
Copy OK


All tracks accurately ripped

No errors occurred

End of status report

==== Log checksum EA8149354985605CC01678ADE8C8875F572DCD28C3EA4B8CD6F9E56E505F641B ====


Exact Audio Copy V1.6 from 23. October 2020

EAC extraction logfile from 20. September 2022, 22:05

Various Artists / Now 100 Hits The Legends

Used drive : PLEXTOR PX-891SAF PLUS Adapter: 1 ID: 0

Read mode : Secure
Utilize accurate stream : Yes
Defeat audio cache : Yes
Make use of C2 pointers : No

Read offset correction : 6
Overread into Lead-In and Lead-Out : No
Fill up missing offset samples with silence : Yes
Delete leading and trailing silent blocks : No
Null samples used in CRC calculations : Yes
Used interface : Native Win32 interface for Win NT & 2000
Gap handling : Appended to previous track

Used output format : User Defined Encoder
Selected bitrate : 1024 kBit/s
Quality : High
Add ID3 tag : No
Command line compressor : C:\Program Files (x86)\Exact Audio Copy\Flac\flac.exe
Additional command line options : -0 -V -T "ARTIST=%artist%" -T "TITLE=%title%" -T "ALBUM=%albumtitle%" -T "DATE=%year%" -T "TRACKNUMBER=%tracknr%" -T "TOTALTRACKS=%numtracks%" -T "GENRE=%genre%" -T "COMMENT=%comment%" %source%


TOC of the extracted CD

Track | Start | Length | Start sector | End sector
––––––––––––––––––––––––––––-
1 | 0:00.00 | 3:30.40 | 0 | 15789
2 | 3:30.40 | 2:29.24 | 15790 | 26988
3 | 5:59.64 | 5:13.06 | 26989 | 50469
4 | 11:12.70 | 3:42.44 | 50470 | 67163
5 | 14:55.39 | 3:10.22 | 67164 | 81435
6 | 18:05.61 | 4:04.68 | 81436 | 99803
7 | 22:10.54 | 2:37.25 | 99804 | 111603
8 | 24:48.04 | 2:36.27 | 111604 | 123330
9 | 27:24.31 | 4:29.34 | 123331 | 143539
10 | 31:53.65 | 3:31.12 | 143540 | 159376
11 | 35:25.02 | 4:28.49 | 159377 | 179525
12 | 39:53.51 | 4:14.54 | 179526 | 198629
13 | 44:08.30 | 3:50.62 | 198630 | 215941
14 | 47:59.17 | 4:05.62 | 215942 | 234378
15 | 52:05.04 | 3:55.44 | 234379 | 252047
16 | 56:00.48 | 3:12.38 | 252048 | 266485
17 | 59:13.11 | 3:30.60 | 266486 | 282295
18 | 62:43.71 | 2:52.07 | 282296 | 295202
19 | 65:36.03 | 3:16.61 | 295203 | 309963
20 | 68:52.64 | 3:08.11 | 309964 | 324074


Track 1

Filename E:\VA - Now 100 Hits The Legends (5 CD 2020)[FLAC]\CD 2\01 - John Lennon - Woman.wav

Pre-gap length 0:00:02.00

Peak level 97.7 %
Extraction speed 2.0 X
Track quality 100.0 %
Test CRC 1079CC87
Copy CRC 1079CC87
Accurately ripped (confidence 2) [11E9350A] (AR v2)
Copy OK

Track 2

Filename E:\VA - Now 100 Hits The Legends (5 CD 2020)[FLAC]\CD 2\02 - Bob Dylan - Knockin' On Heaven's Door.wav

Peak level 97.7 %
Extraction speed 2.1 X
Track quality 100.0 %
Test CRC 0986CF1E
Copy CRC 0986CF1E
Accurately ripped (confidence 3) [B2FA103D] (AR v2)
Copy OK

Track 3

Filename E:\VA - Now 100 Hits The Legends (5 CD 2020)[FLAC]\CD 2\03 - Rod Stewart - Maggie May.wav

Peak level 97.7 %
Extraction speed 1.9 X
Track quality 99.9 %
Test CRC 2B3777BF
Copy CRC 2B3777BF
Accurately ripped (confidence 3) [11697F20] (AR v2)
Copy OK

Track 4

Filename E:\VA - Now 100 Hits The Legends (5 CD 2020)[FLAC]\CD 2\04 - Bon Jovi - You Give Love A Bad Name.wav

Peak level 97.7 %
Extraction speed 2.6 X
Track quality 100.0 %
Test CRC B1954699
Copy CRC B1954699
Accurately ripped (confidence 3) [730148F9] (AR v2)
Copy OK

Track 5

Filename E:\VA - Now 100 Hits The Legends (5 CD 2020)[FLAC]\CD 2\05 - Fleetwood Mac - Don’t Stop.wav

Peak level 97.7 %
Extraction speed 2.7 X
Track quality 100.0 %
Test CRC DEC2D4D5
Copy CRC DEC2D4D5
Accurately ripped (confidence 3) [A584857D] (AR v2)
Copy OK

Track 6

Filename E:\VA - Now 100 Hits The Legends (5 CD 2020)[FLAC]\CD 2\06 - Don McLean - American Pie.wav

Peak level 95.4 %
Extraction speed 2.9 X
Track quality 100.0 %
Test CRC 56950BE6
Copy CRC 56950BE6
Accurately ripped (confidence 3) [F96EBF9D] (AR v2)
Copy OK

Track 7

Filename E:\VA - Now 100 Hits The Legends (5 CD 2020)[FLAC]\CD 2\07 - Dolly Parton - Jolene.wav

Peak level 97.7 %
Extraction speed 1.9 X
Track quality 99.9 %
Test CRC 510639C6
Copy CRC 510639C6
Accurately ripped (confidence 3) [0915B7BB] (AR v2)
Copy OK

Track 8

Filename E:\VA - Now 100 Hits The Legends (5 CD 2020)[FLAC]\CD 2\08 - Johnny Cash - Ring Of Fire.wav

Peak level 97.7 %
Extraction speed 1.9 X
Track quality 99.9 %
Test CRC D78AA24A
Copy CRC D78AA24A
Accurately ripped (confidence 3) [013F4673] (AR v2)
Copy OK

Track 9

Filename E:\VA - Now 100 Hits The Legends (5 CD 2020)[FLAC]\CD 2\09 - Daryl Hall & John Oates - Maneater.wav

Peak level 97.7 %
Extraction speed 3.3 X
Track quality 100.0 %
Test CRC 31AD1165
Copy CRC 31AD1165
Accurately ripped (confidence 3) [6D2649AC] (AR v2)
Copy OK

Track 10

Filename E:\VA - Now 100 Hits The Legends (5 CD 2020)[FLAC]\CD 2\10 - Electric Light Orchestra - Livin’ Thing.wav

Peak level 97.7 %
Extraction speed 2.3 X
Track quality 99.9 %
Test CRC 770B8875
Copy CRC 770B8875
Accurately ripped (confidence 3) [89C83856] (AR v2)
Copy OK

Track 11

Filename E:\VA - Now 100 Hits The Legends (5 CD 2020)[FLAC]\CD 2\11 - Kate Bush - Wuthering Heights.wav

Peak level 97.7 %
Extraction speed 3.5 X
Track quality 100.0 %
Test CRC 0E34B500
Copy CRC 0E34B500
Accurately ripped (confidence 3) [25C8DDAA] (AR v2)
Copy OK

Track 12

Filename E:\VA - Now 100 Hits The Legends (5 CD 2020)[FLAC]\CD 2\12 - The Hollies - He Ain’t Heavy He’s My Brother.wav

Peak level 97.7 %
Extraction speed 3.6 X
Track quality 100.0 %
Test CRC 99530B4B
Copy CRC 99530B4B
Accurately ripped (confidence 3) [0C5E63ED] (AR v2)
Copy OK

Track 13

Filename E:\VA - Now 100 Hits The Legends (5 CD 2020)[FLAC]\CD 2\13 - David Essex - Hold Me Close.wav

Peak level 97.7 %
Extraction speed 3.7 X
Track quality 100.0 %
Test CRC 78E665AF
Copy CRC 78E665AF
Accurately ripped (confidence 3) [3BFF1A32] (AR v2)
Copy OK

Track 14

Filename E:\VA - Now 100 Hits The Legends (5 CD 2020)[FLAC]\CD 2\14 - Steve Winwood - Valerie.wav

Peak level 97.7 %
Extraction speed 3.8 X
Track quality 100.0 %
Test CRC BE4BB7A4
Copy CRC BE4BB7A4
Accurately ripped (confidence 3) [40C5EBCA] (AR v2)
Copy OK

Track 15

Filename E:\VA - Now 100 Hits The Legends (5 CD 2020)[FLAC]\CD 2\15 - Robert Palmer - Addicted To Love.wav

Peak level 97.7 %
Extraction speed 4.0 X
Track quality 100.0 %
Test CRC 7C7CDB66
Copy CRC 7C7CDB66
Accurately ripped (confidence 3) [26A594BF] (AR v2)
Copy OK

Track 16

Filename E:\VA - Now 100 Hits The Legends (5 CD 2020)[FLAC]\CD 2\16 - Paul McCartney & Wings - Live And Let Die.wav

Peak level 97.7 %
Extraction speed 3.9 X
Track quality 100.0 %
Test CRC 9AFC4C23
Copy CRC 9AFC4C23
Accurately ripped (confidence 3) [AE5A64F2] (AR v2)
Copy OK

Track 17

Filename E:\VA - Now 100 Hits The Legends (5 CD 2020)[FLAC]\CD 2\17 - Status Quo - Rockin’ All Over The World.wav

Peak level 97.7 %
Extraction speed 2.8 X
Track quality 99.9 %
Test CRC 64734EA0
Copy CRC 64734EA0
Accurately ripped (confidence 3) [3FD56083] (AR v2)
Copy OK

Track 18

Filename E:\VA - Now 100 Hits The Legends (5 CD 2020)[FLAC]\CD 2\18 - The Jam - Town Called Malice.wav

Peak level 97.7 %
Extraction speed 4.0 X
Track quality 100.0 %
Test CRC 03543305
Copy CRC 03543305
Accurately ripped (confidence 3) [4662B7BD] (AR v2)
Copy OK

Track 19

Filename E:\VA - Now 100 Hits The Legends (5 CD 2020)[FLAC]\CD 2\19 - The Who - My Generation.wav

Peak level 97.7 %
Extraction speed 4.1 X
Track quality 100.0 %
Test CRC CD565FAF
Copy CRC CD565FAF
Accurately ripped (confidence 3) [4340A2C0] (AR v2)
Copy OK

Track 20

Filename E:\VA - Now 100 Hits The Legends (5 CD 2020)[FLAC]\CD 2\20 - The Clash - Should I Stay Or Should I Go.wav

Peak level 97.7 %
Extraction speed 4.1 X
Track quality 100.0 %
Test CRC FFC0EF4D
Copy CRC FFC0EF4D
Accurately ripped (confidence 3) [9F127376] (AR v2)
Copy OK


All tracks accurately ripped

No errors occurred

End of status report

==== Log checksum EDE4F0546513569AE44A49BCE4E0DA8717130DB370533F83A34004831D458901 ====


Exact Audio Copy V1.6 from 23. October 2020

EAC extraction logfile from 20. September 2022, 23:06

Various Artists / Now 100 Hits The Legends

Used drive : PLEXTOR PX-891SAF PLUS Adapter: 1 ID: 0

Read mode : Secure
Utilize accurate stream : Yes
Defeat audio cache : Yes
Make use of C2 pointers : No

Read offset correction : 6
Overread into Lead-In and Lead-Out : No
Fill up missing offset samples with silence : Yes
Delete leading and trailing silent blocks : No
Null samples used in CRC calculations : Yes
Used interface : Native Win32 interface for Win NT & 2000
Gap handling : Appended to previous track

Used output format : User Defined Encoder
Selected bitrate : 1024 kBit/s
Quality : High
Add ID3 tag : No
Command line compressor : C:\Program Files (x86)\Exact Audio Copy\Flac\flac.exe
Additional command line options : -0 -V -T "ARTIST=%artist%" -T "TITLE=%title%" -T "ALBUM=%albumtitle%" -T "DATE=%year%" -T "TRACKNUMBER=%tracknr%" -T "TOTALTRACKS=%numtracks%" -T "GENRE=%genre%" -T "COMMENT=%comment%" %source%


TOC of the extracted CD

Track | Start | Length | Start sector | End sector
––––––––––––––––––––––––––––-
1 | 0:00.00 | 4:54.06 | 0 | 22055
2 | 4:54.06 | 4:54.37 | 22056 | 44142
3 | 9:48.43 | 3:12.42 | 44143 | 58584
4 | 13:01.10 | 3:13.67 | 58585 | 73126
5 | 16:15.02 | 4:10.69 | 73127 | 91945
6 | 20:25.71 | 2:47.58 | 91946 | 104528
7 | 23:13.54 | 1:58.47 | 104529 | 113425
8 | 25:12.26 | 3:00.31 | 113426 | 126956
9 | 28:12.57 | 4:02.70 | 126957 | 145176
10 | 32:15.52 | 3:50.07 | 145177 | 162433
11 | 36:05.59 | 3:30.72 | 162434 | 178255
12 | 39:36.56 | 4:29.45 | 178256 | 198475
13 | 44:06.26 | 3:59.25 | 198476 | 216425
14 | 48:05.51 | 4:01.12 | 216426 | 234512
15 | 52:06.63 | 4:24.17 | 234513 | 254329
16 | 56:31.05 | 3:25.26 | 254330 | 269730
17 | 59:56.31 | 2:59.07 | 269731 | 283162
18 | 62:55.38 | 4:31.46 | 283163 | 303533
19 | 67:27.09 | 4:33.15 | 303534 | 324023
20 | 72:00.24 | 4:25.32 | 324024 | 343930


Track 1

Filename E:\VA - Now 100 Hits The Legends (5 CD 2020)[FLAC]\CD 3\01 - Annie Lennox - Why.wav

Pre-gap length 0:00:02.00

Peak level 97.7 %
Extraction speed 2.2 X
Track quality 100.0 %
Test CRC 561DD2B4
Copy CRC 561DD2B4
Accurately ripped (confidence 3) [D8F2B39B] (AR v2)
Copy OK

Track 2

Filename E:\VA - Now 100 Hits The Legends (5 CD 2020)[FLAC]\CD 3\02 - ABBA - The Winner Takes It All.wav

Peak level 97.7 %
Extraction speed 1.9 X
Track quality 99.9 %
Test CRC C0241C06
Copy CRC C0241C06
Accurately ripped (confidence 3) [D9D96925] (AR v2)
Copy OK

Track 3

Filename E:\VA - Now 100 Hits The Legends (5 CD 2020)[FLAC]\CD 3\03 - Blondie - Sunday Girl.wav

Peak level 97.7 %
Extraction speed 1.7 X
Track quality 99.9 %
Test CRC B624B777
Copy CRC B624B777
Accurately ripped (confidence 3) [35198DE7] (AR v2)
Copy OK

Track 4

Filename E:\VA - Now 100 Hits The Legends (5 CD 2020)[FLAC]\CD 3\04 - Billy Joel - Uptown Girl.wav

Peak level 97.7 %
Extraction speed 1.8 X
Track quality 99.9 %
Test CRC C868E98E
Copy CRC C868E98E
Accurately ripped (confidence 3) [1D18482F] (AR v2)
Copy OK

Track 5

Filename E:\VA - Now 100 Hits The Legends (5 CD 2020)[FLAC]\CD 3\05 - Chaka Khan - I Feel for You.wav

Peak level 97.7 %
Extraction speed 2.9 X
Track quality 100.0 %
Test CRC CBAF61B8
Copy CRC CBAF61B8
Accurately ripped (confidence 3) [C4B91DB9] (AR v2)
Copy OK

Track 6

Filename E:\VA - Now 100 Hits The Legends (5 CD 2020)[FLAC]\CD 3\06 - James Brown - I Got You (I Feel Good).wav

Peak level 97.7 %
Extraction speed 2.8 X
Track quality 100.0 %
Test CRC 8D7C12E1
Copy CRC 8D7C12E1
Accurately ripped (confidence 3) [B278BA77] (AR v2)
Copy OK

Track 7

Filename E:\VA - Now 100 Hits The Legends (5 CD 2020)[FLAC]\CD 3\07 - Tom Jones - It’s Not Unusual.wav

Peak level 97.7 %
Extraction speed 2.7 X
Track quality 100.0 %
Test CRC A9BD6C5A
Copy CRC A9BD6C5A
Accurately ripped (confidence 3) [F4FB52DD] (AR v2)
Copy OK

Track 8

Filename E:\VA - Now 100 Hits The Legends (5 CD 2020)[FLAC]\CD 3\08 - Billy Ocean - Love Really Hurts Without You.wav

Peak level 97.7 %
Extraction speed 3.0 X
Track quality 100.0 %
Test CRC 77DD1324
Copy CRC 77DD1324
Accurately ripped (confidence 3) [8FA40D93] (AR v2)
Copy OK

Track 9

Filename E:\VA - Now 100 Hits The Legends (5 CD 2020)[FLAC]\CD 3\09 - Coldplay - Viva La Vida.wav

Peak level 97.7 %
Extraction speed 3.3 X
Track quality 100.0 %
Test CRC 0F331318
Copy CRC 0F331318
Accurately ripped (confidence 3) [AB35CE05] (AR v2)
Copy OK

Track 10

Filename E:\VA - Now 100 Hits The Legends (5 CD 2020)[FLAC]\CD 3\10 - Kylie Minogue - Can’t Get You Out Of My Head.wav

Peak level 97.7 %
Extraction speed 2.4 X
Track quality 99.9 %
Test CRC F146016F
Copy CRC F146016F
Accurately ripped (confidence 3) [919412A5] (AR v2)
Copy OK

Track 11

Filename E:\VA - Now 100 Hits The Legends (5 CD 2020)[FLAC]\CD 3\11 - Britney Spears - …Baby One More Time.wav

Peak level 97.7 %
Extraction speed 3.4 X
Track quality 100.0 %
Test CRC FC9758F5
Copy CRC FC9758F5
Accurately ripped (confidence 3) [0E119989] (AR v2)
Copy OK

Track 12

Filename E:\VA - Now 100 Hits The Legends (5 CD 2020)[FLAC]\CD 3\12 - P!nk - What About Us.wav

Peak level 92.3 %
Extraction speed 2.8 X
Track quality 99.9 %
Test CRC DE88DA50
Copy CRC DE88DA50
Accurately ripped (confidence 3) [1107CBBA] (AR v2)
Copy OK

Track 13

Filename E:\VA - Now 100 Hits The Legends (5 CD 2020)[FLAC]\CD 3\13 - Christina Aguilera - Beautiful.wav

Peak level 97.4 %
Extraction speed 3.8 X
Track quality 100.0 %
Test CRC 55FC086D
Copy CRC 55FC086D
Accurately ripped (confidence 3) [6B5EEA49] (AR v2)
Copy OK

Track 14

Filename E:\VA - Now 100 Hits The Legends (5 CD 2020)[FLAC]\CD 3\14 - Take That - Back For Good.wav

Peak level 97.7 %
Extraction speed 3.8 X
Track quality 100.0 %
Test CRC C59173E7
Copy CRC C59173E7
Accurately ripped (confidence 3) [27B66C34] (AR v2)
Copy OK

Track 15

Filename E:\VA - Now 100 Hits The Legends (5 CD 2020)[FLAC]\CD 3\15 - Culture Club - Do You Really Want To Hurt Me.wav

Peak level 97.7 %
Extraction speed 4.0 X
Track quality 100.0 %
Test CRC 4FA232F9
Copy CRC 4FA232F9
Accurately ripped (confidence 3) [F1C4731C] (AR v2)
Copy OK

Track 16

Filename E:\VA - Now 100 Hits The Legends (5 CD 2020)[FLAC]\CD 3\16 - UB40 - (I Can’t Help) Falling In Love With You.wav

Peak level 97.7 %
Extraction speed 4.0 X
Track quality 100.0 %
Test CRC EC394FEB
Copy CRC EC394FEB
Accurately ripped (confidence 3) [91EFBF4F] (AR v2)
Copy OK

Track 17

Filename E:\VA - Now 100 Hits The Legends (5 CD 2020)[FLAC]\CD 3\17 - John Legend - All Of Me.wav

Peak level 97.7 %
Extraction speed 3.9 X
Track quality 100.0 %
Test CRC 9E342DFF
Copy CRC 9E342DFF
Accurately ripped (confidence 3) [C2CCCD20] (AR v2)
Copy OK

Track 18

Filename E:\VA - Now 100 Hits The Legends (5 CD 2020)[FLAC]\CD 3\18 - Whitney Houston - I Will Always Love You.wav

Peak level 97.7 %
Extraction speed 4.3 X
Track quality 100.0 %
Test CRC 85FF4A55
Copy CRC 85FF4A55
Accurately ripped (confidence 3) [EDF3B5DA] (AR v2)
Copy OK

Track 19

Filename E:\VA - Now 100 Hits The Legends (5 CD 2020)[FLAC]\CD 3\19 - Céline Dion - Because You Loved Me.wav

Peak level 97.7 %
Extraction speed 3.3 X
Track quality 99.9 %
Test CRC 8A729D7D
Copy CRC 8A729D7D
Accurately ripped (confidence 3) [C3910D74] (AR v2)
Copy OK

Track 20

Filename E:\VA - Now 100 Hits The Legends (5 CD 2020)[FLAC]\CD 3\20 - Robbie Williams - Angels.wav

Peak level 84.5 %
Extraction speed 4.5 X
Track quality 100.0 %
Test CRC 80DBB9FD
Copy CRC 80DBB9FD
Accurately ripped (confidence 3) [95FD43C3] (AR v2)
Copy OK


All tracks accurately ripped

No errors occurred

End of status report

==== Log checksum 619BE0ABF6BE4F8324AFB09B0EF5977D728E37E1B8F94B01C4B44DD442471B51 ====


VA - Now 100 Hits The Legends (2020)