Tags
Language
Tags

Medeski Scofield Martin & Wood - Out Louder (2007)

Posted By: gribovar
Medeski Scofield Martin & Wood - Out Louder (2007)

Medeski Scofield Martin & Wood - Out Louder (2007)
EAC Rip | FLAC (image+.cue+log) - 645 MB | MP3 CBR 320 kbps (LAME 3.93) - 254 MB | Covers - 14 MB
Genre: Jazz, Post-Bop, Fusion, Jazz-Funk | RAR 3% Rec. | Label: EmArcy/Indirecto Records (0602517204393)

Out Louder reunites keyboardist John Medeski, drummer Billy Martin, and bassist Chris Wood with guitar great John Scofield, who employed the trio on his 1997 A Go Go album. That record opened the creativity gates for both the trio and Scofield, who fed off and goaded each other into territories neither party had previously gone separately. Out Louder isn't so much a rematch as an upgrade. Both Scofield and MMW have continued to explore in the near-decade since A Go Go, and they come to this project with a greater understanding of their collective abilities as well as a willingness to explore the possibilities further. Not unexpectedly, the four musicians work hard here, but they also have a ton of fun. The opening track, "Little Walter Rides Again," serves notice that this isn't going to be an exercise in showing off but rather four envelope-pushing musicians picking each other's brains and seeing what they find. An easygoing blues vamp with a funky, Memphis-style beat, the track keeps the quartet reined in while simultaneously allowing each musician to dance around a bit within its structure. That idea of holding back doesn't last long, however, as that leadoff gives way to "Miles Behind," a nod to electric Miles Davis minus the trumpet. Although the players, particularly Medeski and Scofield, take several opportunities to reach for the outside fringes, Out Louder never becomes inaccessible, even during its freer-jazz moments. "Tequila and Chocolate," for example, takes up with a simple bossa nova rhythm that eventually goes wildly astray without losing touch with its form, and the John Lennon tune "Julia" (which, honestly, borrows only minimally from the original melody) is a soft, sweet, and sensual ballad that never strays even close to the edge yet still manages to feel edgy. That's not to say that those looking for the heavy jams will be disappointed. "What Now" finds Medeski and Scofield challenging each other as if they were Keith Emerson and Jimi Hendrix having it out at some late-night club, and "Down the Tube," though essentially a simple funky blues, flirts with psychedelia, Scofield turning in some of his most startling playing of the set. The session ends with a virtually unrecognizable improv on Peter Tosh's reggae anthem "Legalize It" that spotlights Martin and Wood in lockstep groove. If ever MMW and Scofield decided to make something more permanent of their meet-ups, one can only guess where else they might go.
CD 1 Tracklist:
01. Little Walter Rides Again
02. Miles Behind
03. In Case The World Changes Its Mind
04. Tequila And Chocolate
05. Tootie Ma Is A Big Fine Thing
06. Cachaca
07. Hanuman
08. Telegraph
09. What Now
10. Julia
11. Down The Tube
12. Legalize It

Total time: 01:02:03

CD 1 Tracklist (Live):
01. A Go Go
02. Cachaca
03. The Tube
04. Amazing Grace
05. Deadzy
06. What Now

Total time: 45:54

Exact Audio Copy V1.0 beta 3 from 29. August 2011

EAC extraction logfile from 19. July 2012, 10:49

Msmw / Out Louder

Used drive : HL-DT-STBDDVDRW GBC-H20N Adapter: 1 ID: 0

Read mode : Secure
Utilize accurate stream : Yes
Defeat audio cache : Yes
Make use of C2 pointers : No

Read offset correction : 667
Overread into Lead-In and Lead-Out : No
Fill up missing offset samples with silence : Yes
Delete leading and trailing silent blocks : No
Null samples used in CRC calculations : Yes
Used interface : Native Win32 interface for Win NT & 2000

Used output format : User Defined Encoder
Selected bitrate : 1024 kBit/s
Quality : High
Add ID3 tag : No
Command line compressor : C:\Program Files\Exact Audio Copy\wavpack.exe
Additional command line options : -hm %source% %dest%


TOC of the extracted CD

Track | Start | Length | Start sector | End sector
––––––––––––––––––––––––––––-
1 | 0:00.00 | 3:55.40 | 0 | 17664
2 | 3:55.40 | 2:53.58 | 17665 | 30697
3 | 6:49.23 | 3:41.46 | 30698 | 47318
4 | 10:30.69 | 6:25.42 | 47319 | 76235
5 | 16:56.36 | 4:42.45 | 76236 | 97430
6 | 21:39.06 | 4:14.60 | 97431 | 116540
7 | 25:53.66 | 6:24.52 | 116541 | 145392
8 | 32:18.43 | 3:55.67 | 145393 | 163084
9 | 36:14.35 | 4:54.09 | 163085 | 185143
10 | 41:08.44 | 5:18.26 | 185144 | 209019
11 | 46:26.70 | 11:40.45 | 209020 | 261564
12 | 58:07.40 | 3:55.66 | 261565 | 279255


Range status and errors

Selected range

Filename C:\Users\ProgDog\Music\10 - 2006 - Out Louder (with Msmw)\CD 1\Msmw - Out Louder.wav

Peak level 96.6 %
Extraction speed 6.3 X
Range quality 99.9 %
Test CRC 6BC0088F
Copy CRC 6BC0088F
Copy OK

No errors occurred


AccurateRip summary

Track 1 accurately ripped (confidence 4) [916CBA6F] (AR v2)
Track 2 accurately ripped (confidence 4) [9B795B06] (AR v2)
Track 3 accurately ripped (confidence 4) [0737A23E] (AR v2)
Track 4 accurately ripped (confidence 4) [58F7B0F1] (AR v2)
Track 5 accurately ripped (confidence 4) [F9EF249E] (AR v2)
Track 6 accurately ripped (confidence 4) [D4EF32AB] (AR v2)
Track 7 accurately ripped (confidence 4) [B705952A] (AR v2)
Track 8 accurately ripped (confidence 4) [53360E9D] (AR v2)
Track 9 accurately ripped (confidence 4) [F7C733A0] (AR v2)
Track 10 accurately ripped (confidence 4) [9A3EC901] (AR v2)
Track 11 accurately ripped (confidence 4) [50CDCDEF] (AR v2)
Track 12 accurately ripped (confidence 4) [ADF63D6A] (AR v2)

All tracks accurately ripped

End of status report

–– CUETools DB Plugin V2.1.3

[CTDB TOCID: 0W8PS9mqTDIWPJBpZcRaoV40z44-] found, Submit result: 0W8PS9mqTDIWPJBpZcRaoV40z44- has been confirmed
[6aad0c71] (114/115) Accurately ripped
[efd57434] (001/115) No match


==== Log checksum 88ED079AD5BA785DBC85B4A71432EA0C53E0BF73A6E647BDCCEFA7183B636A41 ====

[CUETools log; Date: 22.06.2022 14:56:05; Version: 2.1.4]
[CTDB TOCID: 0W8PS9mqTDIWPJBpZcRaoV40z44-] found.
Track | CTDB Status
1 | (356/358) Accurately ripped
2 | (356/358) Accurately ripped
3 | (355/358) Accurately ripped
4 | (353/358) Accurately ripped
5 | (354/358) Accurately ripped
6 | (355/358) Accurately ripped
7 | (356/358) Accurately ripped
8 | (355/358) Accurately ripped
9 | (356/358) Accurately ripped
10 | (356/358) Accurately ripped
11 | (353/358) Accurately ripped
12 | (352/358) Accurately ripped
[AccurateRip ID: 0018dca9-00eec8a3-9a0e8b0c] found.
Track [ CRC | V2 ] Status
01 [6e3fad44|916cba6f] (048+078/283) Accurately ripped
02 [cd869cc5|9b795b06] (048+077/284) Accurately ripped
03 [e54b82d3|0737a23e] (050+077/285) Accurately ripped
04 [d40a7b68|58f7b0f1] (049+075/281) Accurately ripped
05 [25a09695|f9ef249e] (049+078/282) Accurately ripped
06 [d3b1c6bd|d4ef32ab] (048+077/280) Accurately ripped
07 [997e2ede|b705952a] (048+078/281) Accurately ripped
08 [847ca309|53360e9d] (048+077/282) Accurately ripped
09 [a5fb8650|f7c733a0] (049+077/281) Accurately ripped
10 [527bdeaf|9a3ec901] (049+077/284) Accurately ripped
11 [41f34db0|50cdcdef] (049+076/279) Accurately ripped
12 [3c899b4a|adf63d6a] (047+075/271) Accurately ripped
Offsetted by 664:
01 [cd94423a] (074/283) Accurately ripped
02 [bfc18b5d] (075/284) Accurately ripped
03 [f5355f63] (074/285) Accurately ripped
04 [69acd1c0] (073/281) Accurately ripped
05 [9c38c449] (073/282) Accurately ripped
06 [b171352c] (073/280) Accurately ripped
07 [acec8f33] (073/281) Accurately ripped
08 [e4f92ce1] (073/282) Accurately ripped
09 [fc21b748] (073/281) Accurately ripped
10 [170ebc97] (074/284) Accurately ripped
11 [61cb6de8] (073/279) Accurately ripped
12 [62aa8bf2] (069/271) Accurately ripped
Offsetted by 646:
01 [f5e4d1c4] (002/283) Accurately ripped
02 [645eca4b] (002/284) Accurately ripped
03 [84f84937] (002/285) Accurately ripped
04 [a288cdde] (002/281) Accurately ripped
05 [16fb1578] (002/282) Accurately ripped
06 [ab8aea92] (000/280) No match (V2 was not tested)
07 [4cf1687c] (002/281) Accurately ripped
08 [3a42e85f] (002/282) Accurately ripped
09 [2684ebee] (000/281) No match (V2 was not tested)
10 [17e5be49] (002/284) Accurately ripped
11 [e0ee701e] (002/279) Accurately ripped
12 [da3448ec] (002/271) Accurately ripped

Track Peak [ CRC32 ] [W/O NULL] [ LOG ]
– 96,6 [6BC0088F] [F3ADB46B] CRC32
01 96,6 [DA4CF223] [40085AFA]
02 96,6 [5401D868] [548A40DD]
03 96,6 [6628EBF4] [A920B98A]
04 96,6 [85DD4366] [ADB109DA]
05 96,6 [28968678] [54424330]
06 96,6 [EB2716D8] [97557B50]
07 96,6 [7D021494] [42361B43]
08 96,6 [866E6FE2] [F108CDC2]
09 96,6 [CDA19742] [87CC51E0]
10 96,6 [7D7DA055] [3BA6F000]
11 96,6 [05B4AA53] [12D49EE8]
12 96,6 [7EC0D419] [39227E99]

Exact Audio Copy V1.0 beta 3 from 29. August 2011

EAC extraction logfile from 19. July 2012, 11:10

Msmw / MSMW Live Bonus Material

Used drive : HL-DT-STBDDVDRW GBC-H20N Adapter: 1 ID: 0

Read mode : Secure
Utilize accurate stream : Yes
Defeat audio cache : Yes
Make use of C2 pointers : No

Read offset correction : 667
Overread into Lead-In and Lead-Out : No
Fill up missing offset samples with silence : Yes
Delete leading and trailing silent blocks : No
Null samples used in CRC calculations : Yes
Used interface : Native Win32 interface for Win NT & 2000

Used output format : User Defined Encoder
Selected bitrate : 1024 kBit/s
Quality : High
Add ID3 tag : No
Command line compressor : C:\Program Files\Exact Audio Copy\wavpack.exe
Additional command line options : -hm %source% %dest%


TOC of the extracted CD

Track | Start | Length | Start sector | End sector
––––––––––––––––––––––––––––-
1 | 0:00.00 | 8:15.16 | 0 | 37140
2 | 8:15.16 | 8:37.29 | 37141 | 75944
3 | 16:52.45 | 7:44.19 | 75945 | 110763
4 | 24:36.64 | 9:15.65 | 110764 | 152453
5 | 33:52.54 | 4:06.49 | 152454 | 170952
6 | 37:59.28 | 7:54.20 | 170953 | 206522


Range status and errors

Selected range

Filename C:\Users\ProgDog\Music\10 - 2006 - Out Louder (with Msmw)\CD 2\Msmw - MSMW Live Bonus Material.wav

Peak level 98.0 %
Extraction speed 5.8 X
Range quality 99.9 %
Test CRC 84F76BFE
Copy CRC 84F76BFE
Copy OK

No errors occurred


AccurateRip summary

Track 1 accurately ripped (confidence 3) [D4E32708] (AR v2)
Track 2 accurately ripped (confidence 2) [A7159E6A] (AR v2)
Track 3 accurately ripped (confidence 3) [D1E3C0B8] (AR v2)
Track 4 accurately ripped (confidence 3) [2E369F11] (AR v2)
Track 5 accurately ripped (confidence 3) [A9A664E6] (AR v2)
Track 6 accurately ripped (confidence 3) [12C70F7E] (AR v2)

All tracks accurately ripped

End of status report

–– CUETools DB Plugin V2.1.3

[CTDB TOCID: 5vn3rkI2wNELic8tFcueprb5srE-] found, Submit result: 5vn3rkI2wNELic8tFcueprb5srE- has been confirmed
[f498b61a] (44/44) Accurately ripped


==== Log checksum E1A13E800BDDBAE660ECF7529158AE5BADF9970548CB13F1EB0A858BFF072AF0 ====

[CUETools log; Date: 22.06.2022 14:56:56; Version: 2.1.4]
[CTDB TOCID: 5vn3rkI2wNELic8tFcueprb5srE-] found.
Track | CTDB Status
1 | (158/159) Accurately ripped
2 | (159/159) Accurately ripped
3 | (159/159) Accurately ripped
4 | (158/159) Accurately ripped
5 | (158/159) Accurately ripped
6 | (157/159) Accurately ripped
[AccurateRip ID: 000b8074-003cb647-460ac106] found.
Track [ CRC | V2 ] Status
01 [430de6ef|d4e32708] (044+072/116) Accurately ripped
02 [43a8359d|a7159e6a] (045+069/114) Accurately ripped
03 [51edad64|d1e3c0b8] (044+069/113) Accurately ripped
04 [1c83bff5|2e369f11] (043+068/111) Accurately ripped
05 [24fca196|a9a664e6] (046+069/115) Accurately ripped
06 [919ffffe|12c70f7e] (043+067/110) Accurately ripped

Track Peak [ CRC32 ] [W/O NULL] [ LOG ]
– 98,0 [84F76BFE] [595BC880] CRC32
01 86,3 [3BD544B1] [1E957999]
02 84,5 [56469DA1] [61A29B88]
03 98,0 [14374B57] [FB36ACC6]
04 84,5 [9A7D4BF8] [68554657]
05 84,3 [0173D2EA] [5E81F464]
06 87,6 [48720942] [3A602668]

Thanks to arizonadream

See also: