Tags
Language
Tags
February 2024
Su Mo Tu We Th Fr Sa
28 29 30 31 1 2 3
4 5 6 7 8 9 10
11 12 13 14 15 16 17
18 19 20 21 22 23 24
25 26 27 28 29 1 2
Attention❗ To save your time, in order to download anything on this site, you must be registered 👉 HERE. If you do not have a registration yet, it is better to do it right away. ✌

( • )( • ) ( ͡⚆ ͜ʖ ͡⚆ ) (‿ˠ‿)
SpicyMags.xyz

McCoy Tyner Trio - Inception (1962) [Reissue 1997]

Posted By: gribovar
McCoy Tyner Trio - Inception (1962) [Reissue 1997]

McCoy Tyner - Inception (1962) [Reissue 1997]
EAC Rip | FLAC (tracks+.cue+log) - 207 MB | MP3 CBR 320 kbps (LAME 3.93) - 79 MB | Covers - 6 MB
Genre: Jazz, Post-Bop | RAR 3% Rec. | Label: Impulse!/MCA Records (IMP 12202)

Those familiar with the dense, percussive style that pianist McCoy Tyner has cultivated since the 1970s onwards may be surprised by what they hear on Inception. Like Reaching Fourth and Nights of Ballads and Blues, this album gives listeners the chance to hear what a very young Tyner sounded like outside the confines of the classic John Coltrane quartet of the early '60s; it reveals a lyrical approach to jazz piano that seems a far cry from Tyner's mature style. The choice of material is fairly evenly split between modal pieces like "Inception" and more harmonically involved tunes like "Speak Low," and the pianist's treatment of both demonstrates the extent to which his early work was rooted in bebop. Tyner had yet to develop the massive orchestral sound and highly distinctive vocabulary of modal licks that would mark his later style, and throughout this album he spins dizzyingly long and singing lines with an exquisitely light touch. The irresistible rush of forward momentum that he maintains on tracks like "Effendi" and "Blues for Gwen" is breathtaking, and there is an exuberant, almost athletic quality to much of his solo work. Bassist Art Davis and drummer Elvin Jones provide superb accompaniment throughout, and they lay a solid rhythmic foundation for Tyner's sparkling melodic flights. The pianist's penchant for drama, which asserts itself more strongly in his later work, is on brief display in the original ballad "Sunset"; his skills as an arranger, though evident on several tracks, are perhaps best illustrated by the intricate contrapuntal treatment of "There Is No Greater Love."
Tracklist:
01. Inception
02. There Is No Greater Love
03. Blues For Gwen
04. Sunset
05. Effendi
06. Speak Low

Total time: 32:52

Exact Audio Copy V0.99 prebeta 4 from 23. January 2008

EAC extraction logfile from 15. May 2009, 12:42

McCoy Tyner / Inception

Used drive : PBDS DVD+-RW DS-8W1P Adapter: 0 ID: 0

Read mode : Secure
Utilize accurate stream : Yes
Defeat audio cache : Yes
Make use of C2 pointers : No

Read offset correction : 594
Overread into Lead-In and Lead-Out : No
Fill up missing offset samples with silence : Yes
Delete leading and trailing silent blocks : No
Null samples used in CRC calculations : Yes
Used interface : Native Win32 interface for Win NT & 2000
Gap handling : Appended to previous track

Used output format : User Defined Encoder
Selected bitrate : 128 kBit/s
Quality : High
Add ID3 tag : No
Command line compressor : C:\Program Files\FLAC\flac.exe
Additional command line options : -V -8 -T "artist=%a" -T "title=%t" -T "album=%g" -T "date=%y" -T "tracknumber=%n" -T "genre=%m" %s


TOC of the extracted CD

Track | Start | Length | Start sector | End sector
––––––––––––––––––––––––––––-
1 | 0:00.00 | 4:28.47 | 0 | 20146
2 | 4:28.47 | 6:21.03 | 20147 | 48724
3 | 10:49.50 | 4:26.05 | 48725 | 68679
4 | 15:15.55 | 4:41.52 | 68680 | 89806
5 | 19:57.32 | 6:39.68 | 89807 | 119799
6 | 26:37.25 | 6:15.32 | 119800 | 147956


Track 1

Filename F:\EAC Rips\McCoy Tyner,Inception,01 - Inception.wav

Pre-gap length 0:00:02.00

Peak level 100.0 %
Track quality 99.9 %
Test CRC B729561B
Copy CRC B729561B
Cannot be verified as accurate (confidence 4) [1ECDE6E2], AccurateRip returned [DBEEFFC6]
Copy OK

Track 2

Filename F:\EAC Rips\McCoy Tyner,Inception,02 - There Is No Greater Love.wav

Pre-gap length 0:00:02.56

Peak level 100.0 %
Track quality 100.0 %
Test CRC 57C7E765
Copy CRC 57C7E765
Cannot be verified as accurate (confidence 4) [31BABBA0], AccurateRip returned [83B7563E]
Copy OK

Track 3

Filename F:\EAC Rips\McCoy Tyner,Inception,03 - Blues For Gwen.wav

Pre-gap length 0:00:03.10

Peak level 96.8 %
Track quality 100.0 %
Test CRC 4811EF00
Copy CRC 4811EF00
Cannot be verified as accurate (confidence 4) [24C7CEAD], AccurateRip returned [97DEBD9F]
Copy OK

Track 4

Filename F:\EAC Rips\McCoy Tyner,Inception,04 - Sunset.wav

Pre-gap length 0:00:03.10

Peak level 71.3 %
Track quality 100.0 %
Test CRC 1419376F
Copy CRC 1419376F
Cannot be verified as accurate (confidence 4) [4C9DF4E4], AccurateRip returned [2013094B]
Copy OK

Track 5

Filename F:\EAC Rips\McCoy Tyner,Inception,05 - Effendi.wav

Pre-gap length 0:00:02.60

Peak level 100.0 %
Track quality 100.0 %
Test CRC 695B6C71
Copy CRC 695B6C71
Cannot be verified as accurate (confidence 4) [6F6E0543], AccurateRip returned [3574253F]
Copy OK

Track 6

Filename F:\EAC Rips\McCoy Tyner,Inception,06 - Speak Low.wav

Pre-gap length 0:00:02.50

Peak level 83.3 %
Track quality 100.0 %
Test CRC 0A847670
Copy CRC 0A847670
Cannot be verified as accurate (confidence 4) [CDADE48C], AccurateRip returned [4402DD26]
Copy OK


No tracks could be verified as accurate
You may have a different pressing from the one(s) in the database

No errors occurred

End of status report

[CUETools log; Date: 12.05.2022 17:43:10; Version: 2.1.4]
[CTDB TOCID: BZTNumFch88De1h62E5.QMTr2wE-] found.
Track | CTDB Status
1 | (110/111) Accurately ripped
2 | (109/111) Accurately ripped
3 | (110/111) Accurately ripped
4 | (111/111) Accurately ripped
5 | (110/111) Accurately ripped
6 | (110/111) Accurately ripped
[AccurateRip ID: 00078e0c-0028a914-5407b406] found.
Track [ CRC | V2 ] Status
01 [1ecde6e2|ed5408bf] (10+15/83) Accurately ripped
02 [31babba0|ddc5d24d] (10+15/83) Accurately ripped
03 [24c7cead|4b112772] (10+15/83) Accurately ripped
04 [4c9df4e4|f15a91c5] (10+15/83) Accurately ripped
05 [6f6e0543|664725ce] (10+15/83) Accurately ripped
06 [cdade48c|4995441e] (10+15/83) Accurately ripped
Offsetted by -1345:
01 [0e92a7d6] (05/83) Accurately ripped
02 [736aa076] (05/83) Accurately ripped
03 [a4376ba7] (05/83) Accurately ripped
04 [ea471dc7] (05/83) Accurately ripped
05 [84733caf] (05/83) Accurately ripped
06 [e211f6ce] (05/83) Accurately ripped
Offsetted by -681:
01 [3d9ac6f6] (02/83) Accurately ripped
02 [efa22966] (02/83) Accurately ripped
03 [2a7d8f37] (02/83) Accurately ripped
04 [2a9faaff] (02/83) Accurately ripped
05 [5eaa248f] (02/83) Accurately ripped
06 [5b86579e] (02/83) Accurately ripped
Offsetted by 531:
01 [dbeeffc6] (07/83) Accurately ripped
02 [83b7563e] (07/83) Accurately ripped
03 [97debd9f] (07/83) Accurately ripped
04 [2013094b] (07/83) Accurately ripped
05 [3574253f] (07/83) Accurately ripped
06 [4402dd26] (07/83) Accurately ripped
Offsetted by 646:
01 [9130052a] (02/83) Accurately ripped
02 [91221c9c] (02/83) Accurately ripped
03 [5d63f2d1] (02/83) Accurately ripped
04 [cb37f692] (02/83) Accurately ripped
05 [885af4bb] (02/83) Accurately ripped
06 [b8467100] (02/83) Accurately ripped
Offsetted by 658:
01 [0ef405ba] (02/83) Accurately ripped
02 [a4578c94] (02/83) Accurately ripped
03 [912a9d19] (02/83) Accurately ripped
04 [4c61a8ee] (02/83) Accurately ripped
05 [0936efab] (02/83) Accurately ripped
06 [c22e53e8] (02/83) Accurately ripped

Track Peak [ CRC32 ] [W/O NULL] [ LOG ]
– 99,9 [C63D0E6B] [0A931232]
01 99,9 [B729561B] [6CBE9E24] CRC32
02 99,9 [57C7E765] [6DD632CE] CRC32
03 96,8 [4811EF00] [80C4EE98] CRC32
04 71,3 [1419376F] [E125C497] CRC32
05 99,9 [695B6C71] [4B5722ED] CRC32
06 83,3 [0A847670] [6AC9C430] CRC32

Thanks to the original releaser