Tags
Language
Tags
July 2024
Su Mo Tu We Th Fr Sa
30 1 2 3 4 5 6
7 8 9 10 11 12 13
14 15 16 17 18 19 20
21 22 23 24 25 26 27
28 29 30 31 1 2 3

Adriana Fernandez, Marcello Di Lisa, Concerto de' Cavalieri - Alessandro Scarlatti: L'Olimpia, L'Arianna (2012)

Posted By: ArlegZ
Adriana Fernandez, Marcello Di Lisa, Concerto de' Cavalieri - Alessandro Scarlatti: L'Olimpia, L'Arianna (2012)

Adriana Fernandez, Marcello Di Lisa, Concerto de' Cavalieri - Alessandro Scarlatti: L'Olimpia, L'Arianna, Su le sponde del Tebro (2012)
EAC | FLAC | Image (Cue & Log) ~ 386 Mb | Total time: 48:41 | Scans included
Classical | Label: CPO | 777 748-2 | Recorded: 2009

Marcello Di Lisa presents three cantate con stromenti that explore the anguish of abandoned lovers; his erudite booklet-note discusses the literary tradition behind the stories of the shepherd Aminta (a stock Arcadian character with roots in Hellenistic poetry), Ariadne abandoned by Theseus on Naxos, and the forsaken Olimpia (heroine of cantos 9-11 of Ariosto’s Orlando furioso), and also provides a penetrating commentary on the musical content of Scarlatti’s cantatas. Concerto de’ Cavalieri’s sinewy violins depict tension in the whirling E minor fugato that introduces the narration […], Adriana Fernandez sings emotively. […] The spirit of Concerto de’ Cavalieri’s performances feel spot-on.
–David Vickers

Performer:
Adriana Fernandez, soprano
Concerto de' Cavalieri
Marcello Di Lisa, harpsichord & director

Tracklist:
Alessandro Scarlatti (1660-1725)
L'Olimpia, Cantata for soprano, strings and basso continuo
01. Sinfonia
02. Recitativo: Su la sponda del mare
03. Aria: Aiutatemi a morire
04. Recitativo: O mare, o stelle, o venti
05. Aria: Le procelle si fan calme
06. Recitativo: Or così tra sé parla
07. Aria: Quanto è simile il mio core
L'Arianna, Cantata for soprano, strings and basso continuo
08. Sinfonia
09. Recitativo: Ebra d'amor fuggia
10. Aria: Pur ti stringo, o mio diletto
11. Recitativo: Ribaciolla Teseo
12. Aria: Stringa sì dolce il nodo ardente Amore
13. Recitativo; Ma poi che desta vide
14. Aria: Ingoiatelo, laceratelo
15. Recitativo: Ah che son con Teseo
16. Aria: Struggiti o core in pianto
17. Recitativo: Sì disse
Su le sponde del Tebro, Cantata for soprano, trumpet, strings and basso continuo
18. Sinfonia
19. Recitativo: Su le sponde del Tebro
20. Aria: Contentavei, o fidi pensieri
21. Recitativo: Mesto, stanco e spirante
22. Aria: Infelici miei lumi
23. Aria: Dite almeno, astri crudeli
24. Recitativo: All'aura, al cielo, ai venti
25. Aria: Tralascia pur di piangere


Exact Audio Copy V1.3 from 2. September 2016

EAC extraction logfile from 28. December 2019, 13:39

Marcello Di Lisa / A. Scarlatti - L'Olimpia, L'Arianna

Used drive : HL-DT-STBD-RE WH16NS40 Adapter: 1 ID: 0

Read mode : Secure
Utilize accurate stream : Yes
Defeat audio cache : Yes
Make use of C2 pointers : No

Read offset correction : 6
Overread into Lead-In and Lead-Out : No
Fill up missing offset samples with silence : Yes
Delete leading and trailing silent blocks : No
Null samples used in CRC calculations : Yes
Used interface : Native Win32 interface for Win NT & 2000

Used output format : User Defined Encoder
Selected bitrate : 1024 kBit/s
Quality : High
Add ID3 tag : No
Command line compressor : C:\Program Files (x86)\Exact Audio Copy\FLAC\FLAC.EXE
Additional command line options : -6 -V -T "ARTIST=%artist%" -T "TITLE=%title%" -T "ALBUM=%albumtitle%" -T "DATE=%year%" -T "TRACKNUMBER=%tracknr%" -T "GENRE=%genre%" -T "COMMENT=%comment%" -T "BAND=%albuminterpret%" -T "ALBUMARTIST=%albuminterpret%" -T "COMPOSER=%composer%" %haslyrics%–tag-from-file=LYRICS="%lyricsfile%"%haslyrics% -T "DISCNUMBER=%cdnumber%" -T "TOTALDISCS=%totalcds%" -T "TOTALTRACKS=%numtracks%" %hascover%–picture="%coverfile%"%hascover% %source% -o %dest%


TOC of the extracted CD

Track | Start | Length | Start sector | End sector
––––––––––––––––––––––––––––-
1 | 0:00.00 | 1:52.70 | 0 | 8469
2 | 1:52.70 | 1:34.60 | 8470 | 15579
3 | 3:27.55 | 4:40.57 | 15580 | 36636
4 | 8:08.37 | 0:54.02 | 36637 | 40688
5 | 9:02.39 | 3:10.74 | 40689 | 55012
6 | 12:13.38 | 0:36.45 | 55013 | 57757
7 | 12:50.08 | 2:19.33 | 57758 | 68215
8 | 15:09.41 | 1:48.24 | 68216 | 76339
9 | 16:57.65 | 0:49.67 | 76340 | 80081
10 | 17:47.57 | 2:16.53 | 80082 | 90334
11 | 20:04.35 | 1:14.40 | 90335 | 95924
12 | 21:19.00 | 3:28.24 | 95925 | 111548
13 | 24:47.24 | 0:43.61 | 111549 | 114834
14 | 25:31.10 | 1:35.32 | 114835 | 121991
15 | 27:06.42 | 0:48.59 | 121992 | 125650
16 | 27:55.26 | 6:00.35 | 125651 | 152685
17 | 33:55.61 | 1:01.69 | 152686 | 157329
18 | 34:57.55 | 1:28.32 | 157330 | 163961
19 | 36:26.12 | 0:52.02 | 163962 | 167863
20 | 37:18.14 | 2:39.01 | 167864 | 179789
21 | 39:57.15 | 1:12.03 | 179790 | 185192
22 | 41:09.18 | 3:10.26 | 185193 | 199468
23 | 44:19.44 | 2:08.56 | 199469 | 209124
24 | 46:28.25 | 0:54.50 | 209125 | 213224
25 | 47:23.00 | 1:16.74 | 213225 | 218998


Range status and errors

Selected range

Filename C:\Users\Grant\Desktop\Marcello Di Lisa - A. Scarlatti - L'Olimpia, L'Arianna.wav

Peak level 93.1 %
Extraction speed 7.3 X
Range quality 100.0 %
Test CRC 62C30C80
Copy CRC 62C30C80
Copy OK

No errors occurred


AccurateRip summary

Track 1 accurately ripped (confidence 6) [138998C3] (AR v2)
Track 2 accurately ripped (confidence 6) [3ADF7511] (AR v2)
Track 3 accurately ripped (confidence 6) [50C17106] (AR v2)
Track 4 accurately ripped (confidence 6) [BF003C33] (AR v2)
Track 5 accurately ripped (confidence 6) [CF02D409] (AR v2)
Track 6 accurately ripped (confidence 6) [87BF5F47] (AR v2)
Track 7 accurately ripped (confidence 6) [BC9E8DAB] (AR v2)
Track 8 accurately ripped (confidence 6) [485E32C2] (AR v2)
Track 9 accurately ripped (confidence 6) [25487EC9] (AR v2)
Track 10 accurately ripped (confidence 6) [8B176F78] (AR v2)
Track 11 accurately ripped (confidence 6) [7BA1A88F] (AR v2)
Track 12 accurately ripped (confidence 6) [EF9F4D89] (AR v2)
Track 13 accurately ripped (confidence 6) [D6CC2E0B] (AR v2)
Track 14 accurately ripped (confidence 6) [CABD479A] (AR v2)
Track 15 accurately ripped (confidence 6) [545D7B36] (AR v2)
Track 16 accurately ripped (confidence 6) [2CDEE232] (AR v2)
Track 17 accurately ripped (confidence 6) [13D5185E] (AR v2)
Track 18 accurately ripped (confidence 6) [3321EECB] (AR v2)
Track 19 accurately ripped (confidence 6) [F809D17C] (AR v2)
Track 20 accurately ripped (confidence 6) [CFF7DA93] (AR v2)
Track 21 accurately ripped (confidence 6) [725D6F26] (AR v2)
Track 22 accurately ripped (confidence 6) [271489AD] (AR v2)
Track 23 accurately ripped (confidence 6) [2F37D173] (AR v2)
Track 24 accurately ripped (confidence 6) [773FBCF4] (AR v2)
Track 25 accurately ripped (confidence 6) [EEE0B23D] (AR v2)

All tracks accurately ripped

End of status report

–– CUETools DB Plugin V2.1.6

[CTDB TOCID: C.aaHSC_XI2j9BOOgSFDGpn27RY-] found
Submit result: C.aaHSC_XI2j9BOOgSFDGpn27RY- has been confirmed
Track | CTDB Status
1 | (6/6) Accurately ripped
2 | (6/6) Accurately ripped
3 | (6/6) Accurately ripped
4 | (6/6) Accurately ripped
5 | (6/6) Accurately ripped
6 | (6/6) Accurately ripped
7 | (6/6) Accurately ripped
8 | (6/6) Accurately ripped
9 | (6/6) Accurately ripped
10 | (6/6) Accurately ripped
11 | (6/6) Accurately ripped
12 | (6/6) Accurately ripped
13 | (6/6) Accurately ripped
14 | (6/6) Accurately ripped
15 | (6/6) Accurately ripped
16 | (6/6) Accurately ripped
17 | (6/6) Accurately ripped
18 | (6/6) Accurately ripped
19 | (6/6) Accurately ripped
20 | (6/6) Accurately ripped
21 | (6/6) Accurately ripped
22 | (6/6) Accurately ripped
23 | (6/6) Accurately ripped
24 | (6/6) Accurately ripped
25 | (6/6) Accurately ripped


==== Log checksum FB2BC2B0ED462A0FCA491669C496C4B551F575D2C1D76BA6E5BDF4B36F9FFF3F ====

Adriana Fernandez, Marcello Di Lisa, Concerto de' Cavalieri - Alessandro Scarlatti: L'Olimpia, L'Arianna (2012)

Thanks to the original releaser