Tags
Language
Tags

Maddy Prior & June Tabor - Silly Sisters (1976) Reissue 1994

Posted By: Designol
Maddy Prior & June Tabor - Silly Sisters (1976) Reissue 1994

Maddy Prior & June Tabor - Silly Sisters (1976) Reissue 1994
EAC | FLAC | Image (Cue&Log) ~ 242 Mb | Mp3 (CBR320) ~ 108 Mb | Scans included
British Folk, British Folk-Rock, Celtic | Label: BGO | # BGOCD214 | Time: 00:41:50

This was a match made in heaven: Maddy Prior, the sweet-voiced singer for Steeleye Span, and June Tabor, a darker-toned solo performer who was already making a significant name for herself on the British folk scene. The collaboration was blessed by the presence of most of that scene's aristocracy, including guitarists Nic Jones and Martin Carthy, bassist Danny Thompson, and mandolinist Andy Irvine. But the album's most transcendent moments come when Prior and Tabor sing together a cappella, as they do at the beginning of the gentle "Seven Joys of Mary" and the more astringent "Burning of Auchindoon," not to mention the hair-raising "Four Loom Weaver." A few of these songs require a couple of listens before they reveal all of their charms, but all of them are worth the effort.

Review by Rick Anderson, Allmusic.com

Maddy Prior at Allmusic
Maddy Prior Wiki

June Tabor at Allmusic
June Tabor Wiki

Tracklist:

01. Doffin' Mistress (02:11)
02. Burning of Auchidoon (01:06)
03. Lass of Loch Royal (04:07)
04. The Seven Joys of Mary (03:16)
05. My Husband's Got No Courage in Him (03:09)
06. Singing the Travels (02:49)
07. Silver Whistle (04:09)
08. The Grey Funnel Line (03:03)
09. Geordie (04:00)
10. The Seven Wonders (04:32)
11. Four Loom Weaver (02:37)
12. The Game of Cards (03:18)
13. Dame Durdan (03:01)


Exact Audio Copy V0.99 prebeta 5 from 4. May 2009

Отчёт EAC об извлечении, выполненном 4. октября 2009, 11:32

Maddy Prior & June Tabor / Silly Sisters

Дисковод: ASUS DRW-2014S1T Adapter: 3 ID: 0

Режим чтения : Достоверность
Использование точного потока : Да
Отключение кэша аудио : Да
Использование указателей C2 : Нет

Коррекция смещения при чтении : 6
Способность читать области Lead-in и Lead-out : Нет
Заполнение пропущенных сэмплов тишиной : Да
Удаление блоков с тишиной в начале и конце : Нет
При вычислениях CRC использовались нулевые сэмплы : Да
Интерфейс : Установленный внешний ASPI-интерфейс

Выходной формат : Внутренние WAV-операции
Формат сэмплов : 44.100 Гц; 16 бит; стерео


TOC извлечённого CD

Трек | Старт | Длительность | Начальный сектор | Конечный сектор
––––––––––––––––––––––––––––––––––-
1 | 0:00.33 | 2:13.52 | 33 | 10059
2 | 2:14.10 | 1:08.45 | 10060 | 15204
3 | 3:22.55 | 4:09.10 | 15205 | 33889
4 | 7:31.65 | 3:18.60 | 33890 | 48799
5 | 10:50.50 | 3:12.43 | 48800 | 63242
6 | 14:03.18 | 2:50.72 | 63243 | 76064
7 | 16:54.15 | 4:12.25 | 76065 | 94989
8 | 21:06.40 | 3:05.15 | 94990 | 108879
9 | 24:11.55 | 4:02.05 | 108880 | 127034
10 | 28:13.60 | 4:35.25 | 127035 | 147684
11 | 32:49.10 | 2:39.43 | 147685 | 159652
12 | 35:28.53 | 3:20.47 | 159653 | 174699
13 | 38:49.25 | 3:01.08 | 174700 | 188282


Характеристики диапазона извлечения и сообщения об ошибках

Выбранный диапазон

Имя файла C:\Documents and Settings\Administrator\Desktop\uploads\Maddy Prior & June Tabor - 1978 - Silly Sisters\Maddy Prior & June Tabor - Silly Sisters.wav

Пиковый уровень 95.2 %
Качество диапазона 100.0 %
CRC копии 22BAE487
Копирование… OK

Ошибок не произошло


AccurateRip: сводка

Трек 1 точное извлечение (доверие 2) [6D9A4EFA]
Трек 2 точное извлечение (доверие 2) [F131E8C1]
Трек 3 точное извлечение (доверие 2) [872F1896]
Трек 4 точное извлечение (доверие 2) [C137A6BE]
Трек 5 точное извлечение (доверие 2) [DFC5ADB4]
Трек 6 точное извлечение (доверие 2) [2525CEF1]
Трек 7 точное извлечение (доверие 2) [6EE8C30A]
Трек 8 точное извлечение (доверие 2) [B42E3123]
Трек 9 точное извлечение (доверие 2) [841AA84A]
Трек 10 точное извлечение (доверие 2) [B2ED0A15]
Трек 11 точное извлечение (доверие 2) [CC97E59E]
Трек 12 точное извлечение (доверие 2) [35677416]
Трек 13 точное извлечение (доверие 2) [1FF08547]

Все треки извлечены точно

Конец отчёта

[CUETools log; Date: 06.09.2016 20:29:23; Version: 2.1.4]
Pregap length 00:00:33.
[CTDB TOCID: bSAUpRR8Zi3YZm8QBGLr.d07L20-] found.
Track | CTDB Status
1 | (3/3) Accurately ripped
2 | (3/3) Accurately ripped
3 | (2/3) Accurately ripped
4 | (3/3) Accurately ripped
5 | (3/3) Accurately ripped
6 | (3/3) Accurately ripped
7 | (3/3) Accurately ripped
8 | (3/3) Accurately ripped
9 | (3/3) Accurately ripped
10 | (3/3) Accurately ripped
11 | (3/3) Accurately ripped
12 | (3/3) Accurately ripped
13 | (3/3) Accurately ripped
[AccurateRip ID: 00130d0a-00c38a10-9809ce0d] found.
Track [ CRC | V2 ] Status
01 [6d9a4efa|39f0a3d5] (06+05/11) Accurately ripped
02 [f131e8c1|79d240dc] (06+05/11) Accurately ripped
03 [872f1896|4dbb3adb] (06+04/10) Accurately ripped
04 [c137a6be|c1f0b2fa] (06+05/11) Accurately ripped
05 [dfc5adb4|118e256b] (06+05/11) Accurately ripped
06 [2525cef1|546605ae] (06+05/11) Accurately ripped
07 [6ee8c30a|43d5a80b] (06+05/11) Accurately ripped
08 [b42e3123|79dee386] (06+05/11) Accurately ripped
09 [841aa84a|af33c17a] (06+05/11) Accurately ripped
10 [b2ed0a15|60274280] (06+05/11) Accurately ripped
11 [cc97e59e|517844f5] (06+05/11) Accurately ripped
12 [35677416|85d9bf16] (06+05/11) Accurately ripped
13 [1ff08547|cd1c105d] (06+05/11) Accurately ripped

Track Peak [ CRC32 ] [W/O NULL] [ LOG ]
– 95,2 [22BAE487] [B2061323] CRC32
01 92,6 [C80796D9] [1A5CB00B]
02 78,6 [12312B2E] [64549916]
03 90,7 [AF2F08B2] [27632CAA]
04 85,9 [F5011F5F] [C8B39E88]
05 77,9 [CC634B0B] [B3FF182B]
06 92,0 [54E3208E] [0EEE757B]
07 77,5 [2F754036] [C1FC43B7]
08 91,0 [25AF7D42] [BBBEFBD3]
09 95,2 [BB591831] [CB333301]
10 90,2 [EA55DEBD] [4CEE39B9]
11 66,0 [87FE565B] [376EB8EB]
12 82,2 [63054D0E] [242E1001]
13 90,9 [3E5E99CE] [0C3B1D11]

foobar2000 1.2 / Dynamic Range Meter 1.1.1
log date: 2013-01-06 19:29:05

––––––––––––––––––––––––––––––––––––––––
Analyzed: Maddy Prior & June Tabor / Silly Sisters
––––––––––––––––––––––––––––––––––––––––

DR Peak RMS Duration Track
––––––––––––––––––––––––––––––––––––––––
DR12 -0.67 dB -14.73 dB 2:14 01-Doffin' Mistress
DR13 -2.09 dB -20.25 dB 1:09 02-Burning of Auchidoon
DR12 -0.84 dB -16.52 dB 4:09 03-Lass of Loch Royal
DR12 -1.32 dB -18.61 dB 3:19 04-The Seven Joys of Mary
DR13 -2.16 dB -19.78 dB 3:13 05-My Husband's Got No Courage in Him
DR12 -0.72 dB -15.35 dB 2:51 06-Singing the Travels
DR12 -2.21 dB -19.69 dB 4:12 07-Silver Whistle
DR11 -0.82 dB -16.68 dB 3:05 08-The Grey Funnel Line
DR12 -0.42 dB -15.34 dB 4:02 09-Geordie
DR13 -0.89 dB -15.94 dB 4:35 10-The Seven Wonders
DR12 -3.60 dB -20.48 dB 2:40 11-Four Loom Weaver
DR13 -1.69 dB -17.45 dB 3:21 12-The Game of Cards
DR13 -0.82 dB -16.26 dB 3:01 13-Dame Durdan
––––––––––––––––––––––––––––––––––––––––

Number of tracks: 13
Official DR value: DR12

Samplerate: 44100 Hz
Channels: 2
Bits per sample: 16

Maddy Prior & June Tabor - Silly Sisters (1976) Reissue 1994

Maddy Prior & June Tabor - Silly Sisters (1976) Reissue 1994

All thanks to original releaser - Yojikk

More interesting music in My Blog