Tags
Language
Tags
March 2023
Su Mo Tu We Th Fr Sa
26 27 28 1 2 3 4
5 6 7 8 9 10 11
12 13 14 15 16 17 18
19 20 21 22 23 24 25
26 27 28 29 30 31 1

Lynyrd Skynyrd - One More From The Road (1976) {2001, 25th Anniversary Deluxe Edition, Remastered}

Posted By: popsakov
Lynyrd Skynyrd - One More From The Road (1976) {2001, 25th Anniversary Deluxe Edition, Remastered}

Lynyrd Skynyrd - One More From The Road (1976) {2001, 25th Anniversary Deluxe Edition, Remastered}
2CD | EAC Rip | FLAC (Tracks) + Cue + m3u + Log ~ 1,07 Gb | MP3 CBR320 ~ 362 Mb
Full Scans ~ 176 Mb | 01:12:42 + 01:17:31 | RAR 5% Recovery
Blues Rock, Southern Rock, Hard Rock | MCA Records #D242727

Double live albums were commonplace during the '70s, even for bands that weren't particularly good in concert. As a travelin' band, Lynyrd Skynyrd made their fame and fortune by being good in concert, so it made sense that they released a double-live, entitled One More from the Road, in 1976, months after the release of their fourth album, Gimme Back My Bullets. That might have been rather quick for a live album – only three years separated this record from the group's debut – but it was enthusiastically embraced, entering the Top Ten (it would become one of their best-selling albums, as well). It's easy to see why it was welcomed, since this album demonstrates what a phenomenal catalog of songs Skynyrd accumulated. Street Survivors, which appeared the following year, added "That Smell" and "You Got That Right" to the canon, but this pretty much has everything else, sometimes extended into jams as long as those of the Allmans, but always much rawer, nearly dangerous. That catalog, as much as the strong performances, makes One More from the Road worth hearing. Heard here, on one record, the consistency of Skynyrd's work falls into relief, and they not only clearly tower above their peers based on what's here; the cover of "T for Texas" illustrates that they're carrying on the Southern tradition, not starting a new one. Like most live albums, this is not necessarily essential, but if you're a fan, it's damn hard to take this album off after it starts.

~ Stephen Thomas Erlewine, All Music

***************

Track List CD1:

01. Introduction by Alex Cooley / Workin' for MCA [5:33]
02. I Ain't the One [3:47]
03. Saturday Night Special [5:40]
04. Searching [4:01]
05. Travellin' Man [4:37]
06. Simple Man [6:56]
07. Whiskey Rock-A-Roller [4:49]
08. The Needle and the Spoon [4:35]
09. Gimme Back My Bullets [4:01]
10. Tuesday's Gone [8:26]
11. Gimme Three Steps [5:11]
12. Call Me the Breeze [5:51]
13. T for Texas [9:15]

Exact Audio Copy V1.0 beta 3 from 29. August 2011

EAC extraction logfile from 3. February 2012, 14:15

Lynyrd Skynyrd / One More From the Road: 25th Anniversary Deluxe Edition

Used drive : PIONEER DVD-RW DVR-118L Adapter: 0 ID: 0

Read mode : Secure
Utilize accurate stream : Yes
Defeat audio cache : Yes
Make use of C2 pointers : No

Read offset correction : 6
Overread into Lead-In and Lead-Out : No
Fill up missing offset samples with silence : Yes
Delete leading and trailing silent blocks : No
Null samples used in CRC calculations : Yes
Used interface : Native Win32 interface for Win NT & 2000
Gap handling : Appended to previous track

Used output format : User Defined Encoder
Selected bitrate : 256 kBit/s
Quality : High
Add ID3 tag : No
Command line compressor : C:\Program Files\Exact Audio Copy\Flac\flac.exe
Additional command line options : -8 -V -T "ARTIST=%artist%" -T "TITLE=%title%" -T "ALBUM=%albumtitle%" -T "DATE=%year%" -T"TRACKNUMBER=%tracknr%" -T "TOTALTRACKS=%numtracks%" -T "GENRE=%genre%" -T "ALBUMARTIST=%albumartist%" -T"ALBUM ARTIST=%albumartist%" -T "COMMENT=EAC Secure Mode, Test & Copy, AccurateRip, FLAC -8" %source%


TOC of the extracted CD

Track | Start | Length | Start sector | End sector
––––––––––––––––––––––––––––-
1 | 0:00.00 | 5:32.47 | 0 | 24946
2 | 5:32.47 | 3:47.20 | 24947 | 41991
3 | 9:19.67 | 5:39.48 | 41992 | 67464
4 | 14:59.40 | 4:00.65 | 67465 | 85529
5 | 19:00.30 | 4:37.20 | 85530 | 106324
6 | 23:37.50 | 6:56.25 | 106325 | 137549
7 | 30:34.00 | 4:48.60 | 137550 | 159209
8 | 35:22.60 | 4:35.37 | 159210 | 179871
9 | 39:58.22 | 4:01.05 | 179872 | 197951
10 | 43:59.27 | 8:25.68 | 197952 | 235894
11 | 52:25.20 | 5:11.00 | 235895 | 259219
12 | 57:36.20 | 5:50.72 | 259220 | 285541
13 | 63:27.17 | 9:14.73 | 285542 | 327164


Track 1

Filename F:\Skynyrd\CD1\01 - Introduction by Alex Cooley , Workin' for MCA.wav

Pre-gap length 0:00:02.00

Peak level 98.9 %
Extraction speed 1.1 X
Track quality 99.9 %
Test CRC 5B71076E
Copy CRC 5B71076E
Accurately ripped (confidence 2) [D331594B] (AR v2)
Copy OK

Track 2

Filename F:\Skynyrd\CD1\02 - I Ain't the One.wav

Peak level 100.0 %
Extraction speed 1.3 X
Track quality 100.0 %
Test CRC 98ACB6DB
Copy CRC 98ACB6DB
Accurately ripped (confidence 2) [EC98FBB2] (AR v2)
Copy OK

Track 3

Filename F:\Skynyrd\CD1\03 - Saturday Night Special.wav

Peak level 97.7 %
Extraction speed 1.4 X
Track quality 99.9 %
Test CRC E1C7AEA3
Copy CRC E1C7AEA3
Accurately ripped (confidence 15) [4774F036] (AR v1)
Copy OK

Track 4

Filename F:\Skynyrd\CD1\04 - Searching.wav

Peak level 98.8 %
Extraction speed 1.5 X
Track quality 100.0 %
Test CRC A2138CD5
Copy CRC A2138CD5
Accurately ripped (confidence 2) [8B93C84E] (AR v2)
Copy OK

Track 5

Filename F:\Skynyrd\CD1\05 - Travellin' Man.wav

Peak level 94.4 %
Extraction speed 1.7 X
Track quality 100.0 %
Test CRC E3B44BD2
Copy CRC E3B44BD2
Accurately ripped (confidence 2) [A9C5FF0D] (AR v2)
Copy OK

Track 6

Filename F:\Skynyrd\CD1\06 - Simple Man.wav

Peak level 94.4 %
Extraction speed 1.7 X
Track quality 99.9 %
Test CRC 71D7B16A
Copy CRC 71D7B16A
Accurately ripped (confidence 2) [E57A51F4] (AR v2)
Copy OK

Track 7

Filename F:\Skynyrd\CD1\07 - Whiskey Rock-A-Roller.wav

Peak level 94.4 %
Extraction speed 1.7 X
Track quality 99.9 %
Test CRC 5F1A8225
Copy CRC 5F1A8225
Accurately ripped (confidence 2) [8E73C6BB] (AR v2)
Copy OK

Track 8

Filename F:\Skynyrd\CD1\08 - The Needle and the Spoon.wav

Peak level 96.9 %
Extraction speed 2.0 X
Track quality 100.0 %
Test CRC B8D20D0D
Copy CRC B8D20D0D
Accurately ripped (confidence 2) [AAB15DB6] (AR v2)
Copy OK

Track 9

Filename F:\Skynyrd\CD1\09 - Gimme Back My Bullets.wav

Peak level 95.1 %
Extraction speed 2.0 X
Track quality 100.0 %
Test CRC 9FD24B6E
Copy CRC 9FD24B6E
Accurately ripped (confidence 2) [E0537F39] (AR v2)
Copy OK

Track 10

Filename F:\Skynyrd\CD1\10 - Tuesday's Gone.wav

Peak level 94.4 %
Extraction speed 2.3 X
Track quality 100.0 %
Test CRC 3D30607D
Copy CRC 3D30607D
Accurately ripped (confidence 2) [BA0D2BF8] (AR v2)
Copy OK

Track 11

Filename F:\Skynyrd\CD1\11 - Gimme Three Steps.wav

Peak level 96.1 %
Extraction speed 2.2 X
Track quality 100.0 %
Test CRC ED78EEEC
Copy CRC ED78EEEC
Accurately ripped (confidence 2) [E0E516DD] (AR v2)
Copy OK

Track 12

Filename F:\Skynyrd\CD1\12 - Call Me the Breeze.wav

Peak level 94.4 %
Extraction speed 2.3 X
Track quality 100.0 %
Test CRC 4848AA22
Copy CRC 4848AA22
Accurately ripped (confidence 2) [00E89D3A] (AR v2)
Copy OK

Track 13

Filename F:\Skynyrd\CD1\13 - T for Texas.wav

Peak level 97.7 %
Extraction speed 2.5 X
Track quality 100.0 %
Test CRC D8BA3839
Copy CRC D8BA3839
Accurately ripped (confidence 2) [EF90758B] (AR v2)
Copy OK


All tracks accurately ripped

No errors occurred

End of status report

–– CUETools DB Plugin V2.1.3

[CTDB TOCID: A3Y1laWeq0GHzczZ4hpES6mza.Q-] found, Submit result: A3Y1laWeq0GHzczZ4hpES6mza.Q- has been confirmed
[47b252bd] (1/1) Accurately ripped


==== Log checksum 722C4B6F3367490E57FB359376E0E2EC56E4DCF6302ACF490535DF91F0F69E64 ====

[CUETools log; Date: 06.10.2020 16:31:45; Version: 2.1.6]
[CTDB TOCID: A3Y1laWeq0GHzczZ4hpES6mza.Q-] found.
Track | CTDB Status
1 | (97/99) Accurately ripped
2 | (97/99) Accurately ripped
3 | (97/99) Accurately ripped
4 | (97/99) Accurately ripped
5 | (97/99) Accurately ripped
6 | (97/99) Accurately ripped
7 | (97/99) Accurately ripped
8 | (97/99) Accurately ripped
9 | (97/99) Accurately ripped
10 | (97/99) Accurately ripped
11 | (97/99) Accurately ripped
12 | (97/99) Accurately ripped
13 | (93/99) Accurately ripped
[AccurateRip ID: 00202cf9-0145af46-9e110a0d] found.
Track [ CRC | V2 ] Status
01 [41e6b8b2|d331594b] (17+41/94) Accurately ripped
02 [d9a339f0|ec98fbb2] (17+43/96) Accurately ripped
03 [4774f036|a75d7554] (17+42/95) Accurately ripped
04 [ef9f001b|8b93c84e] (17+43/96) Accurately ripped
05 [ac2d1941|a9c5ff0d] (17+43/97) Accurately ripped
06 [c3cf49c7|e57a51f4] (17+42/95) Accurately ripped
07 [07d34e05|8e73c6bb] (17+43/96) Accurately ripped
08 [9d6eb81a|aab15db6] (17+42/95) Accurately ripped
09 [b2a24be2|e0537f39] (17+42/95) Accurately ripped
10 [eaba5c78|ba0d2bf8] (17+43/97) Accurately ripped
11 [fe5c4b84|e0e516dd] (17+43/97) Accurately ripped
12 [9b0cc85d|00e89d3a] (16+42/94) Accurately ripped
13 [a7f5bf2e|ef90758b] (16+43/94) Accurately ripped
Offsetted by -6:
01 [3b23b70c] (00/94) No match (V2 was not tested)
02 [d5d71f4a] (00/96) No match (V2 was not tested)
03 [5710af84] (00/95) No match (V2 was not tested)
04 [8cd08797] (00/96) No match (V2 was not tested)
05 [a6af2acd] (00/97) No match (V2 was not tested)
06 [3f444654] (00/95) No match (V2 was not tested)
07 [2698fd64] (00/96) No match (V2 was not tested)
08 [94ffd716] (00/95) No match (V2 was not tested)
09 [34b28cfd] (00/95) No match (V2 was not tested)
10 [9e63e18f] (00/97) No match (V2 was not tested)
11 [cc20b48f] (00/97) No match (V2 was not tested)
12 [9ae44b79] (00/94) No match (V2 was not tested)
13 [961d40ca] (00/94) No match (V2 was not tested)
Offsetted by 6:
01 [fb1e458d] (00/94) No match (V2 was not tested)
02 [77528a33] (00/96) No match (V2 was not tested)
03 [6a60cb0c] (00/95) No match (V2 was not tested)
04 [f75ae285] (00/96) No match (V2 was not tested)
05 [69865d86] (00/97) No match (V2 was not tested)
06 [c652049a] (00/95) No match (V2 was not tested)
07 [d55846e0] (00/96) No match (V2 was not tested)
08 [533f84e6] (00/95) No match (V2 was not tested)
09 [5409cc89] (00/95) No match (V2 was not tested)
10 [00b6c8d4] (00/97) No match (V2 was not tested)
11 [da6f53ad] (00/97) No match (V2 was not tested)
12 [824a5c56] (00/94) No match (V2 was not tested)
13 [84b4bbf1] (00/94) No match (V2 was not tested)

Track Peak [ CRC32 ] [W/O NULL] [ LOG ]
– 100,0 [88E6F5F6] [0FC325F1]
01 98,9 [5B71076E] [C0922A34] CRC32
02 100,0 [98ACB6DB] [5EBF418E] CRC32
03 97,7 [E1C7AEA3] [4BD8C61C] CRC32
04 98,8 [A2138CD5] [90181A22] CRC32
05 94,4 [E3B44BD2] [5F839367] CRC32
06 94,4 [71D7B16A] [1D18856C] CRC32
07 94,4 [5F1A8225] [F064092A] CRC32
08 96,9 [B8D20D0D] [AD5B014B] CRC32
09 95,1 [9FD24B6E] [2B0EF700] CRC32
10 94,4 [3D30607D] [31EAD123] CRC32
11 96,1 [ED78EEEC] [3C3E45A0] CRC32
12 94,4 [4848AA22] [73DC149F] CRC32
13 97,7 [D8BA3839] [EFC8F3FD] CRC32

Track List CD2:

01. Sweet Home Alabama [7:29]
02. Crossroads [4:16]
03. Free Bird [14:26]
04. Introduction by Alex Cooley / Workin' for MCA (alternate take) [5:38]
05. I Ain't the One (alternate take) [3:53]
06. Searching (alternate take) [4:14]
07. Gimme Three Steps (alternate take) [4:43]
08. Call Me the Breeze (alternate take) [5:43]
09. Sweet Home Alabama (alternate take) [7:28]
10. Crossroads (alternate take) [4:46]
11. Free Bird (alternate take) [14:56]

Exact Audio Copy V1.0 beta 3 from 29. August 2011

EAC extraction logfile from 3. February 2012, 15:41

Lynyrd Skynyrd / One More From the Road: 25th Anniversary Deluxe Edition

Used drive : PIONEER DVD-RW DVR-118L Adapter: 0 ID: 0

Read mode : Secure
Utilize accurate stream : Yes
Defeat audio cache : Yes
Make use of C2 pointers : No

Read offset correction : 6
Overread into Lead-In and Lead-Out : No
Fill up missing offset samples with silence : Yes
Delete leading and trailing silent blocks : No
Null samples used in CRC calculations : Yes
Used interface : Native Win32 interface for Win NT & 2000
Gap handling : Appended to previous track

Used output format : User Defined Encoder
Selected bitrate : 256 kBit/s
Quality : High
Add ID3 tag : No
Command line compressor : C:\Program Files\Exact Audio Copy\Flac\flac.exe
Additional command line options : -8 -V -T "ARTIST=%artist%" -T "TITLE=%title%" -T "ALBUM=%albumtitle%" -T "DATE=%year%" -T"TRACKNUMBER=%tracknr%" -T "TOTALTRACKS=%numtracks%" -T "GENRE=%genre%" -T "ALBUMARTIST=%albumartist%" -T"ALBUM ARTIST=%albumartist%" -T "COMMENT=EAC Secure Mode, Test & Copy, AccurateRip, FLAC -8" %source%


TOC of the extracted CD

Track | Start | Length | Start sector | End sector
––––––––––––––––––––––––––––-
1 | 0:00.00 | 7:29.17 | 0 | 33691
2 | 7:29.17 | 4:16.05 | 33692 | 52896
3 | 11:45.22 | 14:25.55 | 52897 | 117826
4 | 26:11.02 | 5:38.03 | 117827 | 143179
5 | 31:49.05 | 3:52.65 | 143180 | 160644
6 | 35:41.70 | 4:13.62 | 160645 | 179681
7 | 39:55.57 | 4:42.53 | 179682 | 200884
8 | 44:38.35 | 5:43.02 | 200885 | 226611
9 | 50:21.37 | 7:27.45 | 226612 | 260181
10 | 57:49.07 | 4:46.28 | 260182 | 281659
11 | 62:35.35 | 14:55.60 | 281660 | 348844


Track 1

Filename F:\Skynyrd\CD2\01 - Sweet Home Alabama.wav

Pre-gap length 0:00:02.00

Peak level 94.4 %
Extraction speed 1.3 X
Track quality 100.0 %
Test CRC C0ECCFDA
Copy CRC C0ECCFDA
Accurately ripped (confidence 3) [BE68D873] (AR v2)
Copy OK

Track 2

Filename F:\Skynyrd\CD2\02 - Crossroads.wav

Peak level 99.4 %
Extraction speed 1.4 X
Track quality 100.0 %
Test CRC 41895674
Copy CRC 41895674
Accurately ripped (confidence 3) [04A57E46] (AR v2)
Copy OK

Track 3

Filename F:\Skynyrd\CD2\03 - Free Bird.wav

Peak level 100.0 %
Extraction speed 1.8 X
Track quality 100.0 %
Test CRC 54C41607
Copy CRC 54C41607
Accurately ripped (confidence 3) [00A5FA70] (AR v2)
Copy OK

Track 4

Filename F:\Skynyrd\CD2\04 - Introduction by Alex Cooley , Workin' for MCA (alternate take).wav

Pre-gap length 0:00:07.12

Peak level 100.0 %
Extraction speed 1.9 X
Track quality 100.0 %
Test CRC B2B7A4EC
Copy CRC B2B7A4EC
Accurately ripped (confidence 3) [00E981C4] (AR v2)
Copy OK

Track 5

Filename F:\Skynyrd\CD2\05 - I Ain't the One (alternate take).wav

Peak level 99.9 %
Extraction speed 1.9 X
Track quality 100.0 %
Test CRC 7B502BD8
Copy CRC 7B502BD8
Accurately ripped (confidence 3) [55138BB3] (AR v2)
Copy OK

Track 6

Filename F:\Skynyrd\CD2\06 - Searching (alternate take).wav

Peak level 99.9 %
Extraction speed 2.0 X
Track quality 100.0 %
Test CRC 081B402A
Copy CRC 081B402A
Accurately ripped (confidence 3) [C33C544A] (AR v2)
Copy OK

Track 7

Filename F:\Skynyrd\CD2\07 - Gimme Three Steps (alternate take).wav

Peak level 85.4 %
Extraction speed 2.1 X
Track quality 100.0 %
Test CRC 6E559B2E
Copy CRC 6E559B2E
Accurately ripped (confidence 3) [751FE449] (AR v2)
Copy OK

Track 8

Filename F:\Skynyrd\CD2\08 - Call Me the Breeze (alternate take).wav

Peak level 90.2 %
Extraction speed 2.2 X
Track quality 100.0 %
Test CRC 5C0D6EE3
Copy CRC 5C0D6EE3
Accurately ripped (confidence 3) [D7B01364] (AR v2)
Copy OK

Track 9

Filename F:\Skynyrd\CD2\09 - Sweet Home Alabama (alternate take).wav

Peak level 98.8 %
Extraction speed 2.4 X
Track quality 100.0 %
Test CRC 2DA7BED1
Copy CRC 2DA7BED1
Accurately ripped (confidence 3) [55737D1C] (AR v2)
Copy OK

Track 10

Filename F:\Skynyrd\CD2\10 - Crossroads (alternate take).wav

Peak level 99.7 %
Extraction speed 2.4 X
Track quality 100.0 %
Test CRC 70E71E92
Copy CRC 70E71E92
Accurately ripped (confidence 3) [10109CDC] (AR v2)
Copy OK

Track 11

Filename F:\Skynyrd\CD2\11 - Free Bird (alternate take).wav

Peak level 94.4 %
Extraction speed 2.7 X
Track quality 100.0 %
Test CRC E8F1CAFE
Copy CRC E8F1CAFE
Accurately ripped (confidence 3) [3360A874] (AR v2)
Copy OK


All tracks accurately ripped

No errors occurred

End of status report

–– CUETools DB Plugin V2.1.3

[CTDB TOCID: N61PJTIuF10AbIepKAsXAPs_sx8-] disk not present in database, Submit result: N61PJTIuF10AbIepKAsXAPs_sx8- has been uploaded


==== Log checksum 255B3A336F87F9DCCA941B8F49C09BB5F72B43F4FA4F4C51C0287ED1AA7B0FA6 ====

[CUETools log; Date: 06.10.2020 16:40:22; Version: 2.1.6]
CDDBId mismatch: 92122B0B vs 9512320B
[CTDB TOCID: 7E6a6wEDBC7Np2B4jM4jO4qao9Y-] disk not present in database.
[AccurateRip ID: 001eaf3c-01068c80-9512320b] disk not present in database.

Track Peak [ CRC32 ] [W/O NULL] [ LOG ]
– 100,0 [CD6BC422] [4C5E7CDD]
01 94,4 [C0ECCFDA] [3651F53B] CRC32
02 99,4 [41895674] [58B5B1F3] CRC32
03 100,0 [D4EE3594] [A72BA9F0] [54C41607]
04 100,0 [B2B7A4EC] [D932E0CC] CRC32
05 99,9 [7B502BD8] [5576BCA4] CRC32
06 99,9 [081B402A] [F52A3EE4] CRC32
07 85,4 [6E559B2E] [55180B49] CRC32
08 90,2 [5C0D6EE3] [400D7662] CRC32
09 98,8 [2DA7BED1] [6FB61B5E] CRC32
10 99,7 [70E71E92] [74A7070A] CRC32
11 94,4 [E8F1CAFE] [9784F6AE] CRC32

Lynyrd Skynyrd - One More From The Road (1976) {2001, 25th Anniversary Deluxe Edition, Remastered}


All thanks go to the original ripper(s) …

>>> Lynyrd Skynyrd in my Blog <<<

DOWNLOAD: