Tags
Language
Tags
June 2024
Su Mo Tu We Th Fr Sa
26 27 28 29 30 31 1
2 3 4 5 6 7 8
9 10 11 12 13 14 15
16 17 18 19 20 21 22
23 24 25 26 27 28 29
30 1 2 3 4 5 6

Los Angeles Philharmonic, Gustavo Dudamel - John Adams: The Gospel According to the Other Mary (2014)

Posted By: tirexiss
Los Angeles Philharmonic, Gustavo Dudamel - John Adams: The Gospel According to the Other Mary (2014)

Los Angeles Philharmonic, Gustavo Dudamel - John Adams: The Gospel According to the Other Mary (2014)
EAC | FLAC (image+.cue, log) | Covers Included | 02:13:03 | 599 MB
Genre: Classical, Choral | Label: Deutsche Grammophon | Catalog: B002003402

John Adams' The Gospel According to the Other Mary, first performed in 2012 in Los Angeles, is something of an expansion on the composer's El Niño, a Passion story adorned with a variety of contemporary themes and musical materials. Like the earlier work, it features a libretto by longtime Adams collaborator Peter Sellars, and it may be sung on-stage as an oratorio or presented as an opera. Mary Magdalene is indeed a central figure in the work, but actually it is more than the trick perspective the title might imply; as with El Niño Sellars incorporates such devices as set pieces featuring poetry by other writers (this time poet Louise Erdrich plays the central role). Jesus seems to appear as through a prism, embodied by a trio of countertenors: a typical Adams masterstroke. Bach's Passions are obvious antecedents, but Andrew Clements of the London Guardian has accurately pointed out a resemblance to a work by a composer not much mentioned in the same breath as Adams: Leonard Bernstein's Mass. The music has similar ambitions and a similar way, although not so extreme, of veering off into contemporary vernacular materials according to the text. This doesn't suit Adams perfectly, although he takes steps, including a recurring use of the cimbalom, to tie all his diverse materials together. At any rate, the work is never boring and often absorbing; the enthusiasm of conductor Gustavo Dudamel, the vocal performers, and the Los Angeles Philharmonic Orchestra for the material is palpable; and this sprawling score is clearly recorded. Time will tell whether concert-music big events like this one will have staying power, but there's a lot to chew on here for anyone with the slightest liking for Adams and his democratic, synoptic musical world.

Los Angeles Philharmonic, Gustavo Dudamel - John Adams: The Gospel According to the Other Mary (2014)

Track List:

John Adams (*1947)
The Gospel According to the Other Mary

A Passion Oratorio in Two Acts

CD1
[1]-[20] Act I

Exact Audio Copy V1.1 from 23. June 2015

EAC extraction logfile from 8. April 2016, 19:13

Los Angeles Philharmonic, Gustavo Dudamel / Adams - The Gospel According to the Other Mary - CD1

Used drive : HL-DT-STDVDRAM GU70N Adapter: 1 ID: 0

Read mode : Secure
Utilize accurate stream : Yes
Defeat audio cache : Yes
Make use of C2 pointers : No

Read offset correction : 48
Overread into Lead-In and Lead-Out : No
Fill up missing offset samples with silence : Yes
Delete leading and trailing silent blocks : No
Null samples used in CRC calculations : Yes
Used interface : Native Win32 interface for Win NT & 2000

Used output format : User Defined Encoder
Selected bitrate : 128 kBit/s
Quality : High
Add ID3 tag : No
Command line compressor : C:\Program Files (x86)\Exact Audio Copy\Flac\flac.exe
Additional command line options : -V -8 -T "Date=%year%" -T "Genre=%genre%" %source%


TOC of the extracted CD

Track | Start | Length | Start sector | End sector
––––––––––––––––––––––––––––-
1 | 0:00.00 | 4:09.22 | 0 | 18696
2 | 4:09.22 | 2:44.24 | 18697 | 31020
3 | 6:53.46 | 1:40.69 | 31021 | 38589
4 | 8:34.40 | 3:25.73 | 38590 | 54037
5 | 12:00.38 | 4:16.38 | 54038 | 73275
6 | 16:17.01 | 4:00.69 | 73276 | 91344
7 | 20:17.70 | 2:03.54 | 91345 | 100623
8 | 22:21.49 | 2:26.60 | 100624 | 111633
9 | 24:48.34 | 2:49.34 | 111634 | 124342
10 | 27:37.68 | 1:53.02 | 124343 | 132819
11 | 29:30.70 | 3:42.26 | 132820 | 149495
12 | 33:13.21 | 1:52.19 | 149496 | 157914
13 | 35:05.40 | 4:19.26 | 157915 | 177365
14 | 39:24.66 | 3:07.71 | 177366 | 191461
15 | 42:32.62 | 0:42.52 | 191462 | 194663
16 | 43:15.39 | 6:38.66 | 194664 | 224579
17 | 49:54.30 | 4:46.29 | 224580 | 246058
18 | 54:40.59 | 1:40.26 | 246059 | 253584
19 | 56:21.10 | 5:19.52 | 253585 | 277561
20 | 61:40.62 | 9:29.30 | 277562 | 320266


Range status and errors

Selected range

Filename C:\temp\Adams - The Gospel According To The Other Mary - Los Angeles Philharmonic, Dudamel\CD1\Adams - The Gospel According to the Other Mary - CD1.wav

Peak level 96.6 %
Extraction speed 5.2 X
Range quality 100.0 %
Test CRC 85380AE3
Copy CRC 85380AE3
Copy OK

No errors occurred


AccurateRip summary

Track 1 accurately ripped (confidence 8) [18BEFE5D] (AR v2)
Track 2 accurately ripped (confidence 8) [80BCB806] (AR v2)
Track 3 accurately ripped (confidence 8) [9D49751F] (AR v2)
Track 4 accurately ripped (confidence 8) [D451ED43] (AR v2)
Track 5 accurately ripped (confidence 8) [C3BC0B7E] (AR v2)
Track 6 accurately ripped (confidence 8) [7C4828E8] (AR v2)
Track 7 accurately ripped (confidence 8) [4E7499DD] (AR v2)
Track 8 accurately ripped (confidence 8) [4541E79B] (AR v2)
Track 9 accurately ripped (confidence 8) [EDD79417] (AR v2)
Track 10 accurately ripped (confidence 8) [4C06AF87] (AR v2)
Track 11 accurately ripped (confidence 8) [A5046E74] (AR v2)
Track 12 accurately ripped (confidence 8) [75781237] (AR v2)
Track 13 accurately ripped (confidence 8) [852B494A] (AR v2)
Track 14 accurately ripped (confidence 8) [C7F7FC8D] (AR v2)
Track 15 accurately ripped (confidence 8) [B1765C70] (AR v2)
Track 16 accurately ripped (confidence 8) [1DDC9EEF] (AR v2)
Track 17 accurately ripped (confidence 7) [702FA4B6] (AR v2)
Track 18 accurately ripped (confidence 8) [5160865A] (AR v2)
Track 19 accurately ripped (confidence 8) [5EF8FA54] (AR v2)
Track 20 accurately ripped (confidence 8) [48274C9B] (AR v2)

All tracks accurately ripped

End of status report

==== Log checksum 9BCD0CFFA73C5853A6EEDF0B18DDEA70826D413D5178D39A22C23343FA4DC958 ====

CD2
[1]-[17] Act II

Exact Audio Copy V1.1 from 23. June 2015

EAC extraction logfile from 8. April 2016, 19:44

Los Angeles Philharmonic, Gustavo Dudamel / Adams - The Gospel According to the Other Mary - CD2

Used drive : HL-DT-STDVDRAM GU70N Adapter: 1 ID: 0

Read mode : Secure
Utilize accurate stream : Yes
Defeat audio cache : Yes
Make use of C2 pointers : No

Read offset correction : 48
Overread into Lead-In and Lead-Out : No
Fill up missing offset samples with silence : Yes
Delete leading and trailing silent blocks : No
Null samples used in CRC calculations : Yes
Used interface : Native Win32 interface for Win NT & 2000

Used output format : User Defined Encoder
Selected bitrate : 128 kBit/s
Quality : High
Add ID3 tag : No
Command line compressor : C:\Program Files (x86)\Exact Audio Copy\Flac\flac.exe
Additional command line options : -V -8 -T "Date=%year%" -T "Genre=%genre%" %source%


TOC of the extracted CD

Track | Start | Length | Start sector | End sector
––––––––––––––––––––––––––––-
1 | 0:00.00 | 3:49.26 | 0 | 17200
2 | 3:49.26 | 5:40.34 | 17201 | 42734
3 | 9:29.60 | 2:25.48 | 42735 | 53657
4 | 11:55.33 | 1:29.16 | 53658 | 60348
5 | 13:24.49 | 2:54.36 | 60349 | 73434
6 | 16:19.10 | 3:01.41 | 73435 | 87050
7 | 19:20.51 | 6:14.16 | 87051 | 115116
8 | 25:34.67 | 3:03.27 | 115117 | 128868
9 | 28:38.19 | 1:27.00 | 128869 | 135393
10 | 30:05.19 | 2:12.72 | 135394 | 145365
11 | 32:18.16 | 7:35.24 | 145366 | 179514
12 | 39:53.40 | 1:32.09 | 179515 | 186423
13 | 41:25.49 | 4:34.64 | 186424 | 207037
14 | 46:00.38 | 2:08.23 | 207038 | 216660
15 | 48:08.61 | 4:01.49 | 216661 | 234784
16 | 52:10.35 | 3:17.49 | 234785 | 249608
17 | 55:28.09 | 6:25.01 | 249609 | 278484


Range status and errors

Selected range

Filename C:\temp\Adams - The Gospel According To The Other Mary - Los Angeles Philharmonic, Dudamel\CD2\Adams - The Gospel According to the Other Mary - CD2.wav

Peak level 97.4 %
Extraction speed 5.1 X
Range quality 100.0 %
Test CRC 4542EB68
Copy CRC 4542EB68
Copy OK

No errors occurred


AccurateRip summary

Track 1 accurately ripped (confidence 8) [D0663BDA] (AR v2)
Track 2 accurately ripped (confidence 8) [E75C2D0D] (AR v2)
Track 3 accurately ripped (confidence 8) [825C267D] (AR v2)
Track 4 accurately ripped (confidence 8) [217D98B9] (AR v2)
Track 5 accurately ripped (confidence 8) [BC1C9F38] (AR v2)
Track 6 accurately ripped (confidence 8) [2C0239A9] (AR v2)
Track 7 accurately ripped (confidence 7) [38A100BD] (AR v2)
Track 8 accurately ripped (confidence 8) [077A01C8] (AR v2)
Track 9 accurately ripped (confidence 8) [303DA85A] (AR v2)
Track 10 accurately ripped (confidence 8) [076540CD] (AR v2)
Track 11 accurately ripped (confidence 8) [398C8A22] (AR v2)
Track 12 accurately ripped (confidence 7) [ED11E4DF] (AR v2)
Track 13 accurately ripped (confidence 8) [F28148A9] (AR v2)
Track 14 accurately ripped (confidence 8) [A31FF284] (AR v2)
Track 15 accurately ripped (confidence 8) [62BEA2B6] (AR v2)
Track 16 accurately ripped (confidence 8) [766B0FFE] (AR v2)
Track 17 accurately ripped (confidence 8) [B37D8F8E] (AR v2)

All tracks accurately ripped

End of status report

==== Log checksum 0B0F41F26651D1FB5B36CE54651D579A3F315B15E8757FE6CC55EB570A619655 ====

Performers:
Mary Magdalene Kelley O’Connor
Martha Tamara Mumford
Lazarus Russell Thomas
Countertenors Daniel Bubeck, Brian Cummings, Nathan Medley
Los Angeles Master Chorale
Los Angeles Philharmonic
Gustavo Dudamel

Thanks to the Original ripper (A-Z)!

Download: