Tags
Language
Tags

Locomotive - We Are Everything You See (1970) [Reissue 2010] (Re-up)

Posted By: gribovar
Locomotive - We Are Everything You See (1970) [Reissue 2010] (Re-up)

Locomotive - We Are Everything You See (1970) [Reissue 2010]
EAC Rip | WavPack (image+.cue+log) - 339 MB | MP3 CBR 320 kbps (LAME 3.93) - 147 MB | Covers - 52 MB
Genre: Progressive/Psychedelic/Jazz Rock | RAR 3% Rec. | Label: Esoreric Recordings (ECLEC 2228)

Esoteric Recordings are proud to release the classic album We Are Everything You See by Locomotive. Issued by Parlophone in January 1970, it was the only album by the Birmingham based group fronted by keyboard player Norman Haines and was recorded in 1969. Featuring the psychedelic classic Mr. Armageddon, the album was a marvellous fusion of jazz, psychedelia and early progressive music and was produced by Gus Dudgeon and graced by guest musicians Dick Heckstall Smith, Henry Lowther and Chris Mercer.
Tracklist:
01. Overture
02. Mr. Armageddon
03. Now Is The End - The End Is Now
04. Lay Me Down Gently
05. Nobody Asked You To Come
06. You Must Be Joking
07. A Day In Shining Armour
08. The Loves Of Augustus Abbey (Part I)
09. Rain
10. The Loves Of Augustus Abbey (Part II)
11. Coming Down / Love Song For The Dead Che
12. The Loves Of Augustus Abbey (Part III)
13. Time Of Light And Darkness
14. Mr Armageddon (Mono single version, Bonus track)
15. There's Got To Be A Way (Bonus track)
16. I'm Never Gonna Let You Go (Bonus track)
17. You Must Be Joking (Mono single version, Bonus track)
18. Movin' Down The Line (Bonus track)
19. Roll Over Mary (Bonus track)

Total time: 01:02:25

Exact Audio Copy V1.1 from 23. June 2015

EAC extraction logfile from 29. November 2015, 10:29

Locomotive / We Are Everything You See

Used drive : PLEXTOR DVDR PX-716A Adapter: 1 ID: 1

Read mode : Secure
Utilize accurate stream : Yes
Defeat audio cache : Yes
Make use of C2 pointers : No

Read offset correction : 30
Overread into Lead-In and Lead-Out : No
Fill up missing offset samples with silence : Yes
Delete leading and trailing silent blocks : No
Null samples used in CRC calculations : Yes
Used interface : Native Win32 interface for Win NT & 2000

Used output format : User Defined Encoder
Selected bitrate : 1024 kBit/s
Quality : High
Add ID3 tag : No
Command line compressor : C:\Program Files (x86)\Exact Audio Copy\wavpack.exe
Additional command line options : -hlm %source%


TOC of the extracted CD

Track | Start | Length | Start sector | End sector
––––––––––––––––––––––––––––-
1 | 0:00.00 | 2:03.37 | 0 | 9261
2 | 2:03.37 | 4:24.71 | 9262 | 29132
3 | 6:28.33 | 3:14.67 | 29133 | 43749
4 | 9:43.25 | 3:58.57 | 43750 | 61656
5 | 13:42.07 | 3:15.12 | 61657 | 76293
6 | 16:57.19 | 3:59.20 | 76294 | 94238
7 | 20:56.39 | 3:28.70 | 94239 | 109908
8 | 24:25.34 | 1:07.39 | 109909 | 114972
9 | 25:32.73 | 3:24.65 | 114973 | 130337
10 | 28:57.63 | 1:29.54 | 130338 | 137066
11 | 30:27.42 | 4:29.21 | 137067 | 157262
12 | 34:56.63 | 1:22.46 | 157263 | 163458
13 | 36:19.34 | 4:34.13 | 163459 | 184021
14 | 40:53.47 | 4:38.41 | 184022 | 204912
15 | 45:32.13 | 3:46.24 | 204913 | 221886
16 | 49:18.37 | 3:14.17 | 221887 | 236453
17 | 52:32.54 | 4:01.15 | 236454 | 254543
18 | 56:33.69 | 2:45.70 | 254544 | 266988
19 | 59:19.64 | 3:05.20 | 266989 | 280883


Range status and errors

Selected range

Filename D:\wwphil\Locomotive - We Are Everything You See\Locomotive - We Are Everything You See.wav

Peak level 98.8 %
Extraction speed 3.7 X
Range quality 100.0 %
Test CRC 1BA965D7
Copy CRC 1BA965D7
Copy OK

No errors occurred


AccurateRip summary

Track 1 accurately ripped (confidence 3) [A05ABB83] (AR v2)
Track 2 accurately ripped (confidence 4) [89641709] (AR v2)
Track 3 accurately ripped (confidence 4) [B8F71C63] (AR v2)
Track 4 accurately ripped (confidence 4) [B445BB60] (AR v2)
Track 5 accurately ripped (confidence 4) [EA1C3FAF] (AR v2)
Track 6 accurately ripped (confidence 4) [72D2BC81] (AR v2)
Track 7 accurately ripped (confidence 4) [32662305] (AR v2)
Track 8 accurately ripped (confidence 4) [008243D2] (AR v2)
Track 9 accurately ripped (confidence 4) [66F54BC7] (AR v2)
Track 10 accurately ripped (confidence 4) [1BD61DDB] (AR v2)
Track 11 accurately ripped (confidence 4) [2DBD737F] (AR v2)
Track 12 accurately ripped (confidence 4) [47FAF853] (AR v2)
Track 13 accurately ripped (confidence 4) [2E20D721] (AR v2)
Track 14 accurately ripped (confidence 4) [8B1B818A] (AR v2)
Track 15 accurately ripped (confidence 4) [53E1262D] (AR v2)
Track 16 accurately ripped (confidence 4) [9C41B51E] (AR v2)
Track 17 accurately ripped (confidence 4) [5AD96652] (AR v2)
Track 18 accurately ripped (confidence 4) [5F975DFB] (AR v2)
Track 19 accurately ripped (confidence 4) [75108629] (AR v2)

All tracks accurately ripped

End of status report

==== Log checksum 1E2F727691DAFD4EA522FB7C03F319A726A819831E4290E232FC711E6E0F17E7 ====

[CUETools log; Date: 03.07.2022 17:23:11; Version: 2.1.4]
[CTDB TOCID: phqhU4ojSx02KRu2_fugbfcKKIQ-] found.
Track | CTDB Status
1 | ( 9/10) Accurately ripped, or (1/10) differs in 8 samples @01:21:60,01:24:23,01:24:32,01:24:42
2 | (10/10) Accurately ripped
3 | (10/10) Accurately ripped
4 | (10/10) Accurately ripped
5 | (10/10) Accurately ripped
6 | (10/10) Accurately ripped
7 | (10/10) Accurately ripped
8 | (10/10) Accurately ripped
9 | (10/10) Accurately ripped
10 | (10/10) Accurately ripped
11 | (10/10) Accurately ripped
12 | (10/10) Accurately ripped
13 | (10/10) Accurately ripped
14 | (10/10) Accurately ripped
15 | (10/10) Accurately ripped
16 | (10/10) Accurately ripped
17 | (10/10) Accurately ripped
18 | (10/10) Accurately ripped
19 | ( 9/10) Accurately ripped, or (1/10) differs in 24 samples @01:52:10-01:52:11
[AccurateRip ID: 002a5fcd-02521e1b-190ea113] found.
Track [ CRC | V2 ] Status
01 [c01b7bf2|a05abb83] (0+6/6) Accurately ripped
02 [efc98d49|89641709] (0+7/7) Accurately ripped
03 [f4b29a1c|b8f71c63] (0+7/7) Accurately ripped
04 [3396ea6a|b445bb60] (0+7/7) Accurately ripped
05 [26fc4559|ea1c3faf] (0+7/7) Accurately ripped
06 [134c5633|72d2bc81] (0+7/7) Accurately ripped
07 [c5fec793|32662305] (0+7/7) Accurately ripped
08 [d395f949|008243d2] (0+7/7) Accurately ripped
09 [7ccd8455|66f54bc7] (0+7/7) Accurately ripped
10 [5d38c5c6|1bd61ddb] (0+7/7) Accurately ripped
11 [c1a5b0f0|2dbd737f] (0+7/7) Accurately ripped
12 [292a141f|47faf853] (0+7/7) Accurately ripped
13 [150840a1|2e20d721] (0+7/7) Accurately ripped
14 [7f22881f|8b1b818a] (0+7/7) Accurately ripped
15 [d6b6cb10|53e1262d] (0+7/7) Accurately ripped
16 [4b6ec578|9c41b51e] (0+7/7) Accurately ripped
17 [37a91c92|5ad96652] (0+7/7) Accurately ripped
18 [93bc229c|5f975dfb] (0+7/7) Accurately ripped
19 [21d2d608|75108629] (0+7/7) Accurately ripped
Offsetted by -114:
01 [5b1645ce] (0/6) No match (V2 was not tested)
02 [327a9feb] (0/7) No match (V2 was not tested)
03 [46d59522] (0/7) No match (V2 was not tested)
04 [76eb73bc] (0/7) No match (V2 was not tested)
05 [5935e87d] (0/7) No match (V2 was not tested)
06 [66e85ef9] (0/7) No match (V2 was not tested)
07 [d72763fd] (0/7) No match (V2 was not tested)
08 [41a28b2c] (0/7) No match (V2 was not tested)
09 [a5cd42fe] (0/7) No match (V2 was not tested)
10 [6827859e] (0/7) No match (V2 was not tested)
11 [6203990a] (0/7) No match (V2 was not tested)
12 [3ff0403b] (0/7) No match (V2 was not tested)
13 [0426aca1] (0/7) No match (V2 was not tested)
14 [eb273b1b] (0/7) No match (V2 was not tested)
15 [b021f930] (0/7) No match (V2 was not tested)
16 [41ff7384] (0/7) No match (V2 was not tested)
17 [cee25f54] (0/7) No match (V2 was not tested)
18 [7c499d54] (0/7) No match (V2 was not tested)
19 [5e8ea8c2] (0/7) No match (V2 was not tested)

Track Peak [ CRC32 ] [W/O NULL] [ LOG ]
– 98,8 [1BA965D7] [8CFB6446] CRC32
01 86,5 [7AB032B1] [F5583F9B]
02 98,8 [CEA53855] [2D6D3439]
03 98,8 [FCA96B35] [2BF175E0]
04 98,8 [C41402CD] [BABE26A5]
05 98,8 [8A17368E] [783F3CF6]
06 98,8 [377261C8] [A7F25E9D]
07 98,8 [C8A262B3] [2966EC4D]
08 93,1 [CE3726F9] [ED66E7DF]
09 98,8 [DA0598D2] [7E3E680D]
10 98,8 [21BB7566] [481DCBF5]
11 98,8 [B971882E] [22E2E68E]
12 98,8 [F672E09F] [92A93A74]
13 98,8 [55FDE776] [76E41F78]
14 98,8 [02413419] [AE0E56A0]
15 98,8 [6E4419A0] [E9DBE0E4]
16 98,8 [B8F9F7D6] [7999E179]
17 97,7 [EAA21E69] [B8ED35F3]
18 98,8 [4C791067] [04F5A1F7]
19 98,8 [C3AC2D20] [35BB8C25]

Thanks to wwf