Tags
Language
Tags

Level 42 - Level Best (1989)

Posted By: Designol
Level 42 - Level Best (1989)

Level 42 - Level Best (1989)
EAC | FLAC | Image (Cue&Log) ~ 464 Mb | Mp3 (CBR320) ~ 166 Mb | Scans ~ 53 Mb | 01:12:50
New Wave, Jazz-Funk, Pop/Rock, Sophisti-Pop, Synthpop | Label: Polydor | # 841 399-2

Polydor's Level Best is a thorough, successful overview of the smooth, jazzy British sophisti-pop outfit, containing all of their biggest hits and best material, including the sublime "Something About You." At 18 tracks, it may run a little long, but it still is as comprehensive a summary of Level 42's career as could be hoped.

Review by Stephen Thomas Erlewine, Allmusic.com

Level 42 - Level Best (1989)



Tracklist:

01. Running In The Family (3:56)
02. The Sun Goes Down (3:43)
03. Something About You (3:43)
04. Tracie (3:24)
05. Starchild (3:51)
06. It's Over (4:39)
07. Hot Water (3:38)
08. Take Care Of Yourself (4:28)
09. Heaven In My Hands (4:08)
10. Children Say (4:27)
11. Love Games (4:28)
12. The Chinese Way (3:57)
13. Leaving Me Now (3:33)
14. Lessons In Love (4:00)
15. Micro Kid (3:48)
17. To Be With You Again (3:56)
18. The Chant Has Begun (4:19)


Exact Audio Copy V1.0 beta 3 from 29. August 2011

Отчёт EAC об извлечении, выполненном 6. мая 2017, 17:03

Level 42 / Level Best

Дисковод: HL-DT-STDVDRAM GH24NSB0 Adapter: 0 ID: 0

Режим чтения : Достоверность
Использование точного потока : Да
Отключение кэша аудио : Да
Использование указателей C2 : Нет

Коррекция смещения при чтении : 6
Способность читать области Lead-in и Lead-out : Нет
Заполнение пропущенных сэмплов тишиной : Да
Удаление блоков с тишиной в начале и конце : Нет
При вычислениях CRC использовались нулевые сэмплы : Да
Интерфейс : Встроенный Win32-интерфейс для Win NT/2000

Выходной формат : Пользовательский кодировщик
Выбранный битрейт : 128 kBit/s
Качество : Высокий
Добавление ID3-тега : Нет
Утилита сжатия : C:\Program Files (x86)\Exact Audio Copy\Flac\flac.exe
Дополнительные параметры : -V -8 -T "Date=%year%" -T "Genre=%genre%" %source%


TOC извлечённого CD

Трек | Старт | Длительность | Начальный сектор | Конечный сектор
––––––––––––––––––––––––––––––––––-
1 | 0:00.33 | 3:56.42 | 33 | 17774
2 | 3:57.00 | 3:43.40 | 17775 | 34539
3 | 7:40.40 | 3:43.33 | 34540 | 51297
4 | 11:23.73 | 3:24.10 | 51298 | 66607
5 | 14:48.08 | 3:51.62 | 66608 | 83994
6 | 18:39.70 | 4:39.60 | 83995 | 104979
7 | 23:19.55 | 3:38.43 | 104980 | 121372
8 | 26:58.23 | 4:28.62 | 121373 | 141534
9 | 31:27.10 | 4:08.63 | 141535 | 160197
10 | 35:35.73 | 4:27.72 | 160198 | 180294
11 | 40:03.70 | 4:28.20 | 180295 | 200414
12 | 44:32.15 | 3:57.40 | 200415 | 218229
13 | 48:29.55 | 3:33.53 | 218230 | 234257
14 | 52:03.33 | 4:00.72 | 234258 | 252329
15 | 56:04.30 | 3:48.63 | 252330 | 269492
16 | 59:53.18 | 4:41.47 | 269493 | 290614
17 | 64:34.65 | 3:56.18 | 290615 | 308332
18 | 68:31.08 | 4:19.58 | 308333 | 327815


Характеристики диапазона извлечения и сообщения об ошибках

Выбранный диапазон

Имя файла C:\Users\blackriver\Desktop\level\Level 42 - Level Best.wav

Пиковый уровень 98.4 %
Скорость извлечения 2.0 X
Качество диапазона 100.0 %
CRC теста 38DE9A8F
CRC копии 38DE9A8F
Копирование… OK

Ошибок не произошло


AccurateRip: сводка

Трек 1 : извлечено точно (доверие 10) [3DED8BA2] (AR v2)
Трек 2 : извлечено точно (доверие 11) [F4424F36] (AR v2)
Трек 3 : извлечено точно (доверие 11) [C7D210AD] (AR v2)
Трек 4 : извлечено точно (доверие 11) [F4E75821] (AR v2)
Трек 5 : извлечено точно (доверие 11) [CB903D46] (AR v2)
Трек 6 : извлечено точно (доверие 11) [4DA5B47E] (AR v2)
Трек 7 : извлечено точно (доверие 11) [802444CA] (AR v2)
Трек 8 : извлечено точно (доверие 11) [5E52CE6B] (AR v2)
Трек 9 : извлечено точно (доверие 11) [869E796B] (AR v2)
Трек 10 : извлечено точно (доверие 11) [37D92FE3] (AR v2)
Трек 11 : извлечено точно (доверие 10) [C4C59A06] (AR v2)
Трек 12 : извлечено точно (доверие 10) [A6BC7672] (AR v2)
Трек 13 : извлечено точно (доверие 10) [BC76AF88] (AR v2)
Трек 14 : извлечено точно (доверие 10) [658156E7] (AR v2)
Трек 15 : извлечено точно (доверие 10) [F8627C13] (AR v2)
Трек 16 : извлечено точно (доверие 10) [43DB3A2A] (AR v2)
Трек 17 : извлечено точно (доверие 10) [3C6F4EC7] (AR v2)
Трек 18 : извлечено точно (доверие 10) [13ABB6E7] (AR v2)

Все треки извлечены точно

Конец отчёта

==== Контрольная сумма отчёта 1529395EE815D10E79643D821FBD1328C7B4444A0684188AC11CEC7A407B37E9 ====

foobar2000 1.2 / Dynamic Range Meter 1.1.1
log date: 2017-05-08 23:45:51

––––––––––––––––––––––––––––––––––––––––
Analyzed: Level 42 / Level Best
––––––––––––––––––––––––––––––––––––––––

DR Peak RMS Duration Track
––––––––––––––––––––––––––––––––––––––––
DR13 -1.87 dB -16.94 dB 3:57 01-Running In The Family
DR15 -1.55 dB -18.73 dB 3:44 02-The Sun Goes Down (Living It Up)
DR15 -1.32 dB -18.03 dB 3:43 03-Something About You
DR14 -0.20 dB -16.99 dB 3:24 04-Tracie
DR14 -1.14 dB -18.24 dB 3:52 05-Starchild
DR12 -1.78 dB -18.07 dB 4:40 06-It's Over
DR13 -1.77 dB -16.26 dB 3:39 07-Hot Water
DR9 -4.57 dB -15.25 dB 4:29 08-Take Care Of Yourself
DR13 -1.31 dB -16.02 dB 4:09 09-Heaven In My Hands
DR13 -2.40 dB -17.18 dB 4:28 10-Children Say
DR13 -2.31 dB -17.00 dB 4:28 11-Love Games
DR13 -2.49 dB -17.68 dB 3:58 12-The Chinese Way
DR12 -2.54 dB -16.56 dB 3:34 13-Leaving Me Now
DR13 -0.13 dB -16.57 dB 4:01 14-Lessons In Love
DR13 -1.15 dB -17.10 dB 3:49 15-Micro Kid
DR12 -0.80 dB -16.72 dB 4:42 16-Take A Look
DR13 -1.65 dB -16.71 dB 3:56 17-To Be With You Again
DR13 -2.27 dB -17.98 dB 4:20 18-The Chant Has Begun
––––––––––––––––––––––––––––––––––––––––

Number of tracks: 18
Official DR value: DR13

Samplerate: 44100 Hz
Channels: 2
Bits per sample: 16
Bitrate: 892 kbps
Codec: FLAC
================================================================================

Level 42 - Level Best (1989)

Level 42 - Level Best (1989)

All thanks to original releaser

More interesting music in My Blog