Tags
Language
Tags

Led Zeppelin - Studio Magik: Sessions-Outtakes 1968-1980 (2013) [18CD Box Set]

Posted By: v3122
Led Zeppelin - Studio Magik: Sessions-Outtakes 1968-1980 (2013) [18CD Box Set]

Led Zeppelin - Studio Magik: Sessions-Outtakes 1968-1980 (2013)
CDRip | Flac(Image) + Cue + Log & MP3 CBR 320Kbps
The Godfather Box, G.R. BOX 18 | ~ 6246 or 2952 Mb | Artwork(jpg) -> 112 Mb
Hard Rock, Blues Rock, Classic Rock | Unofficial Release

Led Zeppelin built their reputation on their live show. Their studio recordings were, as Jimmy Page stated many times in interviews, a springboard for further live improvisation and exploration. Many songs (“The Rover,” “The Song Remains The Same” and “In The Light” among others) began as riffs discovered on the stage.

However, one can’t create a masterpiece with inferior ingredients. Two members of the band, Page and John Paul Jones, began their career as studio session musicians and understood how to write and craft good songs in the studio.

Page himself engineered the science of capturing a good recording in studio on Led Zeppelin.

Fans and collectors are lucky. Except for The Rolling Stones and The Beatles, no other band has as much outtake and demo material available for analysis, scrutiny, and enjoyment.

From the initial sessions for the first album in Olympic Studio in late summer of 1968 through to the sessions in Stockholm ten years later for In Through The Outdoor, all of Zeppelin’s albums and eras are represented in one form or another.

The twenty hours of music in this box set extend from extremely primitive cassette demos made in the wilds of Snowdonia to initial rehearsals in Headley Grange to perfectly polished alternate takes and mixes of classic songs.

Several attempts have been made in the past to offer a complete collection.

The first is the classic 11 CD set Studio Sessions on Antrabata. This set collected every piece of tape known at the time and presented them in a chronological, cohesive order. Despite the knock against it for using inferior sounding tapes, it remains a popular and sought after item.

Akashic attempted a comprehensive box set in the winter of 1999 called The Final Option. The project was scrapped after only five discs spread out over three titles, Meet Led Zeppelin, Scorpio Rising and The Smithereens were released. And the Akashic contained spurious Houses Of The Holy outtakes. In 2007 the Scorpio label produced the 12 CD set Studio Sessions Ultimate, an impressive update of the Antrabata set.

In the intervening years, many more tracks surfaced including the legendary Led Zeppelin II sessions and superior sounding versions of already existing tracks. Studio Magik gives a much needed overhaul of Led Zeppelin outtakes.

Not only are the new sessions presented, but all of the older tracks have been given a remastering job from the best available sources and are presented in their definitive form.

~ collectorsmusicreviews.com
Led Zeppelin - Studio Magik: Sessions-Outtakes 1968-1980 (2013) [18CD Box Set]

Led Zeppelin - Studio Magik: Sessions-Outtakes 1968-1980 (2013):

Led Zeppelin - Studio Magik: Sessions-Outtakes 1968-1980 (2013) [18CD Box Set]

Tracklist CD1. Led Zeppelin I & II Sessions:

01 Babe I'm Gonna Leave You (Take 8)
02 Babe I'm Gonna Leave You (Take 9, Stopped)
03 Babe I'm Gonna Leave You (Take 9, Complete)
04 You Shook Me
Recorded at Olympic Studios, Barnes, London, England on September 27, 1968
05 Baby Come On Home (Take 1, Stopped)
06 Baby Come On Home (Take 2, Stopped)
07 Baby Come On Home (Take 3, Complete
Recorded at Olympic Studios, Barnes, London, England on October 10, 1968
08 Guitar Organ Instrumentals (Take 1)
09 Guitar Organ Instrumentals (Take 2)
10 Guitar Organ Instrumentals (Take 3)
11 Guitar Organ Instrumentals (Take 4)
12 Guitar Organ Instrumentals (Take 5)
13 Guitar Organ Instrumentals (Take 6)
14 Guitar Organ Instrumentals (Take 7)
Recorded at Olympic Studios, Barnes, London, England on October 1968
15 Moby Dick (Intro & Outro)
16 Drum Solo
Recorded at Mirror Sound, Los Angeles, CA between May 4th and 6th, 1969
17 Sugar Mama
Recorded at Morgan Studios, Willesden, London, England in June 1969
18 We're Gonna Groove
Recorded at Morgan Studios, Willesden, London, England on June 25th, 1969

[CUETools log; Date: 14.08.2020 16:21:07; Version: 2.1.4]
[AccurateRip ID: 002ba1a7-023c9214-db0f7712] found.
Track [ CRC | V2 ] Status
01 [19afde16|de4760c8] (0+2/2) Accurately ripped
02 [7ab591a2|7e729853] (0+2/2) Accurately ripped
03 [4b9a1248|cf40a33d] (0+2/2) Accurately ripped
04 [30ec7c36|2e2c0882] (0+2/2) Accurately ripped
05 [467b83d5|0df71ee1] (0+2/2) Accurately ripped
06 [c582a18c|e5a09951] (0+2/2) Accurately ripped
07 [cc244491|3738ddb7] (0+2/2) Accurately ripped
08 [af59112a|876a3dc5] (0+2/2) Accurately ripped
09 [1f19a734|38817a66] (0+2/2) Accurately ripped
10 [588cd919|16b48167] (0+2/2) Accurately ripped
11 [7d727c14|2bb6f25c] (0+2/2) Accurately ripped
12 [3d8c4690|b00b0b67] (0+2/2) Accurately ripped
13 [7905aa14|3991c2f2] (0+2/2) Accurately ripped
14 [1f6be7f1|944f974c] (0+2/2) Accurately ripped
15 [f90a5795|db885511] (0+2/2) Accurately ripped
16 [cbe59ff6|4e88fd02] (0+2/2) Accurately ripped
17 [ed390fde|ab412a10] (0+2/2) Accurately ripped
18 [8ddcbc7a|b54f677f] (0+2/2) Accurately ripped

Track Peak [ CRC32 ] [W/O NULL]
– 87,9 [1E469BAE] [3E0775BE]
01 71,8 [F9F66387] [1F85651C]
02 25,6 [E1405224] [B61ACC35]
03 77,0 [8BD4F446] [F52101F8]
04 76,6 [ADDBF0D7] [F6341251]
05 46,1 [3DDB8AD6] [AEA3AB54]
06 54,6 [51608966] [F0B71AA0]
07 79,4 [F5BF4BF8] [FE54BBD1]
08 87,9 [4FD34E02] [3FC5DF1B]
09 45,4 [31A82D7A] [A11A6C8D]
10 53,0 [1D941B5A] [918583E2]
11 56,4 [0CAC0D36] [B4169167]
12 70,4 [4774A81E] [0E683A49]
13 82,3 [6AA79B61] [D9244DE0]
14 73,4 [A167B48D] [C3ABC0C5]
15 84,1 [746B2DFF] [1F59939E]
16 77,1 [DAB0CA20] [AF6CE28A]
17 78,7 [DF196500] [666CCFA0]
18 81,3 [D2CBF820] [E85A8426]


Tracklist CD2. Led Zeppelin II Multitracks - Whole Lotta Love:

01 Whole Lotta Love (Main Guitar)
02 Whole Lotta Love (Guitar Overdubs)
03 Whole Lotta Love (Bass)
04 Whole Lotta Love (Drums Right)
05 Whole Lotta Love (Drums Left)
06 Whole Lotta Love (Tympani / Tambourine)
07 Whole Lotta Love (Vocals)
08 Whole Lotta Love (Vocal Overdubs)
09 Whole Lotta Love (Multitrack Mixdown, Version 1)
10 Whole Lotta Love (Multitrack Mixdown, Version 2)
11 Whole Lotta Love (Multitrack Mixdown, Version 3)
12 Whole Lotta Love (Multitrack Mixdown Showcase)
Recorded at Olympic Studios, Barnes, London, England in May 1969

[CUETools log; Date: 14.08.2020 16:26:22; Version: 2.1.4]
[AccurateRip ID: 0020803b-012f2d9a-a610fc0c] found.
Track [ CRC | V2 ] Status
01 [e6fe5a47|90d4d65b] (0+2/2) Accurately ripped
02 [a7ae7fd4|062ddeaf] (0+2/2) Accurately ripped
03 [b0143157|239cf010] (0+2/2) Accurately ripped
04 [6eccdc95|677893c5] (0+2/2) Accurately ripped
05 [0b83244a|333fcc25] (0+2/2) Accurately ripped
06 [500b5476|d79037dc] (0+2/2) Accurately ripped
07 [32b41b95|01291201] (0+2/2) Accurately ripped
08 [d1a47ed8|74daf70c] (0+2/2) Accurately ripped
09 [3522f011|d38b4aa7] (0+2/2) Accurately ripped
10 [1004b015|3621ccf3] (0+2/2) Accurately ripped
11 [54f6ebc5|a7d3c709] (0+2/2) Accurately ripped
12 [942100e0|0c092e41] (0+2/2) Accurately ripped

Track Peak [ CRC32 ] [W/O NULL]
– 89,4 [07C9CBA8] [71EB1D5C]
01 80,2 [23CAEA76] [E6348304]
02 35,8 [3A94EEB7] [6CAF4241]
03 76,4 [3DD14D64] [D0754655]
04 79,4 [FCB234E1] [19A33D6C]
05 41,8 [95523657] [3523EA41]
06 77,7 [E68A0113] [060FAA1E]
07 53,7 [388BE968] [4DAA2345]
08 84,8 [2EFFC0CF] [BE7F82C7]
09 89,4 [E2BF0444] [1F23DF6F]
10 75,0 [2EE045A5] [7CF1D4EA]
11 79,4 [2F718B99] [3C86F1B9]
12 79,4 [A7F80196] [9D92E2D2]


Tracklist CD3. Led Zeppelin II Multitracks - What Is And What Should Never Be:

01 What Is And What Should Never Be (Main Guitar)
02 What Is And What Should Never Be (Bass)
03 What Is And What Should Never Be (Drum Right)
04 What Is And What Should Never Be (Drum Left)
05 What Is And What Should Never Be (Main Vocal)
06 What Is And What Should Never Be (Vocal Overdubs Take 1)
07 What Is And What Should Never Be (Vocal Overdubs Take 2)
08 What Is And What Should Never Be (Guitar and Vocals Overdubs)
09 What Is And What Should Never Be (Multitrack Mixdown, Version 1)
10 What Is And What Should Never Be (Multitrack Mixdown, Version 2)
11 What Is And What Should Never Be (Multitrack Mixdown, Version 3)
Recorded at Groove Studios, New York City and Olympic Studios, London in June 1969

[CUETools log; Date: 14.08.2020 16:30:51; Version: 2.1.4]
[AccurateRip ID: 00181456-00d06d03-980da30b] found.
Track [ CRC | V2 ] Status
01 [896c1e25|b784a446] (0+2/2) Accurately ripped
02 [02d4217f|fccb16bc] (0+2/2) Accurately ripped
03 [819bdd8a|adbe1099] (0+2/2) Accurately ripped
04 [ad92be04|e63badbb] (0+2/2) Accurately ripped
05 [a65c5edb|b8a3476d] (0+2/2) Accurately ripped
06 [5a37a924|e8ebefb2] (0+2/2) Accurately ripped
07 [22e92d7f|fcf257ec] (0+2/2) Accurately ripped
08 [d27bf862|d161159a] (0+2/2) Accurately ripped
09 [1ca70a7c|c9f912a9] (0+2/2) Accurately ripped
10 [5aeeb3d6|0e08a8c6] (0+2/2) Accurately ripped
11 [bd479e93|81cb6d1e] (0+2/2) Accurately ripped

Track Peak [ CRC32 ] [W/O NULL]
– 89,1 [ECF9A6EE] [DBA552C2]
01 66,6 [091E9E98] [8E791158]
02 69,0 [893C22F4] [20ED102B]
03 70,7 [2150C80B] [D34C5EFF]
04 36,8 [477B4CFB] [2040F987]
05 66,1 [95F55ADE] [8C7BEEE9]
06 67,8 [24A4A77E] [F07D81C3]
07 57,3 [7BF13735] [83A28FA7]
08 34,3 [C475F70A] [B76D4AEF]
09 82,7 [34334A82] [66AB2F45]
10 89,1 [9F70D098] [B6503668]
11 89,1 [78C37085] [01370F91]


Led Zeppelin - Studio Magik: Sessions-Outtakes 1968-1980 (2013) [18CD Box Set]

Tracklist CD4. Led Zeppelin II Multitracks - Heartbreaker:

01 Heartbreaker (Main Guitar Take 1)
02 Heartbreaker (Main Guitar Take 2)
03 Heartbreaker (Bass)
04 Heartbreaker (Drum Right)
05 Heartbreaker (Drum Left)
06 Heartbreaker (Guitar, Bass And Drums)
07 Heartbreaker (Vocals)
08 Heartbreaker (Vocals And Guitar)
09 Heartbreaker (Multitrack Mixdown, Version 1)
10 Heartbreaker (Multitrack Mixdown, Version 2)
Recorded And Mixed at A&R Studios, New York City, NY on May 30th and 31st, 1969

[CUETools log; Date: 14.08.2020 16:43:02; Version: 2.1.4]
[AccurateRip ID: 001dfb9e-00ec785e-8c10ff0a] found.
Track [ CRC | V2 ] Status
01 [9b860020|5adbf3a7] (0+2/2) Accurately ripped
02 [ca8e0096|f4f343ac] (0+2/2) Accurately ripped
03 [7c45c37e|f90f7aa0] (0+2/2) Accurately ripped
04 [3c1a1b8b|31940270] (0+2/2) Accurately ripped
05 [0fa725bc|3c35a4f1] (0+2/2) Accurately ripped
06 [9567e3c4|3e327d97] (0+2/2) Accurately ripped
07 [755317fb|be7d492b] (0+2/2) Accurately ripped
08 [fe17990b|00ce1fb3] (0+2/2) Accurately ripped
09 [5b550209|6499e89b] (0+2/2) Accurately ripped
10 [b65ecf14|00c3e454] (0+2/2) Accurately ripped

Track Peak [ CRC32 ] [W/O NULL]
– 89,1 [7CAB1BCC] [3C11ED81]
01 47,3 [34105C38] [C01E3908]
02 54,4 [A219A9FA] [0822E5CC]
03 76,9 [1E4CE7CF] [84867D35]
04 79,4 [3C03CDC9] [9A2487AA]
05 37,0 [1B381910] [5A25FD10]
06 70,7 [65859B84] [B3C0C981]
07 63,3 [7BFBBC0C] [600ABD40]
08 29,9 [471B9A5A] [E0556084]
09 79,4 [56446C56] [4C3318ED]
10 89,1 [9540B2FB] [3797A745]


Tracklist CD5. Led Zeppelin II Multitracks - Ramble On:

01 Ramble On (Acoustic Guitar)
02 Ramble On (Electric Guitar)
03 Ramble On (Guitar Overdubs)
04 Ramble On (Bass)
05 Ramble On (Drum Right)
06 Ramble On (Drum Left)
07 Ramble On (Vocals)
08 Ramble On (Vocals And GUitar)
09 Ramble On (Multitrack Mixdown, Version 1)
10 Ramble On (Multitrack Mixdown, Version 2)
11 Ramble On (Multitrack Mixdown, Version 3)
12 Ramble On (Multitrack Mixdown, Version 4)
13 Ramble On (Multitrack Mixdown, Version 5)
14 Ramble On (Multitrack Mixdown, Version 6)
Recorded at Juggy Sound Studio, New York City in June 1969

[CUETools log; Date: 14.08.2020 16:47:20; Version: 2.1.4]
[AccurateRip ID: 00225b5b-016a30e7-d10e730e] found.
Track [ CRC | V2 ] Status
01 [6277cd2a|5a061568] (0+2/2) Accurately ripped
02 [129a5284|41141d8e] (0+2/2) Accurately ripped
03 [52e04081|26a7e808] (0+2/2) Accurately ripped
04 [4809074a|541774f0] (0+2/2) Accurately ripped
05 [20db9f19|731d1bfb] (0+2/2) Accurately ripped
06 [debc7039|e092a95a] (0+2/2) Accurately ripped
07 [15599b49|d09124bd] (0+2/2) Accurately ripped
08 [29b1af6d|27be302b] (0+2/2) Accurately ripped
09 [7d2dc748|1b26cd69] (0+2/2) Accurately ripped
10 [fcac65d3|ecb98c9a] (0+2/2) Accurately ripped
11 [21e87925|dc33fc47] (0+2/2) Accurately ripped
12 [9b62944c|3510ef85] (0+2/2) Accurately ripped
13 [260ecb48|45a773d1] (0+2/2) Accurately ripped
14 [a5663964|c5848af7] (0+2/2) Accurately ripped

Track Peak [ CRC32 ] [W/O NULL]
– 89,3 [7EFAF718] [6335DA6F]
01 67,3 [8828C86A] [E83D23CD]
02 70,7 [477585A2] [0E347680]
03 18,4 [E29E58A2] [63D28FEC]
04 67,2 [8E1EC132] [C24CAFEE]
05 69,4 [DE59D6A9] [4B04BF32]
06 40,6 [89769040] [69D5EAF6]
07 68,6 [961F310C] [454E97C7]
08 53,3 [0639F3FB] [10B30CBF]
09 87,4 [A7AFADF7] [A80578C6]
10 79,4 [C7834CE3] [513DCC9A]
11 89,3 [A68A3775] [03F73CF1]
12 79,4 [63CBA44D] [D5AF6266]
13 79,4 [1C5A9896] [1A328E90]
14 81,4 [BDC69489] [03100297]


Tracklist CD6. Led Zeppelin III Sessions:

01 Jennings Farm Blues (Take 1, Stopped)
02 Jennings Farm Blues (Take 2, Stopped)
03 Jennings Farm Blues (Take 3, Stopped)
04 Jennings Farm Blues (Take 4, Stopped)
05 Jennings Farm Blues (Take 5, Stopped)
06 Jennings Farm Blues (Take 6, Complete Basic Version)
07 Jennings Farm Blues (Take 7, Stopped)
08 Jennings Farm Blues (Take 8, Stopped)
09 Jennings Farm Blues (Take 9, Stopped)
10 Jennings Farm Blues (Take 10, Stopped)
11 Jennings Farm Blues (Take 11, Stopped)
12 Jennings Farm Blues (Take 12, Complete Full Mix)
Recorded at Olympic Studios, Barnes, London, England in November 1969)
13 Untitled Guitar Instrumentals
Recorded at Bron-Yr-Aur Cottage, Wales in May 1970

[CUETools log; Date: 14.08.2020 16:58:41; Version: 2.1.4]
[AccurateRip ID: 000df7e7-009bd222-8f10ca0d] found.
Track [ CRC | V2 ] Status
01 [c98babef|02b225f5] (0+2/2) Accurately ripped
02 [80b99489|101b9f1e] (0+2/2) Accurately ripped
03 [dc660138|a85dcbf9] (0+2/2) Accurately ripped
04 [022fa9dc|e3053697] (0+2/2) Accurately ripped
05 [2b1aaac6|4a777bd8] (0+2/2) Accurately ripped
06 [4067e6d8|e553fc55] (0+2/2) Accurately ripped
07 [1ae8c82f|185c1bbe] (0+2/2) Accurately ripped
08 [dbefd266|14e46d6a] (0+2/2) Accurately ripped
09 [411da865|582c9e8b] (0+2/2) Accurately ripped
10 [37f61b8d|4a8cb32e] (0+2/2) Accurately ripped
11 [36ec5504|148374e9] (0+2/2) Accurately ripped
12 [577997f9|df7b9c49] (0+2/2) Accurately ripped
13 [a3cf9d3f|d9cc1e62] (0+2/2) Accurately ripped

Track Peak [ CRC32 ] [W/O NULL]
– 80,6 [4FF19B32] [3D7C137F]
01 56,3 [18A6584D] [A91FBD69]
02 52,1 [A3C9588A] [8FCA7AAE]
03 55,6 [2E8C8D7F] [D3C34C83]
04 53,3 [F7AB9B55] [F72750AD]
05 50,5 [873939DB] [4BB597E7]
06 56,7 [5AA6C331] [648FCEB7]
07 49,7 [A17C0165] [E46152A2]
08 54,4 [CE38E6DA] [479145BB]
09 57,2 [30B61C50] [4476CC85]
10 54,2 [BC8EE056] [57CFB851]
11 53,6 [BAFD0E50] [05058E92]
12 57,3 [0EBD0613] [4635B452]
13 80,6 [712A5789] [2C3F0D4C]


Led Zeppelin - Studio Magik: Sessions-Outtakes 1968-1980 (2013) [18CD Box Set]

Tracklist CD7. Led Zeppelin III Sessions (Part 2):

01 Guitar Instrumental (Take 1)
02 Guitar Instrumental (Take 2)
03 Poor Tom (Take 1)
04 Guitar Instrumental (Take 3)
05 Guitar Instrumental (Take 4)
06 The Boy Next Door (Take 1)
07 The Boy Next Door (Take 2)
08 The Boy Next Door (Take 3)
09 The Boy Next Door (Take 4)
10 The Boy Next Door (Take 5)
11 My Oh My (Takes 1 & 2)
12 Bron-Yr-Aur (Takes 1 & 2)
13 Guitar Instrumental (Take 5)
14 Guitar Instrumental (Take 6)
15 Guitar Instrumental (Take 7)
16 Bron-Yr-Aur (Take 3)
17 My Oh My (Takes 3 & 4)
18 Bron-Yr-Aur (Take 4)
19 Poor Tom (Takes 2 - 6)
20 Hey Hey What Can I Do (Takes 1 & 2)
21 Immigrant Song
22 Bathroom SOng
Recorded at Headley Grange Studios, Hampshire, England, between May and June 1970
23 Poor Tom (Take 1, Instrumental)
24 Poor Tom (Take 2, With Vocals)
Recorded at Morgan Studios, Willesden, London, England on May 6th, 1970
25 Celebration Day (Instrumental)
26 Hey Hey What Can I Do (Instrumental)
27 Out On The Tiles (Instrumental
Recorded between May and June 1970, Location Unknown

[CUETools log; Date: 14.08.2020 17:12:46; Version: 2.1.4]
[AccurateRip ID: 003d0911-04a56231-5710541b] found.
Track [ CRC | V2 ] Status
01 [c6b49459|eb99594c] (0+2/2) Accurately ripped
02 [b8794447|99e813f2] (0+2/2) Accurately ripped
03 [f0d0e8f0|29c6e245] (0+2/2) Accurately ripped
04 [d07bb9af|36a1ee61] (0+2/2) Accurately ripped
05 [b6990938|6eebb803] (0+2/2) Accurately ripped
06 [bc6e6758|b2290b25] (0+2/2) Accurately ripped
07 [876e1530|7fdef77b] (0+2/2) Accurately ripped
08 [58674681|1e44251d] (0+2/2) Accurately ripped
09 [a4d389cb|bfb73c85] (0+2/2) Accurately ripped
10 [b874073d|ebbda779] (0+2/2) Accurately ripped
11 [3bd26053|c84d6c96] (0+2/2) Accurately ripped
12 [213f70f7|4243bb7e] (0+2/2) Accurately ripped
13 [a75c2015|5f182735] (0+2/2) Accurately ripped
14 [45655b91|123451ac] (0+2/2) Accurately ripped
15 [05a9537b|dec43a50] (0+2/2) Accurately ripped
16 [c7f4d1fc|e11052cc] (0+2/2) Accurately ripped
17 [8afc9ce1|7d4cae82] (0+2/2) Accurately ripped
18 [ddf53ef2|b5e5a435] (0+2/2) Accurately ripped
19 [31f5948c|c4d4f1d3] (0+2/2) Accurately ripped
20 [eb97e0d0|610eb114] (0+2/2) Accurately ripped
21 [f285397a|45645205] (0+2/2) Accurately ripped
22 [3abfb2c3|2b43c9a0] (0+2/2) Accurately ripped
23 [e76f6407|8ebed687] (0+2/2) Accurately ripped
24 [f580ca99|e97b74cb] (0+2/2) Accurately ripped
25 [bd1f9aa5|ac507293] (0+2/2) Accurately ripped
26 [46fff7e5|6936247e] (0+2/2) Accurately ripped
27 [a06bcf0d|22b57325] (0+2/2) Accurately ripped

Track Peak [ CRC32 ] [W/O NULL]
– 79,4 [B7D6D3BF] [B6E3B3CD]
01 68,1 [17C752DD] [364E5B59]
02 69,7 [1B5C039A] [46DFFAA0]
03 65,8 [82618419] [6A53F3FD]
04 54,8 [685299B1] [0077CC21]
05 53,4 [5D3CABCF] [ED7C5593]
06 70,9 [4B21F8F1] [C0BAFFEF]
07 54,9 [DD4868A3] [C4CB85E2]
08 67,1 [32AAA820] [301CDEC8]
09 64,6 [24297219] [25352E7A]
10 72,3 [C7C67663] [01585F0E]
11 59,7 [7F2269E3] [CAA73D33]
12 70,4 [7E6AE740] [BEE3D9E9]
13 79,4 [C3B68ECA] [35FEAB4A]
14 57,8 [277FB962] [53BCEF1D]
15 75,7 [B5F32977] [7959C996]
16 72,1 [80CCB7D1] [188C5CB6]
17 66,6 [3B07A548] [956D1201]
18 61,0 [F81DFB02] [0D94E5DD]
19 60,1 [305F5CDD] [FC5FCDA2]
20 67,0 [6F9B06C8] [24AA0640]
21 78,3 [7A788009] [78BEE553]
22 61,4 [D90A985D] [18073BD9]
23 70,7 [DF0473EF] [973B9858]
24 70,7 [22BD931F] [08540ACB]
25 70,7 [D6F80A48] [16453C05]
26 70,7 [BD25E55A] [AF6B74FF]
27 70,7 [9A09F694] [F33B7B6C]


Tracklist CD8. Led Zeppelin III & IV Sessions:

01 That's The Way (Full Mix)
02 Feel So Bad (Takes 1 & 2)
03 Since I've Been Loving You (Vocal Track)
04 Since I've Been Loving You (Full Mix)
Recorded at Olympic Studios, Barnes, London, between May and June 1970
05 Stairway To Heaven (Take 1, Instrumental)
06 Blues Guitar / Piano Improvisation
07 Black Dog (Take 1, Acoustic Instrumental)
08 Black Dog (Take 2, Acoustic Instrumental)
09 Black Dog (Rehearsal)
10 No Quarter
11 Stairway To Heaven (Take 2, Instrumental)
12 Stairway To Heaven (Take 3, Instrumental)
13 Stairway To Heaven (Take 4, Instrumental)
14 Electric Guitar Improvisation
15 Stairway To Heaven (Take 5, With Vocals)
16 Stairway To Heaven (Take 6, With Vocals)
17 Stairway To Heaven
18 Night Flight
Recorded at Headley Grange Studios, Hampshire, England, between January and february 1971)

[CUETools log; Date: 14.08.2020 17:17:06; Version: 2.1.4]
[AccurateRip ID: 0032c3cf-02931e96-24124c12] found.
Track [ CRC | V2 ] Status
01 [7e9d8e39|a85f5831] (0+2/2) Accurately ripped
02 [18bc1dc0|a0505e98] (0+2/2) Accurately ripped
03 [a589ffbf|7ef0f8f2] (0+2/2) Accurately ripped
04 [6b81d65f|9a0939e0] (0+2/2) Accurately ripped
05 [5212f9b0|93199f46] (0+2/2) Accurately ripped
06 [9f55751e|47983cec] (0+2/2) Accurately ripped
07 [fd2a6f80|47317955] (0+2/2) Accurately ripped
08 [2ae3c2ee|de8279fc] (0+2/2) Accurately ripped
09 [58798696|6f261b3d] (0+2/2) Accurately ripped
10 [7e12275c|d223da1b] (0+2/2) Accurately ripped
11 [67c5b27d|e666516d] (0+2/2) Accurately ripped
12 [48540d9f|275fcd89] (0+2/2) Accurately ripped
13 [fdbf8aea|36eccd12] (0+2/2) Accurately ripped
14 [1049846a|72ae9ea3] (0+2/2) Accurately ripped
15 [5acec9e8|f5492ff9] (0+2/2) Accurately ripped
16 [09688a5b|885484c7] (0+2/2) Accurately ripped
17 [f319ba75|f5dbdb79] (0+2/2) Accurately ripped
18 [5ed4cac8|9b154d02] (0+2/2) Accurately ripped

Track Peak [ CRC32 ] [W/O NULL]
– 79,4 [4BF386CC] [D3811D09]
01 67,5 [E8E20A59] [45C9294A]
02 66,9 [AF68166C] [C83AA64D]
03 72,2 [EE8DB620] [D974712F]
04 70,7 [E99E34BE] [8D5E5323]
05 51,5 [1495EB48] [BB7235AB]
06 43,9 [BE576F32] [3067BFD4]
07 61,5 [A6B058F5] [67A4C19B]
08 43,1 [1CBB8014] [CAF95E53]
09 79,4 [E328A70B] [75C1985C]
10 75,0 [06758603] [A230F546]
11 72,2 [663AAA60] [11AA8326]
12 60,7 [D4A51E82] [2DBAFE4D]
13 64,8 [37BF9903] [AD72CDD3]
14 57,8 [03C95BEA] [6C9B934F]
15 54,9 [7A8B8B6B] [E72780CB]
16 79,4 [1CF4470C] [D5BBAF8A]
17 70,7 [EB349717] [64222617]
18 73,0 [1ED2A803] [5AB2962C]


Tracklist CD9. Led Zeppelin IV Sessions:

01 The Battle Of Evermore (Take 1)
02 The Battle Of Evermore (Take 2)
03 The Battle Of Evermore (Take 3)
04 The Battle Of Evermore (Take 4)
05 The Battle Of Evermore (Take 5)
06 The Battle Of Evermore (Take 6)
07 Four Sticks (Take 1, Instrumental)
08 Four Sticks (Take 2, with Vocals)
09 Black Dog
10 When The Levee Breaks (Take 1)
11 When The Levee Breaks (Take 2)
Recorded at Headley Grange Studios, Hampshire, England, between January and February 1971)

[CUETools log; Date: 14.08.2020 17:21:31; Version: 2.1.4]
[AccurateRip ID: 00181869-00d21c12-950e2a0b] found.
Track [ CRC | V2 ] Status
01 [bffc9fdb|8d1b9f00] (0+2/2) Accurately ripped
02 [daed63e5|e71e871d] (0+2/2) Accurately ripped
03 [a880d323|cf1fd941] (0+2/2) Accurately ripped
04 [d22d95c9|30e78f44] (0+2/2) Accurately ripped
05 [5f06c763|ffc6189b] (0+2/2) Accurately ripped
06 [6756c7da|8f1fc331] (0+2/2) Accurately ripped
07 [f1aed593|4cb8bdf8] (0+2/2) Accurately ripped
08 [762296f7|c3e56e38] (0+2/2) Accurately ripped
09 [3e9b75f8|4c1fbaf8] (0+2/2) Accurately ripped
10 [ab26fd80|f526c29c] (0+2/2) Accurately ripped
11 [a0e1bf5e|ce0718d9] (0+2/2) Accurately ripped

Track Peak [ CRC32 ] [W/O NULL]
– 79,4 [BB200EEB] [E64F6446]
01 46,0 [0AF27AFE] [ACD36206]
02 78,4 [DFE3B419] [D34FB675]
03 62,6 [1B9F1A94] [969F357E]
04 63,0 [32E488EB] [676A1B8C]
05 63,0 [B865D366] [BC423DE7]
06 52,0 [9A122EE1] [71EA470C]
07 79,4 [48F9401A] [D65D9437]
08 63,0 [7999A072] [BD058600]
09 63,0 [6C87FFCF] [57B3DF89]
10 63,0 [407F8DE9] [B9C0CAF0]
11 70,7 [5D073502] [54730200]


Led Zeppelin - Studio Magik: Sessions-Outtakes 1968-1980 (2013) [18CD Box Set]

Tracklist CD10. Bombay Rehearsals & Houses Of The Holy Sessions:

01 Friends (Rehearsing The Tune)
02 Four Sticks (Take 1)
03 Friends (Take 1)
04 Friends (Take 2)
05 Friends (Take 3)
06 Four Sticks (Take 2)
07 Four Sticks (Take 3)
08 Four Sticks (Take 4)
Recorded at EMI Studios Bombay in March 1972
09 Walter's Walk (Take 1, Instrumental)
10 Walter's Walk (Take 2, With Vocals)
11 Walter's Walk (Take 3, With Vocals)
Recorded with the Rolling Stones Mobile Studio at Stargroves, Newbury, Berkshire on May 15th, 1972

[CUETools log; Date: 14.08.2020 17:24:37; Version: 2.1.4]
[AccurateRip ID: 0022aadb-01075594-bd0e790b] found.
Track [ CRC | V2 ] Status
01 [5dde65e9|b414da77] (0+2/2) Accurately ripped
02 [5f7569a7|4fe8b4fa] (0+2/2) Accurately ripped
03 [6be694bf|ad1e794f] (0+2/2) Accurately ripped
04 [8978f43b|938dfadd] (0+2/2) Accurately ripped
05 [04cf4a03|a774f545] (0+2/2) Accurately ripped
06 [c09b2d7d|45e326da] (0+2/2) Accurately ripped
07 [0d85e42a|590c5a7c] (0+2/2) Accurately ripped
08 [acb821b2|88f38315] (0+2/2) Accurately ripped
09 [47bf12be|053fffe0] (0+2/2) Accurately ripped
10 [deba6352|42868d5d] (0+2/2) Accurately ripped
11 [080dd985|8df14d9e] (0+2/2) Accurately ripped

Track Peak [ CRC32 ] [W/O NULL]
– 74,1 [5BBE7188] [21AAD57A]
01 70,1 [90D17C35] [D45B1B9B]
02 63,1 [001AAD8D] [DAE4C220]
03 24,6 [2BCD915C] [A391C625]
04 69,2 [E681ADAF] [EF0637E6]
05 74,1 [A526301D] [B8AD4BE5]
06 38,3 [B7BFFEF2] [877C7563]
07 68,8 [51A92620] [A9D0A89D]
08 65,6 [2689C0D0] [7E77B2C6]
09 56,2 [368307F3] [E9B6565A]
10 56,2 [E26736E8] [69CE2352]
11 56,2 [068520B4] [3E99216B]


Tracklist CD11. Houses Of The Holy Sessions & Lucifer Rising:

01 No Quarter (Take 1, Instrumental, Complete)
02 No Quarter (Take 2, Stopped)
03 No Quarter (Take 3, Stopped)
04 No Quarter (Take 4, Instrumental)
05 No Quarter (Take 5, Stopped)
06 No Quarter (Take 6, Stopped)
07 No Quarter (Take 7, Complete)
Recorded at Island Studios, London in June 1972
08 Incubus
09 Damask
10 Unharmonics
11 Damask (Ambient Version)
12 Lucifer Rising
13 Lucifer Rising (Percussive Return)
Recorded at Boleskine House, Loch Ness, Scotland between October and November 1973

[CUETools log; Date: 14.08.2020 17:27:39; Version: 2.1.4]
[AccurateRip ID: 0016be26-00e5a59b-9c0d5c0d] found.
Track [ CRC | V2 ] Status
01 [31daf241|de2f1caa] (0+2/2) Accurately ripped
02 [65a6ccba|b4b4bf8e] (0+2/2) Accurately ripped
03 [c8cfa515|75e0fefb] (0+2/2) Accurately ripped
04 [02377e4c|9bd28d43] (0+2/2) Accurately ripped
05 [a01430b6|dcf8d84e] (0+2/2) Accurately ripped
06 [e713df17|650c638e] (0+2/2) Accurately ripped
07 [4e57c981|e26a2768] (0+2/2) Accurately ripped
08 [dcb06acb|2670838e] (0+2/2) Accurately ripped
09 [ebdfb6a3|3ac67e74] (0+2/2) Accurately ripped
10 [c35e1e7e|fa59256f] (0+2/2) Accurately ripped
11 [ff4a3d4d|6942e6d9] (0+2/2) Accurately ripped
12 [dcd41f01|da4d65ca] (0+2/2) Accurately ripped
13 [a44877db|f708b950] (0+2/2) Accurately ripped

Track Peak [ CRC32 ] [W/O NULL]
– 79,4 [CB4FA4AD] [5C6F7E61]
01 72,1 [52130E0F] [00620A98]
02 18,6 [A7A01018] [B2D54F3A]
03 9,5 [FCBBFCD0] [4028FE58]
04 78,1 [AEBC4291] [988B3478]
05 4,5 [348A4795] [BF8CA1BD]
06 6,8 [7050CC16] [1E5EE108]
07 76,7 [E6C3D7BE] [2E0D7585]
08 76,8 [0D8457F7] [B35FB9E2]
09 78,7 [FCAE0D35] [5F07F918]
10 77,6 [8F5DFAA2] [69D6EC62]
11 77,8 [CDD9E5BD] [4F00C38C]
12 79,4 [0ADF398D] [783B5682]
13 76,5 [1F4268C4] [F88385AA]


Tracklist CD12. Pre-Physical Graffiti Outtakes (Part 1):

01 Untitled Instrumental
02 Untitled Instrumental
03 Ten Years Gone (Takes 1 - 12)
Recorded at Headley Grange Studios, Hampsire in November 1973

[CUETools log; Date: 14.08.2020 17:31:01; Version: 2.1.4]
[AccurateRip ID: 0009eefe-001e94eb-210cbd03] found.
Track [ CRC | V2 ] Status
01 [e62f6a9e|9ccf8ef5] (0+2/2) Accurately ripped
02 [6bd79d9a|6228cf7d] (0+2/2) Accurately ripped
03 [d801530b|f53dc8fa] (0+2/2) Accurately ripped

Track Peak [ CRC32 ] [W/O NULL]
– 74,1 [E6D1B05A] [3BFD87D1]
01 74,1 [C7083CCC] [FC94D139]
02 40,1 [CA78ADDD] [94C24DA0]
03 65,9 [622944C7] [7D57B464]


Led Zeppelin - Studio Magik: Sessions-Outtakes 1968-1980 (2013) [18CD Box Set]

Tracklist CD13. Pre-Physical Graffiti Outtakes (Part 2):

01 Swan Song
Recorded at Headley Grange Studios, Hampsire in November 1973

[CUETools log; Date: 14.08.2020 20:03:32; Version: 2.1.4]
[AccurateRip ID: 00043aee-000875dd-020e7001] found.
Track [ CRC | V2 ] Status
01 [0dbf68b7|239a7aa7] (0+2/2) Accurately ripped

Track Peak [ CRC32 ] [W/O NULL]
– 79,0 [E6A8766A] [DECD2932]
01 79,0 [E6A8766A] [DECD2932]


Tracklist CD14. Physical Graffiti Outtakes (Part 1):

01 The Wanton Song (Take 1)
02 The Wanton SOng (Take 2)
03 Take Me Home (Take 1)
04 Take Me Home (Take 2)
05 In The Morning (Take 1)
06 Trampled Underfoot (Takes 1 - 9)
07 In The Morning (Take 2)
08 Sick Again
09 The Rover
10 Untitled Instrumental
11 ABC Song
12 In My Time Of Dying (Takes 1 - 7)
13 The Wanton Song
14 Trampled Underfoot
Recorded at Headley Grange Studios, Hampsire between January and February 1974

[CUETools log; Date: 14.08.2020 17:36:10; Version: 2.1.4]
[AccurateRip ID: 00233b70-01847490-b711020e] found.
Track [ CRC | V2 ] Status
01 [dc6396cb|398d6385] (0+2/2) Accurately ripped
02 [4e3e0050|80844750] (0+2/2) Accurately ripped
03 [d6194245|66343837] (0+2/2) Accurately ripped
04 [770d024b|6484cbb9] (0+2/2) Accurately ripped
05 [61ade91b|8c12e1ad] (0+2/2) Accurately ripped
06 [98139bce|3ca48996] (0+2/2) Accurately ripped
07 [f038cd16|77071e22] (0+2/2) Accurately ripped
08 [8e80f3ad|62f9e07d] (0+2/2) Accurately ripped
09 [59b68e7e|de2445b1] (0+2/2) Accurately ripped
10 [d7f1406f|f90f8ccb] (0+2/2) Accurately ripped
11 [88cf249b|d08308ad] (0+2/2) Accurately ripped
12 [bf7fdde1|99823aa1] (0+2/2) Accurately ripped
13 [c931f58b|a4dde059] (0+2/2) Accurately ripped
14 [de047265|38388299] (0+2/2) Accurately ripped

Track Peak [ CRC32 ] [W/O NULL]
– 79,4 [ECE617A8] [5CEA8BD1]
01 79,3 [F1ABA998] [B864050A]
02 78,2 [241B6892] [4959A52D]
03 68,1 [1B18243D] [44A010EA]
04 79,3 [845722C1] [1CF11E04]
05 79,3 [3FDB5619] [7D5CE382]
06 79,3 [5E744775] [0460CF9F]
07 77,1 [89DDBBB1] [E24B50C5]
08 71,8 [82679FD2] [FA5F0BE5]
09 52,7 [C0F10CF9] [55DF41E4]
10 64,9 [A31AC92B] [CFBA2B88]
11 57,9 [D48A9CE7] [5F0EEC0D]
12 79,3 [244085F3] [BCE8B43A]
13 79,4 [5EA9576D] [7300E10D]
14 79,4 [482BD89A] [DC3DFE59]


Tracklist CD15. Physical Graffiti Outtakes (Part 2):

01 Ten Years Gone (Takes 1 - 4)
02 Boogie With Stu (Takes 1 - 9)
03 Night Flight (Takes 1 - 11)
04 Trampled Underfoot
05 Kashmir
06 Custard Pie
07 In The Light
08 Swan Song (Take 1)
09 Swan Song (Take 2)
Recorded at Headley Grange Studios, Hampsire between January and February 1974

[CUETools log; Date: 14.08.2020 18:00:23; Version: 2.1.4]
[AccurateRip ID: 001cf60c-00cbdf63-78104909] found.
Track [ CRC | V2 ] Status
01 [a2bc452d|2f1ae2b1] (0+2/2) Accurately ripped
02 [91a1248e|41722330] (0+2/2) Accurately ripped
03 [1b42d3c5|f1dec54c] (0+2/2) Accurately ripped
04 [69748f0a|bf184cb6] (0+2/2) Accurately ripped
05 [6b5d14a0|3e28f1d5] (0+2/2) Accurately ripped
06 [d099156b|98ef2b31] (0+2/2) Accurately ripped
07 [6f783b6a|59a8d195] (0+2/2) Accurately ripped
08 [38875ebb|84ab309f] (0+2/2) Accurately ripped
09 [46f427b2|ebf8c606] (0+2/2) Accurately ripped

Track Peak [ CRC32 ] [W/O NULL]
– 77,7 [45DC65D3] [375F6D7D]
01 70,7 [7D37EA79] [9BD5C5D7]
02 60,6 [68D6C451] [B3DD93B8]
03 70,7 [B4A77075] [C0B98471]
04 68,6 [C206AA04] [F6B63639]
05 72,7 [56079CCF] [61BAEEFC]
06 77,5 [CC22A837] [0210FD39]
07 77,7 [FFF835A5] [C933FF1F]
08 73,8 [C28B7510] [B052086D]
09 71,1 [2E7874B9] [6886E590]


Led Zeppelin - Studio Magik: Sessions-Outtakes 1968-1980 (2013) [18CD Box Set]

Tracklist CD16. Presence & In Through The Out Door Outtakes:

01 Wanton Song
02 Wanton Song
Recorded at Headley Grange Studios, Hampsire between January and February 1974
03 Royal Orleans
04 Tea For One
05 Don't Start Me Talking / All My Lovin'
Recorded at SIR, Hollywood, CA in October 1975
06 Bonzo's Montreux (Take 1)
07 Bonzo's Montreux (Take 2)
Recorded at Mountain Studios, Montreux on September 12th, 1976
08 Fire
09 Carouselambra (Takes 1 - 4)
Recorded in Clearwell Castle, Gloucestershire in May 1978
10 Drum Segment
11 Carouselambra
12 Ozone Baby (Take 1)
13 Ozone Baby (Take 2)
14 All My Love
15 Wearing And Tearing
16 I'm Gonna Crawl
17 Fool In The Rain
Recorded at Polar Studios, Stockholm in November 1978

[CUETools log; Date: 14.08.2020 18:04:00; Version: 2.1.4]
[AccurateRip ID: 002a7658-02261de3-0b106411] found.
Track [ CRC | V2 ] Status
01 [11952fe3|0aa01dd1] (0+2/2) Accurately ripped
02 [ff0360db|3f6cd7f1] (0+2/2) Accurately ripped
03 [5fbe8084|1e6554c8] (0+2/2) Accurately ripped
04 [27f2d570|81f7c871] (0+2/2) Accurately ripped
05 [467050ef|79934842] (0+2/2) Accurately ripped
06 [441712d1|7ffd64cb] (0+2/2) Accurately ripped
07 [a30ea80f|5cd8fd11] (0+2/2) Accurately ripped
08 [01f06a92|660337ef] (0+2/2) Accurately ripped
09 [82aed309|725b3e30] (0+2/2) Accurately ripped
10 [9ba69907|72743ab9] (0+2/2) Accurately ripped
11 [d7ec9190|56787818] (0+2/2) Accurately ripped
12 [f8468dea|0c25d02d] (0+2/2) Accurately ripped
13 [efa523c7|f4ae3b57] (0+2/2) Accurately ripped
14 [8c49fa54|8f64811c] (0+2/2) Accurately ripped
15 [35a1e83c|6b539073] (0+2/2) Accurately ripped
16 [29fee73f|3c6cce73] (0+2/2) Accurately ripped
17 [261c1a93|c40d8bcb] (0+2/2) Accurately ripped

Track Peak [ CRC32 ] [W/O NULL]
– 81,7 [465D0F60] [EB33663F]
01 79,5 [67B56E41] [902F5B86]
02 81,7 [F7795712] [533F3BDC]
03 73,0 [E46111AB] [3FDA194D]
04 78,2 [652F503F] [ED5C6C23]
05 77,5 [6BD16152] [24EBC3A7]
06 70,7 [E7C07A61] [E9A37F98]
07 70,7 [0A578682] [B7B1F65F]
08 70,5 [880EAFA3] [58661AD6]
09 75,6 [C9C1B8F3] [5A59DBDF]
10 63,5 [7AAFD179] [F9ACD778]
11 63,4 [4BD10096] [6C5B5BEF]
12 63,4 [B9A5FB96] [823DAB7E]
13 63,4 [80E91DE2] [5172315C]
14 63,3 [D3AE5BC5] [78EE4093]
15 63,4 [8AB71384] [A6965D10]
16 63,2 [F59FB3A7] [28E7C02C]
17 63,3 [36036F23] [2E291FA7]


Tracklist CD17. In Through The Out Door Sessions:

01 Carouselambra (Take 1)
02 Wearing And Tearing
03 Fool In The Rain (Take 1)
04 Hot Dog
05 In The Evening
06 Southbound Saurez
07 Darlene
08 Fool In The Rain (Take 2)
09 Carouselambra (Take 2)
10 All My Love
Recorded at Polar Studios, Stockholm in November 1978

[CUETools log; Date: 14.08.2020 18:07:55; Version: 2.1.4]
[AccurateRip ID: 0018d014-00c23ed8-8a0f590a] found.
Track [ CRC | V2 ] Status
01 [af5386c2|3446bd91] (0+2/2) Accurately ripped
02 [f5d638c8|f2e2194a] (0+2/2) Accurately ripped
03 [75270eb3|6e170535] (0+2/2) Accurately ripped
04 [d39098ed|bf12519d] (0+2/2) Accurately ripped
05 [427bae59|0e43339a] (0+2/2) Accurately ripped
06 [a7a4bdb8|d75ac130] (0+2/2) Accurately ripped
07 [7e23a8f3|fc7309dc] (0+2/2) Accurately ripped
08 [3696a22d|3b5edb63] (0+2/2) Accurately ripped
09 [8af3b45d|50b311bc] (0+2/2) Accurately ripped
10 [deac7133|5549ad28] (0+2/2) Accurately ripped

Track Peak [ CRC32 ] [W/O NULL]
– 90,7 [E517E57D] [83DB88A5]
01 90,7 [7F6BF5B2] [6568BB8B]
02 78,3 [874F6E98] [301BE8FC]
03 80,5 [36D1BBD3] [53D7BB0C]
04 88,4 [3A1F0845] [007461CE]
05 86,1 [3A20C4EC] [197F8A89]
06 74,1 [7F772CC2] [F9CE610B]
07 78,0 [AF56809A] [F8E2FC46]
08 77,4 [FED75BAC] [47242D4E]
09 81,5 [6B3EAB5D] [96188B20]
10 56,2 [DB6CD192] [C77CA898]


Tracklist CD18. In Through The Out Door Sessions & Final Rehearsals:

01 Ozone Baby (Take 1)
02 Ozone Baby (Take 2)
Recorded at Polar Studios, Stockholm on November 14th, 1978
03 Darlene (Take 1)
04 Darlene (Take 2)
Recorded at Polar Studios, Stockholm on November 16th, 1978
05 Wearing And Tearing (Take 1)
06 Wearing And Tearing (Take 2)
Recorded at Polar Studios, Stockholm on November 21st, 1978
07 White Summer (take 1)
08 White Summer (Take 2)
09 Kashmir
10 Achilles Last Stand (Take 1)
11 Achilles Last Stand (Take 2)
12 Stairway To Heaven
Recorded at The Rainbow Theatre, London, between April and May 1980

[CUETools log; Date: 14.08.2020 18:15:20; Version: 2.1.4]
[AccurateRip ID: 0019619c-00f68c8c-b90f870c] found.
Track [ CRC | V2 ] Status
01 [a5632f55|0f943395] (0+2/2) Accurately ripped
02 [7d224c19|13cede57] (0+2/2) Accurately ripped
03 [55fc4ecd|304d7434] (0+2/2) Accurately ripped
04 [9f0552f0|7171cd4c] (0+2/2) Accurately ripped
05 [6f6dc3bf|0b799503] (0+2/2) Accurately ripped
06 [afee4524|f9211a79] (0+2/2) Accurately ripped
07 [1d78c20b|ad59174e] (0+2/2) Accurately ripped
08 [b816574f|f14d5513] (0+2/2) Accurately ripped
09 [d864b5e7|384e88fd] (0+2/2) Accurately ripped
10 [08fe9ed9|928b3080] (0+2/2) Accurately ripped
11 [b5c3e680|398bb8c7] (0+2/2) Accurately ripped
12 [237ab98e|43ddd211] (0+2/2) Accurately ripped

Track Peak [ CRC32 ] [W/O NULL]
– 76,8 [2E674DD5] [5AD51A28]
01 67,6 [A4AE5943] [D927D369]
02 67,8 [CF74FD39] [B29C24A3]
03 67,9 [A01299E2] [7E453C8B]
04 67,9 [2D1B1D6A] [1DBA7914]
05 68,0 [E46969A8] [E6AB0AD1]
06 67,8 [34919282] [977748B3]
07 73,1 [73A80669] [9D3BBDF5]
08 66,6 [5E8ED763] [8D13A4E6]
09 76,8 [3AE7B928] [8B3E23B9]
10 75,0 [CF408623] [72DE30A3]
11 74,8 [93F39617] [DA03FCCF]
12 68,1 [10E1E96A] [4AC81B21]


Led Zeppelin - Studio Magik: Sessions-Outtakes 1968-1980 (2013) [18CD Box Set]

All thanks go to the original releaser

Led Zeppelin in my Blog

Download Led Zeppelin - Studio Magik: Sessions-Outtakes 1968-1980 (2013):