Subcategories

Laura Nyro - Live in Japan (1994)

Posted By: Designol
Laura Nyro - Live in Japan (1994)

Laura Nyro - Live in Japan (1994)
EAC | FLAC | Tracks (Cue&Log) ~ 175 Mb (incl 5%) | Mp3 (CBR320) ~ 91 Mb (incl 5%) | Scans included
Soft Rock, Folk, Singer/Songwriter | Label: EMI Music Special Markets | # 72435-81183-2-2 | 00:30:22

This ten-track budget-priced collection, excerpted and resequenced from a longer version released in Japan, presents Laura Nyro at the piano along with a female vocal trio, performing a combination of the hit songs she penned, some 1950s and '60s hits of others she loved, and some of her newer material of the early 1990s. Four rock & roll oldies, the Shirelles' "Dedicated to the One I Love," the Miracles' "Ooh Baby Baby," Dionne Warwick's "Walk On By," and the Everly Brothers' "Let It Be Me," are interrupted by three of Nyro's own oldies, "And When I Die," "Save the Country," and "Wedding Bell Blues." This abbreviated version of the set then concludes with three then-recent songs, "Light a Flame (The Animal Rights Song)," "Louise's Church," and "Woman of the World," songs that continue to seem more preachy and less personal than her earlier work. But in this intimate context, with the singer and her piano presenting each song directly and with a calm confidence, the material holds together well. Fans without access to the far more expensive import might want to pick up this minor but pleasing addition to their Nyro collections.

Review by William Ruhlmann, Allmusic.com

Laura Nyro - Live in Japan (1994)



Tracklist:

01. Dedicated to the One I Love (3:29)
02. Ooh Baby Baby (2:17)
03. And When I Die (2:41)
04. Save the Country (2:54)
05. Wedding Bell Blues (2:17)
06. Walk On By (2:20)
07. Let It Be Me (2:56)
08. Light a Flame (The Animal Rights Song) (3:32)
09. Louise's Church (3:23)
10. Woman of the World (4:33)


EAC extraction logfile from 2. April 2009, 9:18 for CD
Laura Nyro / Live In Japan (1994)

Used drive : TSSTcorpCDDVDW TS-H653N Adapter: 0 ID: 1
Read mode : Secure with NO C2, accurate stream, disable cache
Read offset correction : 6
Overread into Lead-In and Lead-Out : No

Used output format : C:\Program Files\FLAC\flac.exe (User Defined Encoder)
320 kBit/s
Additional command line options : -8 -V -T "ARTIST=%a" -T "TITLE=%t" -T "ALBUM=%g" -T "DATE=%y" -T "TRACKNUMBER=%n" -T "GENRE=%m" -T "COMMENT=EAC FLAC -8" %s

Other options :
Fill up missing offset samples with silence : Yes
Delete leading and trailing silent blocks : No
Installed external ASPI interface


Track 1
Filename C:\Rips\Laura Nyro - Live In Japan (1994) [FLAC] {EMI 2003}\01 - Dedicated To The One I Love.wav

Pre-gap length 0:00:02.00

Peak level 90.4 %
Track quality 99.9 %
Test CRC 99E16080
Copy CRC 99E16080
Copy OK

Track 2
Filename C:\Rips\Laura Nyro - Live In Japan (1994) [FLAC] {EMI 2003}\02 - Ooh Baby Baby.wav

Peak level 79.5 %
Track quality 100.0 %
Test CRC EC026945
Copy CRC EC026945
Copy OK

Track 3
Filename C:\Rips\Laura Nyro - Live In Japan (1994) [FLAC] {EMI 2003}\03 - And When I Die.wav

Peak level 75.0 %
Track quality 99.9 %
Test CRC 8048CC96
Copy CRC 8048CC96
Copy OK

Track 4
Filename C:\Rips\Laura Nyro - Live In Japan (1994) [FLAC] {EMI 2003}\04 - Save The Country.wav

Peak level 57.3 %
Track quality 100.0 %
Test CRC F22316E8
Copy CRC F22316E8
Copy OK

Track 5
Filename C:\Rips\Laura Nyro - Live In Japan (1994) [FLAC] {EMI 2003}\05 - Wedding Bell Blues.wav

Peak level 82.1 %
Track quality 100.0 %
Test CRC 9D9B9E1F
Copy CRC 9D9B9E1F
Copy OK

Track 6
Filename C:\Rips\Laura Nyro - Live In Japan (1994) [FLAC] {EMI 2003}\06 - Walk On By.wav

Peak level 57.7 %
Track quality 100.0 %
Test CRC 29F01F2B
Copy CRC 29F01F2B
Copy OK

Track 7
Filename C:\Rips\Laura Nyro - Live In Japan (1994) [FLAC] {EMI 2003}\07 - Let It Be Me.wav

Peak level 62.9 %
Track quality 100.0 %
Test CRC C9C123ED
Copy CRC C9C123ED
Copy OK

Track 8
Filename C:\Rips\Laura Nyro - Live In Japan (1994) [FLAC] {EMI 2003}\08 - Light A Flame (The Animal Rights Song).wav

Peak level 60.5 %
Track quality 100.0 %
Test CRC 5B199117
Copy CRC 5B199117
Copy OK

Track 9
Filename C:\Rips\Laura Nyro - Live In Japan (1994) [FLAC] {EMI 2003}\09 - Louise's Church.wav

Peak level 89.2 %
Track quality 100.0 %
Test CRC 965A3A64
Copy CRC 965A3A64
Copy OK

Track 10
Filename C:\Rips\Laura Nyro - Live In Japan (1994) [FLAC] {EMI 2003}\10 - Woman Of The World.wav

Peak level 87.4 %
Track quality 100.0 %
Test CRC CCD4630E
Copy CRC CCD4630E
Copy OK

No errors occured


End of status report

[CUETools log; Date: 22.06.2014 23:12:50; Version: 2.1.4]
[CTDB TOCID: jPe_PwwZPvO5FR265yA8Z8xqImQ-] found.
Track | CTDB Status
1 | (1/1) Accurately ripped
2 | (1/1) Accurately ripped
3 | (1/1) Accurately ripped
4 | (1/1) Accurately ripped
5 | (1/1) Accurately ripped
6 | (1/1) Accurately ripped
7 | (1/1) Accurately ripped
8 | (1/1) Accurately ripped
9 | (1/1) Accurately ripped
10 | (1/1) Accurately ripped
[AccurateRip ID: 000ab8d9-00561402-6d071e0a] found.
Track [ CRC | V2 ] Status
01 [b4562d60|e808f767] (2+0/2) Accurately ripped
02 [b0b3ef4a|c3b1eab4] (2+0/2) Accurately ripped
03 [23401fa3|8ea92d33] (2+0/2) Accurately ripped
04 [07c18025|fc34144c] (2+0/2) Accurately ripped
05 [562808ad|eb2fc071] (2+0/2) Accurately ripped
06 [71c01fc4|df8d1796] (2+0/2) Accurately ripped
07 [32643e12|4a463811] (2+0/2) Accurately ripped
08 [f76fb0e8|1020d8b4] (2+0/2) Accurately ripped
09 [a2c8f9b1|16e0492a] (2+0/2) Accurately ripped
10 [e6ded962|1ab7dbe7] (2+0/2) Accurately ripped

Track Peak [ CRC32 ] [W/O NULL]
– 90,4 [48F81C97] [D0145870]
01 90,4 [99E16080] [3CDFD15C]
02 79,5 [EC026945] [F6986B0D]
03 75,0 [8048CC96] [1237E973]
04 57,3 [F22316E8] [18BD9A5B]
05 82,1 [9D9B9E1F] [E51A91AF]
06 57,7 [29F01F2B] [965323BB]
07 62,9 [C9C123ED] [F6660A1E]
08 60,5 [5B199117] [A508182F]
09 89,2 [965A3A64] [663F323F]
10 87,4 [CCD4630E] [829A6577]

foobar2000 1.2 / Dynamic Range Meter 1.1.1
log date: 2014-06-30 16:38:51

––––––––––––––––––––––––––––––––––––––––
Analyzed: Laura Nyro / Live in Japan
––––––––––––––––––––––––––––––––––––––––

DR Peak RMS Duration Track
––––––––––––––––––––––––––––––––––––––––
DR12 -0.88 dB -18.79 dB 3:29 01-Dedicated to the One I Love
DR12 -1.99 dB -20.32 dB 2:17 02-Ooh Baby Baby
DR12 -2.49 dB -20.83 dB 2:41 03-And When I Die
DR12 -4.83 dB -21.56 dB 2:54 04-Save the Country
DR12 -1.71 dB -16.65 dB 2:17 05-Wedding Bell Blues
DR12 -4.77 dB -20.96 dB 2:20 06-Walk On By
DR13 -4.01 dB -23.47 dB 2:56 07-Let It Be Me
DR13 -4.36 dB -23.46 dB 3:32 08-Light a Flame (The Animal Rights Song)
DR12 -0.98 dB -18.88 dB 3:23 09-Louise's Church
DR12 -1.16 dB -17.92 dB 4:33 10-Woman of the World
––––––––––––––––––––––––––––––––––––––––

Number of tracks: 10
Official DR value: DR12

Samplerate: 44100 Hz
Channels: 2
Bits per sample: 16
Bitrate: 706 kbps
Codec: FLAC
================================================================================

Laura Nyro - Live in Japan (1994)

Laura Nyro - Live in Japan (1994)

All thanks to original releaser - Flacmonster

More interesting music in My Blog



Laura Nyro - More Than A New Discovery (1966) Remastered 2008

Laura Nyro - Christmas and the Beads of Sweat (1970) [Japanese Mini-LP 2008]

Laura Nyro - Premium Best (1998)

Laura Nyro - Angel In The Dark (2001)

Laura Nyro - Live: The Loom's Desire (2002) 2CDs


Password: designol