Kenny Drew Trio - Nature Beauty (1978-1980) {Pony Canyon Japan}

Posted By: tiburon
Kenny Drew Trio - Nature Beauty (1978-1980) {Pony Canyon Japan}

Kenny Drew Trio - Nature Beauty (1978-1980) {Pony Canyon Japan}
EAC 1.1 | FLAC Image level 8 | Cue+Log | Full Scans 300dpi | 302MB + 5% Recovery
MP3 CBR 320 Kbps | 149MB + 5% Recovery
Genre: Jazz, Hard-Bop
Kenny Drew Trio - Nature Beauty (1978-1980) {Pony Canyon Japan}

To commemmorate the 20th anniversary of Drew's passing, a very special series was launched in Japan in 2013, with a release of previously unpublished materials recorded for the two labels between 1972 and 1992. Most of them are alternate takes and takes that did not make onto the original albums released in this period. Danish super-bassist Niels-Henning Orsted Pedersen held the bass chair throughout, and the drummer is either Ed Thigpen, a fellow American expat who had settled in Copenhagen, or Alvin Queen.
Track List
01. Dear Old Stockholm (Trad.) - 5:20
02. Nature Beauty (Drew) - 3:24
03. Django (Lewis) - 6:47
04. Autumn Leaves (Kosma) - 3:43
05. Water Stream (Drew) - 7:26
06. Dream (Mercer) - 4:13
07. When You Wish Upon a Star (Harline) - 4:55
08. Dream Land (Drew) - 3:35
09. Willow Weep for Me (Ronell) - 4:43
10. Hash-A-Bye (Trad.) - 3:56
11. Finale (Drew) - 6:06

musicians
Kenny Drew - piano
Niels-Henning Orsted Pedersen - bass
Ed Thigpen - drums

Produced by Kenny Drew


Exact Audio Copy V1.1 from 23. June 2015

EAC extraction logfile from 16. July 2015, 0:55

Kenny Drew Trio / Nature Beauty

Used drive : ASUS DRW-24B1LT Adapter: 1 ID: 1

Read mode : Secure
Utilize accurate stream : Yes
Defeat audio cache : Yes
Make use of C2 pointers : No

Read offset correction : 6
Overread into Lead-In and Lead-Out : No
Fill up missing offset samples with silence : Yes
Delete leading and trailing silent blocks : No
Null samples used in CRC calculations : Yes
Used interface : Native Win32 interface for Win NT & 2000

Used output format : User Defined Encoder
Selected bitrate : 768 kBit/s
Quality : High
Add ID3 tag : No
Command line compressor : C:\Program Files\Exact Audio Copy\Flac\flac.exe
Additional command line options : -8 -V -T "ARTIST=%artist%" -T "TITLE=%title%" -T "ALBUM=%albumtitle%" -T "DATE=%year%" -T "TRACKNUMBER=%tracknr%" -T "TOTALTRACKS=%numtracks%" -T "GENRE=%genre%" -T "ALBUMARTIST=%albumartist%" -T "ALBUM ARTIST=%albumartist%" -T "COMMENT=EAC Secure Mode, Test & Copy, AccurateRip, FLAC -8" %source%


TOC of the extracted CD

Track | Start | Length | Start sector | End sector
––––––––––––––––––––––––––––-
1 | 0:00.00 | 5:20.00 | 0 | 23999
2 | 5:20.00 | 3:24.20 | 24000 | 39319
3 | 8:44.20 | 6:47.07 | 39320 | 69851
4 | 15:31.27 | 3:42.73 | 69852 | 86574
5 | 19:14.25 | 7:25.50 | 86575 | 119999
6 | 26:40.00 | 4:12.62 | 120000 | 138961
7 | 30:52.62 | 4:55.10 | 138962 | 161096
8 | 35:47.72 | 3:35.23 | 161097 | 177244
9 | 39:23.20 | 4:43.32 | 177245 | 198501
10 | 44:06.52 | 3:55.73 | 198502 | 216199
11 | 48:02.50 | 6:05.47 | 216200 | 243621


Range status and errors

Selected range

Filename F:\audio\Kenny Drew Trio - Nature Beauty.wav

Peak level 99.2 %
Extraction speed 3.0 X
Range quality 99.9 %
Test CRC FD5C184D
Copy CRC FD5C184D
Copy OK

No errors occurred


AccurateRip summary

Track 1 accurately ripped (confidence 3) [63EA9300] (AR v2)
Track 2 accurately ripped (confidence 3) [821DD334] (AR v2)
Track 3 accurately ripped (confidence 3) [F28459C8] (AR v2)
Track 4 accurately ripped (confidence 3) [C6D43DB4] (AR v2)
Track 5 accurately ripped (confidence 3) [0F7BE0A1] (AR v2)
Track 6 accurately ripped (confidence 3) [42DA24AC] (AR v2)
Track 7 accurately ripped (confidence 3) [4ED715AC] (AR v2)
Track 8 accurately ripped (confidence 3) [945A77B8] (AR v2)
Track 9 accurately ripped (confidence 3) [421D62E8] (AR v2)
Track 10 accurately ripped (confidence 3) [46013BF1] (AR v2)
Track 11 accurately ripped (confidence 3) [670632F1] (AR v2)

All tracks accurately ripped

End of status report

–– CUETools DB Plugin V2.1.6

[CTDB TOCID: bO8_h4mwIniJgKrN8oXShUutFOY-] found
Submit result: bO8_h4mwIniJgKrN8oXShUutFOY- has been confirmed
Track | CTDB Status
1 | (2/2) Accurately ripped
2 | (2/2) Accurately ripped
3 | (2/2) Accurately ripped
4 | (2/2) Accurately ripped
5 | (2/2) Accurately ripped
6 | (2/2) Accurately ripped
7 | (2/2) Accurately ripped
8 | (2/2) Accurately ripped
9 | (2/2) Accurately ripped
10 | (2/2) Accurately ripped
11 | (2/2) Accurately ripped


==== Log checksum E9A8B4D6D40A52C91322F73EAA90269539B1EE5707A60DED79E7B4E8636A2F71 ====


––––––––––––––––––––––––––––––––––––––––
Analyzed: Kenny Drew Trio / Nature Beauty
––––––––––––––––––––––––––––––––––––––––

DR Peak RMS Duration Track
––––––––––––––––––––––––––––––––––––––––
DR8 -0.07 dB -12.02 dB 5:20 01-Dear Old Stockholm
DR14 -0.07 dB -18.80 dB 3:24 02-Nature Beauty
DR13 -0.07 dB -16.33 dB 6:47 03-Django
DR12 -0.07 dB -15.47 dB 3:43 04-Autumn Leaves
DR12 -1.37 dB -18.20 dB 7:26 05-Water Stream
DR12 -0.07 dB -14.60 dB 4:13 06-Dream
DR13 -0.54 dB -18.03 dB 4:55 07-When You Wish Upon a Star
DR16 -1.35 dB -20.36 dB 3:35 08-Dream Land
DR14 -0.07 dB -16.53 dB 4:43 09-Willow Weep for Me
DR10 -0.07 dB -12.79 dB 3:56 10-Hash-A-Bye
DR11 -0.07 dB -14.37 dB 6:06 11-Finale
––––––––––––––––––––––––––––––––––––––––

Number of tracks: 11
Official DR value: DR12

Samplerate: 44100 Hz
Channels: 2
Bits per sample: 16
Bitrate: 716 kbps
Codec: FLAC
================================================================================

Kenny Drew Trio - Nature Beauty (1978-1980) {Pony Canyon Japan}
Kenny Drew Trio - Nature Beauty (1978-1980) {Pony Canyon Japan}
Kenny Drew Trio - Nature Beauty (1978-1980) {Pony Canyon Japan}


Rip by fiks22