Subcategories

Kenny Chesney - Me And You (1996)

Posted By: popsakov
Kenny Chesney - Me And You (1996)

Kenny Chesney - Me And You (1996)
EAC Rip | FLAC (Img) + Cue + Log ~ 240 Mb | MP3 CBR320 ~ 88 Mb
Scans (JPG, 600 dpi) ~ 58 Mb | RAR 5% Recovery
Country, Country Rock | BNA Records Label #BNA07863-66908-2

Me and You is the third album released by country music singer Kenny Chesney. It was released in 1996. Although its lead-off single "Back in My Arms Again" failed to make Top 40, the album's title track and "When I Close My Eyes" both reached number 2 on the Billboard Hot Country Singles & Tracks (now Hot Country Songs) charts in 1996. The title track was reprised from Chesney's previous album. "Back Where I Come From" is a cover of Mac McAnally's 1990 single from his album Simple Life, while "When I Close My Eyes" had been recorded by Restless Heart lead singer Larry Stewart on his 1993 debut album Down the Road, and by Keith Palmer before that. "It's Never Easy To Say Goodbye" had been recorded by singer Wynonna Judd on her eponymous debut album.
~ Wiki


With his second album, All I Need to Know, Kenny Chesney began to make inroads onto the charts, a position he consolidated on its 1996 successor, Me and You. While he bears no songwriting credits here, these 11 tracks showcase a more fully rounded Chesney, where the rockers pack more punch and the ballads don't seem quite as big and glossy. For instance, "When I Close My Eyes" is a great soft rock crossover, tuneful and easy but never forced and not dripping with sentiment. Not that he totally avoids sap here, either on the nostalgic hometown tune "Back Where I Come From" or the slow-dance title track, but he's developed into an old pro in spinning this corn convincingly, and when that new trait is balanced by the crackerjack country-rockers that dominate this album – the opening one-two punch of "Back in My Arms Again" and "Ain't That Love," the superb "(Turn Out the Light And) Love Me Tonight" – it makes this his most entertaining record to date.
~ Stephen Thomas Erlewine, All Music

***************

Kenny Chesney - Me And You (1996)

Track List:

01. Back In My Arms Again [0:03:27.02]
02. Ain't That Love [0:03:16.28]
03. When I Close My Eyes [0:03:30.32]
04. Back Where I Come From [0:03:57.38]
05. Turn For The Worse [0:02:38.52]
06. Me And You [0:03:40.15]
07. (Turn Out The Lights And) Love Me Tonight [0:02:12.48]
08. Another Friday Night [0:02:37.72]
09. No Small Miracle [0:03:30.53]
10. My Poor Old Heart [0:03:08.10]
11. It's Never Easy To Say Goodbye [0:04:42.10]

Personnel:
Kenny Chesney - acoustic guitar, lead vocals
Don Potter - acoustic guitar
Brent Rowan - electric guitar
"Cowboy" Eddie Long, Paul Franklin - steel guitar
Michael Rhodes - bass guitar
Eddie Bayers - drums
Terry McMillan - percussion, harmonica
Barry Beckett, Bobby Ogdin, Phil Naish - keyboards
Curtis "Mr. Harmony" Young, Dennis Wilson, John Wesley Ryles, Mandy Barnett - background vocals
Joe Spivey - fiddle

Exact Audio Copy V1.2 from 12. August 2016

EAC extraction logfile from 6. January 2017, 15:53

Kenny Chesney / Me And You

Used drive : PLEXTOR DVDR PX-716A Adapter: 1 ID: 0

Read mode : Secure
Utilize accurate stream : Yes
Defeat audio cache : Yes
Make use of C2 pointers : No

Read offset correction : 30
Overread into Lead-In and Lead-Out : No
Fill up missing offset samples with silence : Yes
Delete leading and trailing silent blocks : No
Null samples used in CRC calculations : Yes
Used interface : Native Win32 interface for Win NT & 2000

Used output format : User Defined Encoder
Selected bitrate : 1024 kBit/s
Quality : High
Add ID3 tag : No
Command line compressor : C:\Program Files (x86)\Exact Audio Copy\FLAC\FLAC.EXE
Additional command line options : -6 -V -T "ARTIST=%artist%" -T "TITLE=%title%" -T "ALBUM=%albumtitle%" -T "DATE=%year%" -T "TRACKNUMBER=%tracknr%" -T "GENRE=%genre%" -T "COMMENT=%comment%" -T "BAND=%albuminterpret%" -T "ALBUMARTIST=%albuminterpret%" -T "COMPOSER=%composer%" %haslyrics%–tag-from-file=LYRICS="%lyricsfile%"%haslyrics% -T "DISCNUMBER=%cdnumber%" -T "TOTALDISCS=%totalcds%" -T "TOTALTRACKS=%numtracks%" %hascover%–picture="%coverfile%"%hascover% %source% -o %dest%


TOC of the extracted CD

Track | Start | Length | Start sector | End sector
––––––––––––––––––––––––––––-
1 | 0:00.00 | 3:27.02 | 0 | 15526
2 | 3:27.02 | 3:16.28 | 15527 | 30254
3 | 6:43.30 | 3:30.32 | 30255 | 46036
4 | 10:13.62 | 3:57.38 | 46037 | 63849
5 | 14:11.25 | 2:38.52 | 63850 | 75751
6 | 16:50.02 | 3:40.15 | 75752 | 92266
7 | 20:30.17 | 2:12.48 | 92267 | 102214
8 | 22:42.65 | 2:37.72 | 102215 | 114061
9 | 25:20.62 | 3:30.53 | 114062 | 129864
10 | 28:51.40 | 3:08.10 | 129865 | 143974
11 | 31:59.50 | 4:42.10 | 143975 | 165134


Range status and errors

Selected range

Filename C:\mm\Kenny Chesney\1996 - Me And You [BNA 07863 66908-2]\Kenny Chesney - Me And You.wav

Peak level 100.0 %
Extraction speed 11.3 X
Range quality 99.9 %
Test CRC 10EBFE47
Copy CRC 10EBFE47
Copy OK

No errors occurred


AccurateRip summary

Track 1 accurately ripped (confidence 13) [1944AD8F] (AR v2)
Track 2 accurately ripped (confidence 14) [C10E59C2] (AR v2)
Track 3 accurately ripped (confidence 14) [AF897198] (AR v2)
Track 4 accurately ripped (confidence 13) [85DC5D4C] (AR v2)
Track 5 accurately ripped (confidence 13) [D0429535] (AR v2)
Track 6 accurately ripped (confidence 14) [25ACC286] (AR v2)
Track 7 accurately ripped (confidence 13) [AF639255] (AR v2)
Track 8 accurately ripped (confidence 13) [0C7EE5BB] (AR v2)
Track 9 accurately ripped (confidence 14) [72380B82] (AR v2)
Track 10 accurately ripped (confidence 13) [56DA8D60] (AR v2)
Track 11 accurately ripped (confidence 14) [35E71154] (AR v2)

All tracks accurately ripped

End of status report

–– CUETools DB Plugin V2.1.6

[CTDB TOCID: mBhC3U0QfBf69Uji_8TmIm6GfIY-] found
Submit result: mBhC3U0QfBf69Uji_8TmIm6GfIY- has been confirmed
Track | CTDB Status
1 | (33/33) Accurately ripped
2 | (33/33) Accurately ripped
3 | (33/33) Accurately ripped
4 | (31/33) Accurately ripped
5 | (33/33) Accurately ripped
6 | (33/33) Accurately ripped
7 | (33/33) Accurately ripped
8 | (33/33) Accurately ripped
9 | (33/33) Accurately ripped
10 | (33/33) Accurately ripped
11 | (33/33) Accurately ripped

foobar2000 1.2.6 / Dynamic Range Meter 1.1.1
log date: 2017-01-11 21:37:34

––––––––––––––––––––––––––––––––––––––––
Analyzed: Kenny Chesney / Me And You
––––––––––––––––––––––––––––––––––––––––

DR Peak RMS Duration Track
––––––––––––––––––––––––––––––––––––––––
DR10 -0.06 dB -11.72 dB 3:27 01-Back In My Arms Again
DR11 0.00 dB -12.25 dB 3:16 02-Ain't That Love
DR10 0.00 dB -12.70 dB 3:30 03-When I Close My Eyes
DR11 0.00 dB -13.61 dB 3:58 04-Back Where I Come From
DR10 0.00 dB -12.44 dB 2:39 05-Turn For The Worse
DR10 0.00 dB -13.34 dB 3:40 06-Me And You
DR10 0.00 dB -11.28 dB 2:13 07-(Turn Out The Lights And) Love Me Tonight
DR10 0.00 dB -12.13 dB 2:38 08-Another Friday Night
DR10 0.00 dB -13.06 dB 3:31 09-No Small Miracle
DR10 0.00 dB -12.18 dB 3:08 10-My Poor Old Heart
DR10 0.00 dB -13.32 dB 4:42 11-It's Never Easy To Say Goodbye
––––––––––––––––––––––––––––––––––––––––

Number of tracks: 11
Official DR value: DR10

Samplerate: 44100 Hz
Channels: 2
Bits per sample: 16
Bitrate: 871 kbps
Codec: FLAC
================================================================================

[CUETools log; Date: 11.01.2017 21:37:37; Version: 2.1.5]
[CTDB TOCID: mBhC3U0QfBf69Uji_8TmIm6GfIY-] found.
Track | CTDB Status
1 | (34/34) Accurately ripped
2 | (34/34) Accurately ripped
3 | (34/34) Accurately ripped
4 | (32/34) Accurately ripped
5 | (34/34) Accurately ripped
6 | (34/34) Accurately ripped
7 | (34/34) Accurately ripped
8 | (34/34) Accurately ripped
9 | (34/34) Accurately ripped
10 | (34/34) Accurately ripped
11 | (34/34) Accurately ripped
[AccurateRip ID: 000eeffc-0080b0d0-7108990b] found.
Track [ CRC | V2 ] Status
01 [93031bfd|1944ad8f] (16+13/67) Accurately ripped
02 [1d80ac33|c10e59c2] (16+14/70) Accurately ripped
03 [a9d65114|af897198] (17+14/69) Accurately ripped
04 [471e33ab|85dc5d4c] (16+13/69) Accurately ripped
05 [7280acd5|d0429535] (16+13/67) Accurately ripped
06 [f3bbca36|25acc286] (17+14/69) Accurately ripped
07 [5310c85b|af639255] (16+13/67) Accurately ripped
08 [b0eb9b04|0c7ee5bb] (16+13/68) Accurately ripped
09 [caac8c82|72380b82] (16+14/70) Accurately ripped
10 [ff911b3a|56da8d60] (16+13/67) Accurately ripped
11 [550744c2|35e71154] (15+14/69) Accurately ripped
Offsetted by -1022:
01 [74ef5bd5] (08/67) Accurately ripped
02 [c4ebf427] (08/70) Accurately ripped
03 [8f0aace4] (08/69) Accurately ripped
04 [40652aad] (08/69) Accurately ripped
05 [847618b9] (08/67) Accurately ripped
06 [07b4b148] (08/69) Accurately ripped
07 [8a0ab81b] (08/67) Accurately ripped
08 [39ee0e22] (08/68) Accurately ripped
09 [6fbe76ea] (08/70) Accurately ripped
10 [8fbbc7c8] (08/67) Accurately ripped
11 [ba98a445] (08/69) Accurately ripped
Offsetted by 2289:
01 [1740e129] (11/67) Accurately ripped
02 [60648e8d] (11/70) Accurately ripped
03 [24f9987c] (11/69) Accurately ripped
04 [f93e621c] (11/69) Accurately ripped
05 [992f29a7] (09/67) Accurately ripped
06 [3ffcc82f] (11/69) Accurately ripped
07 [cba8e23b] (09/67) Accurately ripped
08 [b62a80a3] (10/68) Accurately ripped
09 [6e00ea76] (11/70) Accurately ripped
10 [92973a11] (09/67) Accurately ripped
11 [ba1b5209] (11/69) Accurately ripped
Offsetted by 2773:
01 [3a099b59] (03/67) Accurately ripped
02 [ca77e335] (03/70) Accurately ripped
03 [f88da31c] (03/69) Accurately ripped
04 [e8e3aa00] (03/69) Accurately ripped
05 [c94a372f] (03/67) Accurately ripped
06 [92353f33] (03/69) Accurately ripped
07 [db3485bb] (03/67) Accurately ripped
08 [05900aff] (03/68) Accurately ripped
09 [315d20c6] (03/70) Accurately ripped
10 [e21ad04d] (03/67) Accurately ripped
11 [540956c9] (03/69) Accurately ripped
Offsetted by -97:
01 [7fe02b91] (00/67) No match (V2 was not tested)
02 [68821679] (02/70) Accurately ripped
03 [13011c2c] (00/69) No match (V2 was not tested)
04 [f210a5ca] (00/69) No match
05 [3ad85823] (02/67) Accurately ripped
06 [f7e2314d] (00/69) No match (V2 was not tested)
07 [055f1c7b] (02/67) Accurately ripped
08 [199a6dd5] (02/68) Accurately ripped
09 [78263bce] (02/70) Accurately ripped
10 [887d9c53] (02/67) Accurately ripped
11 [693a0a05] (02/69) Accurately ripped
Offsetted by 2271:
01 [cf157291] (00/67) No match (V2 was not tested)
02 [343fdef9] (00/70) No match (V2 was not tested)
03 [fe6dbe2c] (00/69) No match (V2 was not tested)
04 [ec198f0a] (00/69) No match (V2 was not tested)
05 [69e856a3] (00/67) No match (V2 was not tested)
06 [7d75648d] (00/69) No match (V2 was not tested)
07 [9303f47b] (00/67) No match (V2 was not tested)
08 [18c45895] (00/68) No match (V2 was not tested)
09 [27445cce] (00/70) No match (V2 was not tested)
10 [4cfd2d13] (00/67) No match (V2 was not tested)
11 [ef9f29a9] (00/69) No match (V2 was not tested)
Offsetted by 2280:
01 [f32b29dd] (00/67) No match (V2 was not tested)
02 [4a5236c3] (00/70) No match (V2 was not tested)
03 [11b3ab54] (00/69) No match (V2 was not tested)
04 [72abf893] (00/69) No match
05 [818bc025] (00/67) No match (V2 was not tested)
06 [deb9165e] (00/69) No match (V2 was not tested)
07 [af566b5b] (00/67) No match (V2 was not tested)
08 [e7776c9c] (00/68) No match (V2 was not tested)
09 [caa2a3a2] (00/70) No match (V2 was not tested)
10 [6fca3392] (00/67) No match (V2 was not tested)
11 [d4dd3dd9] (00/69) No match (V2 was not tested)

Track Peak [ CRC32 ] [W/O NULL] [ LOG ]
– 99,9 [10EBFE47] [67B3C47A] CRC32
01 99,2 [A21BF34B] [EE30F29A]
02 99,9 [5ED3A414] [A39AA2BC]
03 99,9 [FA75B6EF] [EA9EF0E3]
04 99,9 [3A3229F3] [DF674AA0]
05 99,9 [1CB85B5B] [2D712A66]
06 99,9 [627C7AD9] [95F95CA6]
07 99,9 [D6CAF0B6] [6A0611C4]
08 99,9 [C84FA275] [8EF4B9F2]
09 99,9 [7875A709] [8F1061C2]
10 99,9 [B1BF14D4] [E43A2B53]
11 99,9 [DF2CEB93] [5EDBB011]

Kenny Chesney - Me And You (1996)

Kenny Chesney - Me And You (1996)

See also:
Kenny Chesney - Be As You Are (Songs From An Old Blue Chair) (2004) {HDCD}
Kenny Chesney - Welcome To The Fishbowl (2012) {HDCD}
Kenny Chesney - The Big Revival (2014) {Limited Edition Zinepak}

All thanks go to sergych

> Visit my blog <