Tags
Language
Tags
June 2024
Su Mo Tu We Th Fr Sa
26 27 28 29 30 31 1
2 3 4 5 6 7 8
9 10 11 12 13 14 15
16 17 18 19 20 21 22
23 24 25 26 27 28 29
30 1 2 3 4 5 6

Kazuhito Yamashita - J.S. Bach: Sonatas and Partitas for Violin Solo (2004)

Posted By: tirexiss
Kazuhito Yamashita - J.S. Bach: Sonatas and Partitas for Violin Solo (2004)

Kazuhito Yamashita - J.S. Bach: Sonatas and Partitas for Violin Solo (2004)
EAC FLAC (image+.cue, log) | Covers Included | 02:24:20 | 667 MB
Genre: Classical | Label: RCA Red Seal | Catalog: 34115-16

Gone are the days when Kazuhito Yamashita amazed and delighted us with his remarkable transcriptions of "Pictures at an exhibition" or Dvorak's "New World" transcription.
53 years later (Yamashita was born in 1961) has reached impeccable artistic maturity. His prodigious musicality and remarkable virtuosity can be evidenced throughout this double album.
At first, takes some time getting used to "raise awareness" from the violin literature; but as long as the performance runs, one can perceive a clean loudness and impeccable phrasing, keeping the intimacy and sidhereal breadth.

Kazuhito Yamashita - J.S. Bach: Sonatas and Partitas for Violin Solo (2004)

Track List:

CD 1:
Sonata No.1 BWV 1001
01. I. Adagio
02. II. Fuga: Allegro
03. III. Siciliana
04. IV. Presto
Partita No.1 BWV 1002
05. I. Allemanda -
06. I. Double
07. II. Corrente -
08. II. Double: Presto
09. III. Sarabande -
10. III. Double
11. IV. Tempo di Borea -
12. IV. Double
Sonata No.2 BWV 1003
13. I. Grave
14. II. Fuga
15. III. Andante
16. IV. Allegro

Exact Audio Copy V1.0 beta 1 from 15. November 2010

EAC extraction logfile from 7. July 2013, 20:58

Johann Sebastian Bach / Sonatas and Partitas for Violin Solo [Yamashita] (CD1)

Used drive : Optiarc DVD RW AD-7203A Adapter: 4 ID: 1

Read mode : Secure
Utilize accurate stream : Yes
Defeat audio cache : Yes
Make use of C2 pointers : No

Read offset correction : 48
Overread into Lead-In and Lead-Out : No
Fill up missing offset samples with silence : Yes
Delete leading and trailing silent blocks : No
Null samples used in CRC calculations : Yes
Used interface : Native Win32 interface for Win NT & 2000

Used output format : User Defined Encoder
Selected bitrate : 128 kBit/s
Quality : High
Add ID3 tag : No
Command line compressor : C:\Program Files\FLAC\flac.exe
Additional command line options : -T "COMMENT=Ripped by GFox" -8 -V %s


TOC of the extracted CD

Track | Start | Length | Start sector | End sector
––––––––––––––––––––––––––––-
1 | 0:00.00 | 4:43.10 | 0 | 21234
2 | 4:43.10 | 5:18.25 | 21235 | 45109
3 | 10:01.35 | 3:44.40 | 45110 | 61949
4 | 13:46.00 | 3:20.00 | 61950 | 76949
5 | 17:06.00 | 6:12.00 | 76950 | 104849
6 | 23:18.00 | 2:49.10 | 104850 | 117534
7 | 26:07.10 | 3:36.52 | 117535 | 133786
8 | 29:43.62 | 3:30.28 | 133787 | 149564
9 | 33:14.15 | 4:10.60 | 149565 | 168374
10 | 37:25.00 | 3:37.15 | 168375 | 184664
11 | 41:02.15 | 3:13.07 | 184665 | 199146
12 | 44:15.22 | 3:13.18 | 199147 | 213639
13 | 47:28.40 | 5:02.40 | 213640 | 236329
14 | 52:31.05 | 7:09.00 | 236330 | 268504
15 | 59:40.05 | 5:56.05 | 268505 | 295209
16 | 65:36.10 | 5:01.05 | 295210 | 317789


Range status and errors

Selected range

Filename D:\EAC\Johann Sebastian Bach - Sonatas and Partitas for Violin Solo [Yamashita] (CD1).wav

Peak level 71.6 %
Extraction speed 0.2 X
Range quality 100.0 %
Test CRC 375CD282
Copy CRC 375CD282
Copy OK

No errors occurred


AccurateRip summary

Track 1 accurately ripped (confidence 4) [C0DF707B]
Track 2 accurately ripped (confidence 4) [6BD8D38C]
Track 3 accurately ripped (confidence 4) [CC6E752C]
Track 4 accurately ripped (confidence 4) [3A724E15]
Track 5 accurately ripped (confidence 4) [D8C92DE2]
Track 6 accurately ripped (confidence 4) [08E791A8]
Track 7 accurately ripped (confidence 4) [6AF83384]
Track 8 accurately ripped (confidence 4) [8FDE6E30]
Track 9 accurately ripped (confidence 4) [D7937D58]
Track 10 accurately ripped (confidence 4) [31AAD953]
Track 11 accurately ripped (confidence 4) [1C7C2DE8]
Track 12 accurately ripped (confidence 4) [79E92163]
Track 13 accurately ripped (confidence 4) [F9744256]
Track 14 accurately ripped (confidence 4) [27225163]
Track 15 accurately ripped (confidence 4) [AC9600F4]
Track 16 accurately ripped (confidence 4) [978B016A]

All tracks accurately ripped

End of status report

==== Log checksum 99A0CEA18DB5DD9EEA16CCD0CE345A6F5EBB2EF8E0DB83C12747C32B905207B3 ====

CD 2:
Partita No.2 BWV 1004
01. I. Allemanda
02. II. Corrente
03. III. Sarabanda
04. IV. Giga
05. V. Ciaccona
Sonata No.3 BWV 1005
06. I. Adagio
07. II. Fuga: Allebreve
08. III. Largo
09. IV. Allegro assai
Partita No.3 BWV 1006
10. I. Preludio
11. II. Loure
12. III. Gavotte en Rondeau
13. IV. Menuet I -
14. IV. Menuet II
15. V. Bouree
16. VI. Gigue

Exact Audio Copy V1.0 beta 1 from 15. November 2010

EAC extraction logfile from 7. July 2013, 21:57

Johann Sebastian Bach / Sonatas and Partitas for Violin Solo [Yamashita] (CD2)

Used drive : Optiarc DVD RW AD-7203A Adapter: 4 ID: 1

Read mode : Secure
Utilize accurate stream : Yes
Defeat audio cache : Yes
Make use of C2 pointers : No

Read offset correction : 48
Overread into Lead-In and Lead-Out : No
Fill up missing offset samples with silence : Yes
Delete leading and trailing silent blocks : No
Null samples used in CRC calculations : Yes
Used interface : Native Win32 interface for Win NT & 2000

Used output format : User Defined Encoder
Selected bitrate : 128 kBit/s
Quality : High
Add ID3 tag : No
Command line compressor : C:\Program Files\FLAC\flac.exe
Additional command line options : -T "COMMENT=Ripped by GFox" -8 -V %s


TOC of the extracted CD

Track | Start | Length | Start sector | End sector
––––––––––––––––––––––––––––-
1 | 0:00.00 | 5:14.52 | 0 | 23601
2 | 5:14.52 | 2:40.73 | 23602 | 35674
3 | 7:55.50 | 4:45.20 | 35675 | 57069
4 | 12:40.70 | 3:36.05 | 57070 | 73274
5 | 16:17.00 | 14:41.72 | 73275 | 139421
6 | 30:58.72 | 4:44.43 | 139422 | 160764
7 | 35:43.40 | 9:13.60 | 160765 | 202299
8 | 44:57.25 | 4:29.05 | 202300 | 222479
9 | 49:26.30 | 4:19.52 | 222480 | 241956
10 | 53:46.07 | 3:27.25 | 241957 | 257506
11 | 57:13.32 | 5:44.70 | 257507 | 283376
12 | 62:58.27 | 3:03.08 | 283377 | 297109
13 | 66:01.35 | 1:43.62 | 297110 | 304896
14 | 67:45.22 | 2:40.60 | 304897 | 316956
15 | 70:26.07 | 1:31.08 | 316957 | 323789
16 | 71:57.15 | 1:45.57 | 323790 | 331721


Range status and errors

Selected range

Filename D:\EAC\Johann Sebastian Bach - Sonatas and Partitas for Violin Solo [Yamashita] (CD2).wav

Peak level 93.3 %
Extraction speed 0.0 X
Range quality 100.0 %
Test CRC F8EB9E9C
Copy CRC F8EB9E9C
Copy OK

No errors occurred


AccurateRip summary

Track 1 accurately ripped (confidence 4) [C1102A3B]
Track 2 accurately ripped (confidence 4) [425CCA89]
Track 3 accurately ripped (confidence 4) [0885E07F]
Track 4 accurately ripped (confidence 3) [5F664EC5]
Track 5 accurately ripped (confidence 3) [92F60724]
Track 6 accurately ripped (confidence 3) [300AC0FA]
Track 7 accurately ripped (confidence 3) [20FFD6C8]
Track 8 accurately ripped (confidence 3) [F83D4575]
Track 9 accurately ripped (confidence 3) [DD19B62B]
Track 10 accurately ripped (confidence 2) [A5FD0DBB]
Track 11 accurately ripped (confidence 3) [B9EA0152]
Track 12 accurately ripped (confidence 3) [0F65DB48]
Track 13 accurately ripped (confidence 3) [463A863E]
Track 14 accurately ripped (confidence 4) [7CAE78DD]
Track 15 accurately ripped (confidence 4) [414F5F6B]
Track 16 accurately ripped (confidence 4) [BC6F29FF]

All tracks accurately ripped

End of status report

==== Log checksum EC3E3562AE05EBA14734E42F25658BE01F04DF098A228DC58FD4CEADF0758F45 ====

Performers:
Kazuhito Yamashita, guitar

Thanks to the Original ripper GFox!

Download: