Tags
Language
Tags

June Tabor and the Oyster Band - Freedom and Rain (1990)

Posted By: Designol
June Tabor and the Oyster Band - Freedom and Rain (1990)

June Tabor and the Oyster Band - Freedom and Rain (1990)
EAC | FLAC | Image (Cue&Log) ~ 277 Mb | Mp3 (CBR320) ~ 118 Mb | Scans included
British Folk-Rock, British Folk | Label: Cooking Vinyl | # COOKCD 031 | 00:39:02

Tabor teams up with one of Britain's leading folk-rock outfits, the Oyster Band, with fairly successful results, although it won't be the favorite of June's most traditionally-minded fans. She takes all the lead vocals on these fully electrified arrangements. The material is certainly varied, including both traditional numbers and covers of contemporary folk and rock tunes by Richard Thompson, Si Kahn, the Pogues, Billy Bragg, and the Velvet Underground.

Review by Richie Unterberger, Allmusic.com

June Tabor at Allmusic
June Tabor Wiki

Oysterband at Allmusic
Oysterband Wiki

Tracklist:

01. Mississippi Summer (3:20)
02. Lullaby Of London (2:44)
03. Night Comes In (4:54)
04. Valentine's Day Is Over (3:26)
05. All Tomorrow's Parties (3:51)
06. Dives And Lazarus (4:20)
07. Dark Eyed Sailor (4:15)
08. Pain Or Paradise (3:13)
09. Susie Clelland (5:15)
10. Finisterre (3:44)


Exact Audio Copy V1.0 beta 3 from 29. August 2011

EAC extraction logfile from 20. October 2013, 1:30

Tabor, June & The Oyster Band / Freedom And Rain

Used drive : PLEXTOR DVDR PX-612U Adapter: 2 ID: 0

Read mode : Secure
Utilize accurate stream : Yes
Defeat audio cache : Yes
Make use of C2 pointers : No

Read offset correction : 6
Overread into Lead-In and Lead-Out : No
Fill up missing offset samples with silence : Yes
Delete leading and trailing silent blocks : No
Null samples used in CRC calculations : Yes
Used interface : Native Win32 interface for Win NT & 2000

Used output format : User Defined Encoder
Selected bitrate : 128 kBit/s
Quality : High
Add ID3 tag : No
Command line compressor : C:\Program Files (x86)\Exact Audio Copy\Flac\flac.exe
Additional command line options : -V -8 -T "Date=%year%" -T "Genre=%genre%" %source%


TOC of the extracted CD

Track | Start | Length | Start sector | End sector
––––––––––––––––––––––––––––-
1 | 0:00.00 | 3:19.50 | 0 | 14974
2 | 3:19.50 | 2:44.15 | 14975 | 27289
3 | 6:03.65 | 4:54.00 | 27290 | 49339
4 | 10:57.65 | 3:26.00 | 49340 | 64789
5 | 14:23.65 | 3:51.12 | 64790 | 82126
6 | 18:15.02 | 4:19.55 | 82127 | 101606
7 | 22:34.57 | 4:15.10 | 101607 | 120741
8 | 26:49.67 | 3:13.05 | 120742 | 135221
9 | 30:02.72 | 5:14.65 | 135222 | 158836
10 | 35:17.62 | 3:43.70 | 158837 | 175631


Range status and errors

Selected range

Filename D:\123\Tabor, June & The Oyster Band - Freedom And Rain.wav

Peak level 95.6 %
Extraction speed 4.0 X
Range quality 100.0 %
Test CRC 65B3775B
Copy CRC 65B3775B
Copy OK

No errors occurred


AccurateRip summary

Track 1 accurately ripped (confidence 7) [15F0BEE7] (AR v2)
Track 2 accurately ripped (confidence 7) [D6F23018] (AR v2)
Track 3 accurately ripped (confidence 7) [D964F3C0] (AR v2)
Track 4 accurately ripped (confidence 7) [5B590B18] (AR v2)
Track 5 accurately ripped (confidence 7) [B441619D] (AR v2)
Track 6 accurately ripped (confidence 7) [C86BDB4A] (AR v2)
Track 7 accurately ripped (confidence 7) [51850711] (AR v2)
Track 8 accurately ripped (confidence 7) [5C4DC4FB] (AR v2)
Track 9 accurately ripped (confidence 6) [8228CA44] (AR v2)
Track 10 accurately ripped (confidence 6) [90E344D6] (AR v2)

All tracks accurately ripped

End of status report

==== Log checksum 56012E1B11CE6EE2F89784427EFF5D3019B0164EEF2F5829F4EE50142F9F04B4 ====

foobar2000 1.2 / Dynamic Range Meter 1.1.1
log date: 2018-03-12 18:38:33

––––––––––––––––––––––––––––––––––––––––
Analyzed: Tabor, June & The Oyster Band / Freedom And Rain
––––––––––––––––––––––––––––––––––––––––

DR Peak RMS Duration Track
––––––––––––––––––––––––––––––––––––––––
DR14 -0.71 dB -16.55 dB 3:20 01-Mississippi Summer
DR13 -0.64 dB -15.72 dB 2:44 02-Lullaby Of London
DR11 -2.81 dB -15.37 dB 4:54 03-Night Comes In
DR13 -0.90 dB -16.12 dB 3:26 04-Valentine's Day Is Over
DR13 -0.39 dB -14.88 dB 3:51 05-All Tomorrow's Parties
DR12 -1.63 dB -15.37 dB 4:20 06-Dives And Lazarus
DR13 -1.03 dB -15.00 dB 4:15 07-Dark Eyed Sailor
DR13 -1.36 dB -16.07 dB 3:13 08-Pain Or Paradise
DR12 -1.27 dB -15.23 dB 5:15 09-Susie Clelland
DR11 -1.49 dB -16.01 dB 3:44 10-Finisterre
––––––––––––––––––––––––––––––––––––––––

Number of tracks: 10
Official DR value: DR13

Samplerate: 44100 Hz
Channels: 2
Bits per sample: 16
Bitrate: 891 kbps
Codec: FLAC
================================================================================

June Tabor and the Oyster Band - Freedom and Rain (1990)

June Tabor and the Oyster Band - Freedom and Rain (1990)

All thanks to original releaser - gorrom

More interesting music in My Blog