Subcategories

Jon And Vangelis - Page Of Life (1991) REPOST

Posted By: uff
Jon And Vangelis - Page Of Life (1991) REPOST

Jon And Vangelis - Page Of Life (1991)
Rock | 1cd | EAC Rip | Ape + Cue + Log | covers
Arista 261 373 | rel: 1991 | 310Mb

Vocalist Jon Anderson and master synthesist/composer Vangelis draw upon their legendary individual histories and more than two decades of classic collaborations to create this very spiritual and musical synergy, which combines elements of rock, classical, symphonic, jazz, soul, electronic new age, and worldbeat. Best known, respectively, as the lead singer of Yes and the Oscar-winning composer of "Chariots of Fire," the duo has released several extraordinary tandem recordings over the years, beginning with the 1976 album Olias of Sunhillow. This is the sixth of the series, and was originally released in 1991, though until Omtown's release, it was only available as an import. Page of Life offers clever social commentary and messages for world harmony in musical landscapes that allow amazing showcases for both Anderson's angelic vocals and Vangelis' multifaceted synth textures. Ballads like the hypnotic "Garden of Senses," the whimsical and elegant "Is It Love," and sweeping piano/vocal duet "Anyone Can Light a Candle" find Anderson at his most passionate and romantic. The one previously unreleased track is "Change We Must," a march-like number that functions as a statement of purpose. ~Allmusic

Track listing
01. Wisdom Chain (5:22)
02. Page Of Life (3:16)
03. Money (6:07)
04. Jazzy Box (3:15)
05. Garden Of Senses (6:24)
06. Is It Love (4:28)
07. Anyone Can Light A Candle (3:47)
08. Be A Good Friend Of Mine (4:13)
09. Shine For Me (4:10)
10. Genevieve (3:48)
11. Journey To Ixtlan (5:51)
12. Little Guitar (1:44)
~ (52:24)


Exact Audio Copy V0.99 prebeta 1 from 25. May 2007

EAC extraction logfile from 10. July 2007, 11:44

Jon & Vangelis / Page Of Life

Used drive : PLEXTOR CD-R PX-W5224A Adapter: 1 ID: 1

Read mode : Secure
Utilize accurate stream : Yes
Defeat audio cache : Yes
Make use of C2 pointers : No

Read offset correction : 30
Overread into Lead-In and Lead-Out : Yes
Fill up missing offset samples with silence : Yes
Delete leading and trailing silent blocks : No
Used interface : Installed external ASPI interface

Used output format : Internal WAV Routines
Sample format : 44.100 Hz; 16 Bit; Stereo


TOC of the extracted CD

Track | Start | Length | Start sector | End sector
––––––––––––––––––––––––––––-
1 | 0:00.00 | 5:21.50 | 0 | 24124
2 | 5:21.50 | 3:16.02 | 24125 | 38826
3 | 8:37.52 | 6:07.08 | 38827 | 66359
4 | 14:44.60 | 3:14.57 | 66360 | 80966
5 | 17:59.42 | 6:23.43 | 80967 | 109734
6 | 24:23.10 | 4:27.40 | 109735 | 129799
7 | 28:50.50 | 3:46.60 | 129800 | 146809
8 | 32:37.35 | 4:13.37 | 146810 | 165821
9 | 36:50.72 | 4:10.35 | 165822 | 184606
10 | 41:01.32 | 3:48.18 | 184607 | 201724
11 | 44:49.50 | 5:50.47 | 201725 | 228021
12 | 50:40.22 | 1:43.40 | 228022 | 235786


Range status and errors

Selected range

Filename C:\DAE\Jon & Vangelis - Page Of Life\Page Of Life.wav

Peak level 100.0 %
Range quality 100.0 %
Test CRC 180C81CA
Copy CRC 180C81CA
Copy OK

No errors occurred

End of status report



[CUETools log; Date: 2016.01.19. 13:31:14; Version: 2.1.5]
[AccurateRip ID: 00189b2b-00e3e58b-9f0c470c] found.
Track [ CRC | V2 ] Status
01 [b2a03450|e6dfb66e] (037+071/110) Accurately ripped
02 [4391fbd6|c9deddc1] (038+071/111) Accurately ripped
03 [69f72328|e8c598b9] (037+071/108) Accurately ripped
04 [09923cbb|00e3572a] (038+072/112) Accurately ripped
05 [e5b7f0b8|e30efc7c] (038+072/112) Accurately ripped
06 [5d686b82|5dde2947] (038+072/112) Accurately ripped
07 [69ad952d|4a1bd339] (038+072/112) Accurately ripped
08 [f9c01e9f|65c80d34] (037+072/109) Accurately ripped
09 [dd80111f|69d97154] (038+071/111) Accurately ripped
10 [fbb997ac|6554cf9d] (038+072/112) Accurately ripped
11 [5dadc7ac|66bdbaef] (038+072/112) Accurately ripped
12 [174b88ff|e9eaa6ba] (038+071/111) Accurately ripped
Offsetted by 348:
01 [0a086e59] (000/110) No match (V2 was not tested)
02 [444e5226] (000/111) No match (V2 was not tested)
03 [fb9b4dc5] (000/108) No match (V2 was not tested)
04 [85e29de7] (000/112) No match (V2 was not tested)
05 [66888a7b] (000/112) No match (V2 was not tested)
06 [71c358f1] (000/112) No match (V2 was not tested)
07 [6a63ce0d] (000/112) No match (V2 was not tested)
08 [146faa76] (000/109) No match (V2 was not tested)
09 [f460bc08] (000/111) No match (V2 was not tested)
10 [f6edaec3] (000/112) No match (V2 was not tested)
11 [070ed161] (000/112) No match (V2 was not tested)
12 [ca7e3abb] (000/111) No match (V2 was not tested)

Track Peak [ CRC32 ] [W/O NULL]
– 100,0 [180C81CA] [E922C36F]
01 100,0 [1B3FCEDF] [05773861]
02 65,2 [B76284D2] [936B264A]
03 81,2 [58B2405A] [35832B81]
04 72,6 [A241182A] [8BA8BC34]
05 78,6 [0916FA88] [ACABF7CC]
06 87,6 [191D78EC] [9C46DCB8]
07 66,9 [B8847B9F] [35484D83]
08 100,0 [A25A2A0F] [0FAC856D]
09 85,6 [601E9DD0] [4A3D8FA6]
10 77,9 [F3FC47C7] [7D9ECD5A]
11 97,3 [DBA9C76B] [9E895DD5]
12 17,3 [C0DCA646] [5A04E040]


original uploader unknown, found in my archive
Datafile
Yunfile

password: asd