Tags
Language
Tags
September 2022
Su Mo Tu We Th Fr Sa
28 29 30 31 1 2 3
4 5 6 7 8 9 10
11 12 13 14 15 16 17
18 19 20 21 22 23 24
25 26 27 28 29 30 1

John Abercrombie - Works (1988)

Posted By: gribovar
John Abercrombie - Works (1988)

John Abercrombie - Works (1988)
EAC Rip | WavPack (image+.cue+log) - 224 MB | MP3 CBR 320 kbps (LAME 3.93) - 105 MB | Covers - 59 MB
Genre: Jazz, Post-Bop, Fusion | RAR 3% Rec. | Label: ECM Records (837 275-2)

A good 1988 compilation of past Abercrombie selections on various ECM releases, spotlighting his versatility and proficiency. Songs featuring his fluid guitar in introspective, mainstream, and free contexts, as well as playing everything from New Age-tinged originals to covers of standards, are presented.
Tracklist:
01. Red And Orange
02. Night
03. Ralph's Piano Waltz
04. Backward Glance
05. Nightlake
06. Dream Stalker
07. Isla
08. Sing Song

Total time: 44:44

Exact Audio Copy V1.0 beta 3 from 29. August 2011

EAC extraction logfile from 2. January 2013, 18:17

John Abercrombie / Works

Used drive : HL-DT-STBDDVDRW GBC-H20N Adapter: 1 ID: 0

Read mode : Secure
Utilize accurate stream : Yes
Defeat audio cache : Yes
Make use of C2 pointers : No

Read offset correction : 667
Overread into Lead-In and Lead-Out : No
Fill up missing offset samples with silence : Yes
Delete leading and trailing silent blocks : No
Null samples used in CRC calculations : Yes
Used interface : Native Win32 interface for Win NT & 2000

Used output format : User Defined Encoder
Selected bitrate : 1024 kBit/s
Quality : High
Add ID3 tag : No
Command line compressor : C:\Program Files\Exact Audio Copy\wavpack.exe
Additional command line options : -hm %source% %dest%


TOC of the extracted CD

Track | Start | Length | Start sector | End sector
––––––––––––––––––––––––––––-
1 | 0:00.33 | 5:25.47 | 33 | 24454
2 | 5:26.05 | 4:58.50 | 24455 | 46854
3 | 10:24.55 | 4:56.30 | 46855 | 69084
4 | 15:21.10 | 4:33.43 | 69085 | 89602
5 | 19:54.53 | 5:33.30 | 89603 | 114607
6 | 25:28.08 | 5:56.17 | 114608 | 141324
7 | 31:24.25 | 6:25.20 | 141325 | 170219
8 | 37:49.45 | 6:54.15 | 170220 | 201284


Range status and errors

Selected range

Filename C:\Users\ProgDog\Music\ZALIVKI\Abercrombie\Works\John Abercrombie - Works.wav

Peak level 92.9 %
Extraction speed 5.8 X
Range quality 100.0 %
Test CRC 970B785C
Copy CRC 970B785C
Copy OK

No errors occurred


AccurateRip summary

Track 1 accurately ripped (confidence 4) [3C46BB11] (AR v1)
Track 2 accurately ripped (confidence 4) [E5A21F23] (AR v1)
Track 3 accurately ripped (confidence 4) [727E5557] (AR v1)
Track 4 accurately ripped (confidence 4) [66713E81] (AR v1)
Track 5 accurately ripped (confidence 4) [170033B7] (AR v1)
Track 6 accurately ripped (confidence 4) [00008F77] (AR v1)
Track 7 accurately ripped (confidence 4) [4513A621] (AR v1)
Track 8 accurately ripped (confidence 4) [B1EF2A45] (AR v1)

All tracks accurately ripped

End of status report

–– CUETools DB Plugin V2.1.3

[CTDB TOCID: vmBApa62NjkBuyn.8Sf7Yhc0qbs-] disk not present in database, Submit result: discs with pregaps not supported in this protocol version


==== Log checksum 76171F26E8CC9431B7C395538601A82B8D2785059842D5E7C3A41FC36F33A6D6 ====

[CUETools log; Date: 16.08.2022 17:50:51; Version: 2.1.4]
Pregap length 00:00:33.
[CTDB TOCID: vmBApa62NjkBuyn.8Sf7Yhc0qbs-] found.
Track | CTDB Status
1 | (25/26) Accurately ripped
2 | (25/26) Accurately ripped
3 | (25/26) Accurately ripped
4 | (25/26) Accurately ripped
5 | (26/26) Accurately ripped
6 | (24/26) Accurately ripped
7 | (25/26) Accurately ripped
8 | (26/26) Accurately ripped
[AccurateRip ID: 000d157d-0057f40f-680a7b08] found.
Track [ CRC | V2 ] Status
01 [3c46bb11|f1dc03ef] (04+14/24) Accurately ripped
02 [e5a21f23|df890471] (04+14/24) Accurately ripped
03 [727e5557|2a9598f0] (04+14/24) Accurately ripped
04 [66713e81|cc4ec470] (04+14/23) Accurately ripped
05 [170033b7|9468444e] (04+14/24) Accurately ripped
06 [00008f77|8a2b151b] (04+14/23) Accurately ripped
07 [4513a621|688d9c96] (04+14/23) Accurately ripped
08 [b1ef2a45|a3a2776f] (04+14/23) Accurately ripped
Offsetted by 1702:
01 [9518ab81] (06/24) Accurately ripped
02 [841de317] (06/24) Accurately ripped
03 [cbd6a54f] (06/24) Accurately ripped
04 [3bf6de1d] (05/23) Accurately ripped
05 [3e4d9153] (06/24) Accurately ripped
06 [6049a037] (05/23) Accurately ripped
07 [7298e47d] (05/23) Accurately ripped
08 [30ff2a0d] (05/23) Accurately ripped

Track Peak [ CRC32 ] [W/O NULL] [ LOG ]
– 92,9 [970B785C] [C30FB76F] CRC32
01 69,8 [33AB57E7] [490D730D]
02 73,0 [9C45C5BD] [5C9DABF3]
03 76,2 [EDBDCFE3] [62CF783D]
04 92,9 [73747FF1] [71292E47]
05 76,9 [A4FD9C0D] [EE62B13F]
06 87,6 [5D7A9CE4] [06C9D5AF]
07 77,8 [D41768DA] [467D964D]
08 87,4 [78A38509] [47F0133C]

Thanks to arizonadream

See also:
John Abercrombie, Andy LaVerne...Farewell (1993) [Reissue 2005]