Tags
Language
Tags
June 2024
Su Mo Tu We Th Fr Sa
26 27 28 29 30 31 1
2 3 4 5 6 7 8
9 10 11 12 13 14 15
16 17 18 19 20 21 22
23 24 25 26 27 28 29
30 1 2 3 4 5 6

Jethro Tull - War Child (1974) [MFSL, 1999]

Posted By: gribovar
Jethro Tull - War Child (1974) [MFSL, 1999]

Jethro Tull - War Child (1974) [MFSL, 1999]
EAC Rip | WavPack (image+.cue+log) - 228 MB | MP3 CBR 320 kbps (LAME 3.93) - 93 MB | Covers - 75 MB
Genre: Progressive Rock | RAR 3% Rec. | Label: Mobile Fidelity Sound Lab (UDCD 745)

War Child was Jethro Tull's first album after two chart-toppers, Thick as a Brick and A Passion Play, and was one of those records that was a hit the day it was announced (it was certified platinum based on pre-orders, the last Tull album to earn platinum record status). It never made the impression of its predecessors, however, as it was a return to standard-length songs following two epic-length pieces. It was inevitable that the material would lack power, if only because the opportunity for development that gave Thick as a Brick and A Passion Play some of their power. Additionally, the music was no longer quite able to cover for the obscurity of Tull's lyrics ("Two Fingers" being the best example). The title track is reasonably successful, but "Queen and Country" seems repetitive and pointless. "Ladies," by contrast, is one of Tull's folk-based pieces, and one of the prettiest songs on the record, beautifully sung and benefiting from some of Anderson's best flute playing to date. The band is very tight but doesn't really get to show its stuff until "Back-Door Angels," after which the album picks up. "Sealion" is one of Anderson's pseudo-philosophical musings on life, mixing full-out electric playing and restrained orchestral backing in a manner that recalls Thick as a Brick. "Skating Away on the Thin Ice of a New Day" is a beautiful, largely acoustic number that was popular in concert, but "Bungle in the Jungle," with a title that went over well, got most of the radio play. "The Third Hoorah" is really a follow-up to "War Child," and opens with one of the prettiest progressions on a folk tune in Tull's repertory, with some lovely harpsichord from John Evan evolving into a powerful rock number with a surprising orchestral break and what has to be the most successful appearance of bagpipes in a mainstream rock song.

Tracklist:
01. WarChild
02. Queen and Country
03. Ladies
04. Back-Door Angels
05. SeaLion
06. Skating Away on the Thin Ice of the New Day
07. Bungle in the Jungle
08. Only Solitaire
09. The Third Hoorah
10. Two Fingers

Total time: 39:28

Exact Audio Copy V0.99 prebeta 5 from 4. May 2009

EAC extraction logfile from 1. May 2012, 11:11

Jethro Tull / War Child

Used drive : ASUS DRW-24B3ST Adapter: 0 ID: 1

Read mode : Secure
Utilize accurate stream : Yes
Defeat audio cache : Yes
Make use of C2 pointers : No

Read offset correction : 6
Overread into Lead-In and Lead-Out : No
Fill up missing offset samples with silence : Yes
Delete leading and trailing silent blocks : No
Null samples used in CRC calculations : Yes
Used interface : Native Win32 interface for Win NT & 2000

Used output format : Internal WAV Routines
Sample format : 44.100 Hz; 16 Bit; Stereo


TOC of the extracted CD

Track | Start | Length | Start sector | End sector
––––––––––––––––––––––––––––-
1 | 0:00.00 | 4:37.32 | 0 | 20806
2 | 4:37.32 | 3:02.15 | 20807 | 34471
3 | 7:39.47 | 3:19.10 | 34472 | 49406
4 | 10:58.57 | 5:29.43 | 49407 | 74124
5 | 16:28.25 | 3:39.30 | 74125 | 90579
6 | 20:07.55 | 4:11.70 | 90580 | 109474
7 | 24:19.50 | 3:37.57 | 109475 | 125806
8 | 27:57.32 | 1:30.25 | 125807 | 132581
9 | 29:27.57 | 4:49.53 | 132582 | 154309
10 | 34:17.35 | 5:10.47 | 154310 | 177606


Range status and errors

Selected range

Filename G:\{MFSL}\JETHRO TULL © 1974- War Child (US 1999 MFSL • UDCD 745)\Jethro Tull - War Child.wav

Peak level 100.0 %
Range quality 100.0 %
Test CRC EF77254A
Copy CRC EF77254A
Copy OK

No errors occurred


AccurateRip summary

Track 1 accurately ripped (confidence 11) [73083BA7]
Track 2 accurately ripped (confidence 11) [317575D1]
Track 3 accurately ripped (confidence 11) [9E15EB7C]
Track 4 accurately ripped (confidence 11) [9D0EB436]
Track 5 accurately ripped (confidence 11) [16D8DE10]
Track 6 accurately ripped (confidence 11) [28BDEA21]
Track 7 accurately ripped (confidence 10) [169F1BA0]
Track 8 accurately ripped (confidence 11) [09E611C7]
Track 9 accurately ripped (confidence 11) [221D2F47]
Track 10 accurately ripped (confidence 11) [0318BAAD]

All tracks accurately ripped

End of status report

[CUETools log; Date: 08.11.2022 21:48:31; Version: 2.1.4]
[CTDB TOCID: KOPyXQrlVcDeYZk324pgvuzz_3g-] found.
Track | CTDB Status
1 | (50/52) Accurately ripped
2 | (51/52) Accurately ripped
3 | (51/52) Accurately ripped
4 | (51/52) Accurately ripped
5 | (51/52) Accurately ripped
6 | (51/52) Accurately ripped
7 | (51/52) Accurately ripped
8 | (51/52) Accurately ripped
9 | (51/52) Accurately ripped
10 | (51/52) Accurately ripped
[AccurateRip ID: 000ec9d4-0075ca88-9309400a] found.
Track [ CRC | V2 ] Status
01 [73083ba7|bf9e1567] (12+39/57) Accurately ripped
02 [317575d1|2616c3bf] (12+38/56) Accurately ripped
03 [9e15eb7c|71bc915d] (12+38/57) Accurately ripped
04 [9d0eb436|0f22a762] (12+38/57) Accurately ripped
05 [16d8de10|a91baacd] (12+38/57) Accurately ripped
06 [28bdea21|537ff2d3] (12+38/59) Accurately ripped
07 [169f1ba0|d66abc84] (11+38/55) Accurately ripped
08 [09e611c7|f5d001ee] (12+38/56) Accurately ripped
09 [221d2f47|22d49287] (12+38/56) Accurately ripped
10 [0318baad|8d804e5e] (12+37/55) Accurately ripped
Offsetted by -30:
01 [339ae555] (02/57) Accurately ripped
02 [0406aaf7] (02/56) Accurately ripped
03 [a9d4e56e] (02/57) Accurately ripped
04 [1f94c8a7] (02/57) Accurately ripped
05 [301cf4a3] (02/57) Accurately ripped
06 [e5e3fc2b] (02/59) Accurately ripped
07 [afdc3210] (02/55) Accurately ripped
08 [45f7eab7] (02/56) Accurately ripped
09 [9a9f0b8d] (02/56) Accurately ripped
10 [1beea077] (02/55) Accurately ripped
Offsetted by -18:
01 [4cf9d4a9] (02/57) Accurately ripped
02 [1632fc1b] (02/56) Accurately ripped
03 [71eee7da] (02/57) Accurately ripped
04 [2467511b] (02/57) Accurately ripped
05 [a97905ff] (02/57) Accurately ripped
06 [9a3b2827] (02/59) Accurately ripped
07 [a5c3c2b0] (02/55) Accurately ripped
08 [6123fa57] (02/56) Accurately ripped
09 [0404b371] (02/56) Accurately ripped
10 [4532aaf3] (02/55) Accurately ripped
Offsetted by 6:
01 [7fb7b351] (00/57) No match (V2 was not tested)
02 [3a8b9e63] (00/56) No match (V2 was not tested)
03 [0222ecb2] (00/57) No match (V2 was not tested)
04 [43cf4f92] (00/57) No match (V2 was not tested)
05 [f30a8c78] (00/57) No match (V2 was not tested)
06 [02e9801f] (00/59) No match (V2 was not tested)
07 [9192e3f0] (00/55) No match (V2 was not tested)
08 [977c1997] (00/56) No match
09 [d6d00339] (00/56) No match
10 [97babfeb] (00/55) No match

Track Peak [ CRC32 ] [W/O NULL] [ LOG ]
– 100,0 [EF77254A] [9E713427] CRC32
01 100,0 [E74E3B99] [C3A26F5A]
02 100,0 [57C02BF7] [A6A01261]
03 97,7 [C07A1F8B] [B90B1DCF]
04 100,0 [93B7B209] [7694FD59]
05 100,0 [90C14BC0] [FA4CC7B5]
06 73,8 [C93FCAD8] [2908BFFD]
07 100,0 [521DCE21] [2393A524]
08 53,2 [D6B7D5A3] [6C203291]
09 85,6 [F994007B] [32CF62CE]
10 95,4 [B14BFFC2] [92DB9120]

Thanks to the original releaser