Jeremiah Cymerman - Fire Sign (2011) {Tzadik}

Posted By: TestTickles
Jeremiah Cymerman - Fire Sign (2011) {Tzadik}

Jeremiah Cymerman - Fire Sign (2011) {Tzadik}
EAC Rip | FLAC with CUE and log | scans | 297 mb
MP3 CBR 320kbps | RAR | 123 mb
Genre: jazz, experimental jazz, avant-garde jazz

Fire Sign is the 2011 album by clarinetist Jeremiah Cymerman. This was released by Tzadik as part of the label's
Composer Series and is one of two albums Cymerman made for the label.

Jeremiah Cymerman - Fire Sign (2011) {Tzadik}

1. Opening (0:59)
2. Collapsed Eustachian (8:44)
3. I Woke Up Early The Day That I Died (10:00)
4. Touched With Fire (16:53)
5. Burned Across The Sky (16:34)

Jeremiah Cymerman-clarinet, electronics

Peter Evans-trumpet
Nate Wooley-trumpet
Tom Blancarte-contrabass, bass
Christopher Hoffman-cello
Brian Chase-drums
Harris Eisenstadt-percussion
Sam Kulik-trombone


Produced by Jeremiah Cymerman
Recorded & mixed 2009-2011 by Jeremiah Cymerman, Marc Urselli, Tomek Miernowski, Jim Staley & Christopher Hoffman
Executive Producer-John Zorn
Associate Producer-Kazunori Sugiyama


Exact Audio Copy V1.1 from 23. June 2015

EAC extraction logfile from 6. February 2017, 12:02

Jeremiah Cymerman / Fire Sign

Used drive : TEAC DVD-ROM DV-28SW Adapter: 1 ID: 0

Read mode : Secure
Utilize accurate stream : Yes
Defeat audio cache : Yes
Make use of C2 pointers : No

Read offset correction : 6
Overread into Lead-In and Lead-Out : No
Fill up missing offset samples with silence : Yes
Delete leading and trailing silent blocks : No
Null samples used in CRC calculations : Yes
Used interface : Native Win32 interface for Win NT & 2000
Gap handling : Appended to previous track

Used output format : Internal WAV Routines
Sample format : 44.100 Hz; 16 Bit; Stereo


TOC of the extracted CD

Track | Start | Length | Start sector | End sector
––––––––––––––––––––––––––––-
1 | 0:00.00 | 0:59.29 | 0 | 4453
2 | 0:59.29 | 8:47.20 | 4454 | 43998
3 | 9:46.49 | 10:01.71 | 43999 | 89144
4 | 19:48.45 | 16:45.01 | 89145 | 164520
5 | 36:33.46 | 16:40.29 | 164521 | 239549


Track 1

Filename C:\My Documents\My FLAC\Jeremiah Cymerman - Fire Sign (2011) [FLAC] {Tzadik}\01 - Opening.wav

Pre-gap length 0:00:02.00

Peak level 45.8 %
Extraction speed 1.9 X
Track quality 100.0 %
Test CRC D9C7802B
Copy CRC D9C7802B
Accurately ripped (confidence 2) [73EEA650] (AR v1)
Copy OK

Track 2

Filename C:\My Documents\My FLAC\Jeremiah Cymerman - Fire Sign (2011) [FLAC] {Tzadik}\02 - Collapsed Eustachian.wav

Peak level 96.6 %
Extraction speed 3.3 X
Track quality 100.0 %
Test CRC 8E61A8C8
Copy CRC 8E61A8C8
Accurately ripped (confidence 2) [EBF0CFF2] (AR v1)
Copy OK

Track 3

Filename C:\My Documents\My FLAC\Jeremiah Cymerman - Fire Sign (2011) [FLAC] {Tzadik}\03 - I Woke Up Early The Day That I Died.wav

Peak level 96.6 %
Extraction speed 3.9 X
Track quality 100.0 %
Test CRC A4E0824A
Copy CRC A4E0824A
Accurately ripped (confidence 2) [1FC38AF9] (AR v1)
Copy OK

Track 4

Filename C:\My Documents\My FLAC\Jeremiah Cymerman - Fire Sign (2011) [FLAC] {Tzadik}\04 - Touched With Fire.wav

Peak level 96.6 %
Extraction speed 4.1 X
Track quality 100.0 %
Test CRC 9C6C3632
Copy CRC 9C6C3632
Accurately ripped (confidence 2) [CBF4EC91] (AR v1)
Copy OK

Track 5

Filename C:\My Documents\My FLAC\Jeremiah Cymerman - Fire Sign (2011) [FLAC] {Tzadik}\05 - Burned Across The Sky.wav

Peak level 96.6 %
Extraction speed 5.0 X
Track quality 100.0 %
Test CRC CAA26D32
Copy CRC CAA26D32
Accurately ripped (confidence 2) [F707D581] (AR v1)
Copy OK


All tracks accurately ripped

No errors occurred

End of status report

–– CUETools DB Plugin V2.1.6

[CTDB TOCID: I7Yqf6f1R5qN3uRYRDKHYbRPhjA-] found
Submit result: I7Yqf6f1R5qN3uRYRDKHYbRPhjA- has been confirmed
Track | CTDB Status
1 | (1/1) Accurately ripped
2 | (1/1) Accurately ripped
3 | (1/1) Accurately ripped
4 | (1/1) Accurately ripped
5 | (1/1) Accurately ripped


==== Log checksum 3B0B60C9B75F2B38DC617C2452A788EA14358786F974BFB0FDF402EA20349AFD ====


Jeremiah Cymerman - Fire Sign (2011) {Tzadik}