Tags
Language
Tags
January 2023
Su Mo Tu We Th Fr Sa
1 2 3 4 5 6 7
8 9 10 11 12 13 14
15 16 17 18 19 20 21
22 23 24 25 26 27 28
29 30 31 1 2 3 4

Budapest FO, Ivan Fischer - Zoltan Kodaly: Hary Janos Suite; Dances of Galanta & Marosszek; Children's Choruses (1999)

Posted By: Designol
Budapest FO, Ivan Fischer - Zoltan Kodaly: Hary Janos Suite; Dances of Galanta & Marosszek; Children's Choruses (1999)

Zoltán Kodály: Háry János Suite; Dances of Galánta & Marosszék; Children's Choruses (1999)
Children's Choir Magnificat, Budapest; Children's Choir Miraculum, Kecskemét
Budapest Festival Orchestra, Iván Fischer, conductor

EAC | FLAC | Tracks (Cue&Log) ~ 309 Mb | Mp3 (CBR320) ~ 178 Mb | Scans included
Genre: Classical | Label: Philips | # 462 824-2 | Time: 01:06:13

Coupling the Hary Janos Suite with Kodaly ’ s two highly contrasted sets of Hungarian dances, urban and rural, is a time - honoured gambit, but Fischer has had the birght idea of adding some of the composer ’ s children ’ s choruses, and instrumental movements from the seldom - heard Hary Janos Singspiel that was the ultimate source for the perennially popular suite, in order to give a broader picture of Kodaly, both as musician and musical humorist. On the whole it works well: the Singspiel extracts are very slight, but the choruses are highly characteristic – and flawlessly sung by superbly disciplined childrens ’ choirs trained, inevitably, in the ‘ Kodaly Method ’. Nevertheless the three principal orchestral works remain the point for buying the disc, and these are very vivid, exciting interpretations. Fischer comes up against stiff competition in Antal Dorati ’ s classic 1973 recording of Hary and the dance - suites with the Philharmonia Hungarica. Dorati is ‘ straighter ’ in his readings of the pieces than Fischer, and the playing packs a tremendous punch: he also adds the Peacock Variations as coupling, and thus probably still remains the first choice. But Fischer has his own view of the music: his tempo - fluctuations always feel idiomatic, perhaps eventually more gypsy - like and improvisatory. He also pays admirable attention to instrumental colour and detail and benefits from a really first - rate recording from Philips. Perhaps the unusual fillers will persuade buyers to add this as a second version, and for those new to Kodaly it makes a very effective, broad - based introduction.

Review by Calum MacDonald, BBC Music Magazine

Budapest FO, Ivan Fischer - Zoltan Kodaly: Hary Janos Suite; Dances of Galanta & Marosszek; Children's Choruses (1999)



Budapest FO, Ivan Fischer - Zoltan Kodaly: Hary Janos Suite; Dances of Galanta & Marosszek; Children's Choruses (1999)



Children's Choir Magnificat, Budapest (2, 10)
Chorus master: Valéria Szebelédi
Children's Choir Miraculum, Kecskemét (4)
Chorus master: László Durányik
Erika Sebők, flute (5)
Péter Lukács, viola (6)
Gabriella Pivon, piccolo (7)
Gábor Takács-Nagy, violin (9)

Budapest Festival Orchestra
Iván Fischer, conductor & violin (9)

Tracklist:

01. Dances of Galánta [15:56]

02. Táncnóta (Dancing Song) [01:56]

03. Dances of Marosszék [11:41]

04. Gergëly-járás (St. Gregory Procession) [03:41]

Instrumental excerpts from the Singspiel "Háry János"
05. I. The Flute-playing Hussar [01:58]
06. II. The Old Woman [01:49]
07. III. The Jewish Family [01:41]
08. IV. Háry Riding Lucifer [01:10]
09. V. The Two Gypsies [01:17]

10. Túrót eszik a cigány [02:06]

"Háry János" Suite
11. I. Prelude. The Fairy-tale begins [03:35]
12. II. Viennese Musical Clock [02:02]
13. III. Song [05:46]
14. IV. The Battle and Defeat of Napoleon [04:04]
15. V. Intermezzo [04:37]
16. VI. Entrance of the Emperor and his Court [02:52]


Exact Audio Copy V1.3 from 2. September 2016

EAC extraction logfile from 4. February 2017, 13:18

Kodaly, Zoltan / Hary Janos Suite, Dances of Galanta & Marosszek, Children's Choruses

Used drive : PLEXTOR CD-R PREMIUM2 Adapter: 5 ID: 1

Read mode : Secure
Utilize accurate stream : Yes
Defeat audio cache : Yes
Make use of C2 pointers : No

Read offset correction : 30
Overread into Lead-In and Lead-Out : Yes
Fill up missing offset samples with silence : Yes
Delete leading and trailing silent blocks : No
Null samples used in CRC calculations : Yes
Used interface : Installed external ASPI interface
Gap handling : Appended to previous track

Used output format : User Defined Encoder
Selected bitrate : 896 kBit/s
Quality : High
Add ID3 tag : No
Command line compressor : C:\Program Files\Exact Audio Copy\Flac\flac.exe
Additional command line options : -6 -V -T "ARTIST=%artist%" -T "TITLE=%title%" -T "ALBUM=%albumtitle%" -T "DATE=%year%" -T "PERFORMER=%albuminterpret%" -T "TRACKNUMBER=%tracknr%" -T "TOTALTRACKS=%numtracks%" -T "GENRE=%genre%" -T "COMPOSER=%composer%" -T "ALBUMARTIST=%albumartist%" -T "ALBUM ARTIST=%albumartist%" -T "COMMENT=EAC V1.3, Secure Mode, Test & Copy, AccurateRip, FLAC 1.3.2 Level 6" %source%


TOC of the extracted CD

Track | Start | Length | Start sector | End sector
––––––––––––––––––––––––––––-
1 | 0:00.32 | 15:56.00 | 32 | 71731
2 | 15:56.32 | 1:56.00 | 71732 | 80431
3 | 17:52.32 | 11:41.38 | 80432 | 133044
4 | 29:33.70 | 3:41.37 | 133045 | 149656
5 | 33:15.32 | 1:58.00 | 149657 | 158506
6 | 35:13.32 | 1:49.38 | 158507 | 166719
7 | 37:02.70 | 1:41.00 | 166720 | 174294
8 | 38:43.70 | 1:10.37 | 174295 | 179581
9 | 39:54.32 | 1:17.00 | 179582 | 185356
10 | 41:11.32 | 2:06.00 | 185357 | 194806
11 | 43:17.32 | 3:35.00 | 194807 | 210931
12 | 46:52.32 | 2:02.00 | 210932 | 220081
13 | 48:54.32 | 5:46.00 | 220082 | 246031
14 | 54:40.32 | 4:04.00 | 246032 | 264331
15 | 58:44.32 | 4:37.00 | 264332 | 285106
16 | 63:21.32 | 2:52.00 | 285107 | 298006


Track 1

Filename D:\EAC extraction\01 - Dances of Galanta.wav

Pre-gap length 0:00:02.32

Peak level 100.0 %
Extraction speed 1.9 X
Track quality 100.0 %
Test CRC 31CC562D
Copy CRC 31CC562D
Accurately ripped (confidence 6) [FEF306C3] (AR v2)
Copy OK

Track 2

Filename D:\EAC extraction\02 - Tancnota (Dancing Song).wav

Pre-gap length 0:00:05.68

Peak level 85.3 %
Extraction speed 1.8 X
Track quality 100.0 %
Test CRC 848854AC
Copy CRC 848854AC
Accurately ripped (confidence 6) [F6208889] (AR v2)
Copy OK

Track 3

Filename D:\EAC extraction\03 - Dances of Marosszek.wav

Pre-gap length 0:00:06.00

Peak level 100.0 %
Extraction speed 1.9 X
Track quality 99.9 %
Test CRC 9527AF84
Copy CRC 9527AF84
Accurately ripped (confidence 6) [DB9A6F83] (AR v2)
Copy OK

Track 4

Filename D:\EAC extraction\04 - Gergely-jaras (St. Gregory Procession).wav

Pre-gap length 0:00:07.00

Peak level 68.5 %
Extraction speed 1.9 X
Track quality 100.0 %
Test CRC 2D4FC916
Copy CRC 2D4FC916
Accurately ripped (confidence 6) [6A4B794D] (AR v2)
Copy OK

Track 5

Filename D:\EAC extraction\05 - Excerpts from the Singspiel Hary Janos - I. The Flute-playing Hussar.wav

Pre-gap length 0:00:09.00

Peak level 6.5 %
Extraction speed 1.8 X
Track quality 100.0 %
Test CRC 356718FF
Copy CRC 356718FF
Accurately ripped (confidence 6) [C2EA3C4B] (AR v2)
Copy OK

Track 6

Filename D:\EAC extraction\06 - II. The Old Woman.wav

Peak level 23.5 %
Extraction speed 1.8 X
Track quality 100.0 %
Test CRC BD1EA43B
Copy CRC BD1EA43B
Accurately ripped (confidence 6) [33AAD5DB] (AR v2)
Copy OK

Track 7

Filename D:\EAC extraction\07 - III. The Jewish Family.wav

Pre-gap length 0:00:05.00

Peak level 7.4 %
Extraction speed 1.8 X
Track quality 100.0 %
Test CRC BA542EEF
Copy CRC BA542EEF
Accurately ripped (confidence 6) [1F7A0E40] (AR v2)
Copy OK

Track 8

Filename D:\EAC extraction\08 - IV. Hary Riding Lucifer.wav

Pre-gap length 0:00:03.00

Peak level 100.0 %
Extraction speed 1.8 X
Track quality 100.0 %
Test CRC 714A7264
Copy CRC 714A7264
Accurately ripped (confidence 6) [21D001E3] (AR v2)
Copy OK

Track 9

Filename D:\EAC extraction\09 - V. The Two Gypsies.wav

Pre-gap length 0:00:04.00

Peak level 16.8 %
Extraction speed 1.7 X
Track quality 99.8 %
Test CRC 3E722AB1
Copy CRC 3E722AB1
Accurately ripped (confidence 6) [43BF040D] (AR v2)
Copy OK

Track 10

Filename D:\EAC extraction\10 - Turot eszik a cigany.wav

Pre-gap length 0:00:08.00

Peak level 100.0 %
Extraction speed 1.8 X
Track quality 100.0 %
Test CRC BEC0A6E2
Copy CRC BEC0A6E2
Accurately ripped (confidence 6) [6CB2F229] (AR v2)
Copy OK

Track 11

Filename D:\EAC extraction\11 - Hary Janos Suite - I. Prelude. The Fairy-tale begins.wav

Pre-gap length 0:00:11.00

Peak level 100.0 %
Extraction speed 1.9 X
Track quality 100.0 %
Test CRC 10570DC1
Copy CRC 10570DC1
Accurately ripped (confidence 6) [FBE9424D] (AR v2)
Copy OK

Track 12

Filename D:\EAC extraction\12 - II. Viennese Musical Clock.wav

Pre-gap length 0:00:05.00

Peak level 74.2 %
Extraction speed 1.8 X
Track quality 100.0 %
Test CRC 02896A37
Copy CRC 02896A37
Accurately ripped (confidence 6) [0281DE98] (AR v2)
Copy OK

Track 13

Filename D:\EAC extraction\13 - III. Song.wav

Pre-gap length 0:00:06.00

Peak level 28.4 %
Extraction speed 1.9 X
Track quality 100.0 %
Test CRC EBF6256E
Copy CRC EBF6256E
Accurately ripped (confidence 6) [8AEBE941] (AR v2)
Copy OK

Track 14

Filename D:\EAC extraction\14 - IV. The Battle and Defeat of Napoleon.wav

Pre-gap length 0:00:06.00

Peak level 100.0 %
Extraction speed 1.8 X
Track quality 99.9 %
Test CRC 771F609A
Copy CRC 771F609A
Accurately ripped (confidence 6) [C385C88D] (AR v2)
Copy OK

Track 15

Filename D:\EAC extraction\15 - V. Intermezzo.wav

Peak level 100.0 %
Extraction speed 1.8 X
Track quality 100.0 %
Test CRC 738F549C
Copy CRC 738F549C
Accurately ripped (confidence 6) [9D2F542B] (AR v2)
Copy OK

Track 16

Filename D:\EAC extraction\16 - VI. Entrance of the Emperor and his Court.wav

Pre-gap length 0:00:01.00

Peak level 100.0 %
Extraction speed 1.9 X
Track quality 99.9 %
Test CRC 247FF87A
Copy CRC 247FF87A
Accurately ripped (confidence 5) [C09DCC42] (AR v2)
Copy OK


All tracks accurately ripped

No errors occurred

End of status report

–– CUETools DB Plugin V2.1.6

[CTDB TOCID: 2Iom8kokrAm1G6z3LEilzXsqm6U-] found
Submit result: already submitted
Track | CTDB Status
1 | (15/15) Accurately ripped
2 | (15/15) Accurately ripped
3 | (15/15) Accurately ripped
4 | (15/15) Accurately ripped
5 | (15/15) Accurately ripped
6 | (15/15) Accurately ripped
7 | (13/15) Accurately ripped
8 | (15/15) Accurately ripped
9 | (15/15) Accurately ripped
10 | (13/15) Accurately ripped
11 | (15/15) Accurately ripped
12 | (15/15) Accurately ripped
13 | (15/15) Accurately ripped
14 | (15/15) Accurately ripped
15 | (15/15) Accurately ripped
16 | (15/15) Accurately ripped


==== Log checksum 571806A0E1E8C16570F0A072B875D55AE11D80DF6C24F6C00B52F57FE528780C ====

foobar2000 1.2 / Dynamic Range Meter 1.1.1
log date: 2017-03-30 21:47:33

––––––––––––––––––––––––––––––––––––––––
Analyzed: Kodály, Zoltán / Háry János Suite • Dances of Galánta & Marosszék • Children's Choruses - Budapest Festival Orchestra, Iván Fischer
––––––––––––––––––––––––––––––––––––––––

DR Peak RMS Duration Track
––––––––––––––––––––––––––––––––––––––––
DR14 0.00 dB -19.73 dB 15:56 01-Dances of Galánta
DR14 -1.37 dB -21.42 dB 1:56 02-Táncnóta (Dancing Song)
DR14 0.00 dB -19.96 dB 11:42 03-Dances of Marosszék
DR14 -3.28 dB -23.15 dB 3:41 04-Gergëly-járás (St. Gregory Procession)
DR10 -23.68 dB -38.57 dB 1:58 05-Instrumental excerpts from the Singspiel "Háry János" - I. The Flute-playing Hussar
DR15 -12.58 dB -33.91 dB 1:50 06-II. The Old Woman
DR10 -22.55 dB -36.70 dB 1:41 07-III. The Jewish Family
DR10 0.00 dB -15.21 dB 1:10 08-IV. Háry Riding Lucifer
DR12 -15.45 dB -29.97 dB 1:17 09-V. The Two Gypsies
DR14 0.00 dB -21.39 dB 2:06 10-Túrót eszik a cigány
DR12 0.00 dB -18.27 dB 3:35 11-"Háry János" Suite - I. Prelude: The Fairy-tale begins
DR14 -2.59 dB -22.84 dB 2:02 12-II. Viennese Musical Clock
DR14 -10.92 dB -31.35 dB 5:46 13-III. Song
DR13 0.00 dB -18.41 dB 4:04 14-IV. The Battle and Defeat of Napoleon
DR15 0.00 dB -19.56 dB 4:37 15-V. Intermezzo
DR11 0.00 dB -15.75 dB 2:52 16-VI. Entrance of the Emperor and his Court
––––––––––––––––––––––––––––––––––––––––

Number of tracks: 16
Official DR value: DR13

Samplerate: 44100 Hz
Channels: 2
Bits per sample: 16
Bitrate: 747 kbps
Codec: FLAC
================================================================================

Budapest FO, Ivan Fischer - Zoltan Kodaly: Hary Janos Suite; Dances of Galanta & Marosszek; Children's Choruses (1999)

Budapest FO, Ivan Fischer - Zoltan Kodaly: Hary Janos Suite; Dances of Galanta & Marosszek; Children's Choruses (1999)

All thanks to original releaser - quivive

More interesting music in My Blog