Tags
Language
Tags

Holst, Saint Louis Symphony Orchestra, Walter Susskind ‎- The Planets (1975) [MFSL UDSACD 4005]

Posted By: v3122
Holst, Saint Louis Symphony Orchestra, Walter Susskind ‎- The Planets (1975) [MFSL UDSACD 4005]

Holst, Saint Louis Symphony Orchestra, Walter Susskind ‎- The Planets (1975)
EAC | Flac(Image) + Cue + Log & MP3 CBR 320Kbps
2004 | Mobile Fidelity Sound Lab, UDSACD 4005 | ~ 226 or 133 Mb | Scans Included
Classical

The Planets, composed between 1914 and 1916, is a suite of seven movements. Holst's starting point for the music was the astrological character of each planet, though his interest in astrology went no deeper than its musical suggestiveness. His daughter wrote that once the underlying idea had been formulated 'he let the music have its way with him'. There was, therefore, no programme for the suite, and the composer himself pointed out that it has no connection with the deities of classical mythology. The many clues to the meaning of the music are the subjects of the individual movements.

MARS, the bringer of war. Three musical ideas are used to create this martial piece: (1) a brutally rhythmic figure of five beats relentlessly hammered out, (2) a principal theme in triads moving by chromatic steps with no true harmonic purpose; (3) a second theme consisting of a tattoo in the tenor tuba answered by a flourish of trumpets. There is no glory, no heroism, no tragedy in this music. It is entirely inhuman. Not even death is in it, for Mars is as insensitive to death as to life. War is a senseless, mechanised horror is Holst's real subject here.

VENUS, the bringer of peace. She is announced by four ascending notes in the solo horn and a sequence of converging chords in the flutes and oboes. Most of her music lies, symbolically, in the middle and upper registers of the instruments; and harps, celestes, and glockenspiel further characterise her heavenly nature. In addition there are beautiful melodies for her in the solo violin and oboe. Though this is music of surpassing serenity it is not simple in harmony, texture or orchestral sonority. One cannot help but observe how fitting it is that the state of peace be described in complex terms, in contrast to the complicity of the depiction of war.

MERCURY, the winged messenger. This is the quickest and, in duration, the shortest movement of the suite. Aside from its speed, however, its particular quality comes from the opposition of two simultaneous keys and two simultaneous rhythms. The two keys, which are sounded in the very first bar, are B-flat and E (which, being separated from one another by the interval of the tritone, have no note in common). The two rhythms arise out of different groupings of six beats, the first being ONE-two-three-FOUR-five-six, the second being ONE-two-THREE-four-FIVE-six. This opposition of contrasting patterns is one of Holst's principal characteristics, and other examples of it can be found not only in The Planets but abundantly throughout his works.

JUPITER, the bringer of jollity. The exuberance of this movement shows itself not only in its tempo and rhythm but also in the multiplicity of subjects. You can count four, five or six of them, depending on whether you divide the first two into their component parts - they do behave like independent themes. Jupiter might well be designated as 'the English movement' because it shows how profoundly Holst was influenced by the folk music of his country. Certainly this is rustic English, music for a fair; there are crowds of people in it and infinite good spirits. The grand tune that ends the parade of themes has become the setting for a patriotic hymn with the words 'I vow to thee my country'.

SATURN, the bringer of old age. Unlike the previous movements, which are static in the sense that each depicts various aspects of a single trait, this one moves through a series of 'events' that bring the music to conclusions not envisioned at the beginning. There is a profound hollowness and sense of defeat in the harmony of the opening chords, and an even deeper despair in the motif sounded beneath them by the double basses. But the elderly voice of wisdom is soon heard in the B-minor theme for the trombones, and at the end the mood is one of acceptance, reconciliation and consequent serenity.

URANUS, the magician. You can take as the figure of Uranus almost any magician you have ever seen in opera, drama or vaudeville - preferably one with the tall pointed hat studded with stars, the flowing blue robe with voluminous sleeves, and the silver want. He is invoked by Holst with a triple invocation, and he begins to show his tricks immediately. His repertoire is vast and astonishing and at the climax of his demonstration he struts around pompously to a pompous tune. By way of encore he makes some mysterious incantations, suddenly (one guesses from the music) envelops himself in flames - and disappears.

NEPTUNE, the mystic. This movement is, if any music can be, the disembodied spirit of sound. Themes are practically non-existent; in their place are fragments of melody and harmony, all manipulated at the very lowest dynamic level and in the most attenuated orchestral sonorities. Almost imperceptibly a double chorus of women's voices enters on a high G, sustained through a dozen bars. The singing continues, without words, embedded in a diaphanous veil of orchestral sound. Even this dies away, and the voices are left alone to intone a cadence over and over again with ever diminishing tone , until it is consumed in silence.


Taken from record sleeve, published by Music For Pleasure, and EMI, with the catalogue number MFP 2134. The recording was made with the Los Angeles Philharmonic Orchestra and the Women's Voices of the Roger Wagner Chorale, conducted by Leopold Stokowski.

~ musicsalesclassical.com


Performed by The Saint Louis Symphony Orchestra and conducted by Walter Susskind, Mobile Fidelity Sound Lab's (MFSL) multichannel debut of Holst's The Planets is a remarkable and stunning revelation within the aural cosmos. Utilizing MFSL's heralded GAIN 2 (Greater Ambient Information Network) proprietary mastering process, the compelling contrast between the thunderous, enraged "Mars" and the refined pomp and beauty of "Venus" is unveiled in spectacular sonic splendor. Gustav Holst's deep understanding and inspired interpretation of Astrology, Mythology, and the Greek influenced "Music of the Spheres" is illustrated here in meticulous, spacious surround sound on the most technologically advanced sound reproduction media format to date - the Ultradisc UHR™ Surround SACD. The fact is that MFSL's exploration of the sonic universe has often been likened to NASA's research in space - utilizing the greatest technological achievement possible to unveil greater mysteries. So it stands to reason that Mobile Fidelity Sound Lab, who illuminated The Dark Side of the Moon with its definitive versions of that classic album, will now unveil the The Planets…

By Luna Muse, amazon
Holst, Saint Louis Symphony Orchestra, Walter Susskind ‎- The Planets (1975):

Holst, Saint Louis Symphony Orchestra, Walter Susskind ‎- The Planets (1975) [MFSL UDSACD 4005]

Tracklist:

01. MARS, The Bringer of War [7:14]
02. VENUS, The Bringer of Peace [7:44]
03. MERCURY, The Winged Messenger [4:07]
04. JUPITER, The Bringer of Jollity [7:50]
05. SATURN, The Bringer of Old Age [9:24]
06. URANUS, The Magician [5:50]
07. NEPTUNE, The Mystic [7:34]

Exact Audio Copy V1.3 from 2. September 2016

EAC extraction logfile from 27. November 2016, 17:44

GUSTAV HOLST / The Planets, Suite for Large Orchestra, Op. 32 (USA, MFSL, UDSACD 4005)

Used drive : ASUS DRW-24B3ST Adapter: 1 ID: 1

Read mode : Secure
Utilize accurate stream : Yes
Defeat audio cache : Yes
Make use of C2 pointers : No

Read offset correction : 6
Overread into Lead-In and Lead-Out : No
Fill up missing offset samples with silence : Yes
Delete leading and trailing silent blocks : No
Null samples used in CRC calculations : Yes
Used interface : Native Win32 interface for Win NT & 2000

Used output format : User Defined Encoder
Selected bitrate : 1024 kBit/s
Quality : High
Add ID3 tag : No
Command line compressor : C:\Program Files\EAC(v.1.3)\WV\wavpack.exe
Additional command line options : -h -hh -m %source%


TOC of the extracted CD

Track | Start | Length | Start sector | End sector
––––––––––––––––––––––––––––-
1 | 0:00.32 | 7:14.35 | 32 | 32616
2 | 7:14.67 | 7:43.53 | 32617 | 67394
3 | 14:58.45 | 4:06.55 | 67395 | 85899
4 | 19:05.25 | 7:50.20 | 85900 | 121169
5 | 26:55.45 | 9:23.65 | 121170 | 163459
6 | 36:19.35 | 5:50.32 | 163460 | 189741
7 | 42:09.67 | 7:33.53 | 189742 | 223769


Range status and errors

Selected range

Filename F:\GUSTAV HOLST - The Planets (St. Louis Symphony Orchestra, Susskind) (1975) (US 2004 MFSL • UDSACD 4005)\GUSTAV HOLST - The Planets, … (USA, MFSL, UDSACD 4005).wav

Peak level 100.0 %
Extraction speed 7.5 X
Range quality 100.0 %
Test CRC 18D54AD9
Copy CRC 18D54AD9
Copy OK

No errors occurred


AccurateRip summary

Track 1 accurately ripped (confidence 6) [E033669E] (AR v2)
Track 2 accurately ripped (confidence 6) [486EEA29] (AR v2)
Track 3 accurately ripped (confidence 6) [CC7EB258] (AR v2)
Track 4 accurately ripped (confidence 6) [81E322F8] (AR v2)
Track 5 accurately ripped (confidence 6) [C5CF59B5] (AR v2)
Track 6 accurately ripped (confidence 6) [159B2E2D] (AR v2)
Track 7 accurately ripped (confidence 6) [72AA8C83] (AR v2)

All tracks accurately ripped

End of status report

==== Log checksum A0E0F517A9B2E1C783D3A25C94CBE49B11BA8DD11668B39CB25773D61A93278B ====

foobar2000 1.2.9 / Dynamic Range Meter 1.1.1
log date: 2016-12-13 18:47:43

––––––––––––––––––––––––––––––––––––––––
Analyzed: GUSTAV HOLST / The Planets, Suite for Large Orchestra, Op. 32 (USA, MFSL, UDSACD 4005)
––––––––––––––––––––––––––––––––––––––––

DR Peak RMS Duration Track
––––––––––––––––––––––––––––––––––––––––
DR13 0.00 dB -17.94 dB 7:14 01-MARS, The Bringer of War
DR14 -11.86 dB -33.24 dB 7:44 02-VENUS, The Bringer of Peace
DR16 -3.36 dB -26.84 dB 4:07 03-MERCURY, The Winged Messenger
DR13 0.00 dB -18.97 dB 7:50 04-JUPITER, The Bringer of Jollity
DR15 -2.49 dB -25.08 dB 9:24 05-SATURN, The Bringer of Old Age
DR13 -1.13 dB -19.73 dB 5:50 06-URANUS, The Magician
DR12 -15.73 dB -33.09 dB 7:34 07-NEPTUNE, The Mystic
––––––––––––––––––––––––––––––––––––––––

Number of tracks: 7
Official DR value: DR14

Samplerate: 44100 Hz
Channels: 2
Bits per sample: 16
Bitrate: 575 kbps
Codec: FLAC

[CUETools log; Date: 13.12.2016 18:47:28; Version: 2.1.4]
Pregap length 00:00:32.
[CTDB TOCID: ik.lbsGEPgVC6d2KSHctMyxtupg-] found.
Track | CTDB Status
1 | (5/5) Accurately ripped
2 | (5/5) Accurately ripped
3 | (5/5) Accurately ripped
4 | (5/5) Accurately ripped
5 | (5/5) Accurately ripped
6 | (5/5) Accurately ripped
7 | (5/5) Accurately ripped
[AccurateRip ID: 000d7d76-00511daf-4b0ba707] found.
Track [ CRC | V2 ] Status
01 [fd0d095f|e033669e] (10+06/44) Accurately ripped
02 [64f11e7f|486eea29] (10+06/45) Accurately ripped
03 [5cbd3b3a|cc7eb258] (10+06/44) Accurately ripped
04 [f9746b1c|81e322f8] (10+06/43) Accurately ripped
05 [ae4fa77c|c5cf59b5] (10+06/44) Accurately ripped
06 [4f65da26|159b2e2d] (10+06/44) Accurately ripped
07 [ae2eb2fc|72aa8c83] (10+06/44) Accurately ripped
Offsetted by 15:
01 [4c3bdaac] (02/44) Accurately ripped
02 [929e8549] (02/45) Accurately ripped
03 [16ae4b83] (02/44) Accurately ripped
04 [720fe889] (02/43) Accurately ripped
05 [601aab40] (02/44) Accurately ripped
06 [8fd7a44f] (02/44) Accurately ripped
07 [bfe4e16e] (02/44) Accurately ripped
Offsetted by 581:
01 [ef8e86a0] (06/44) Accurately ripped
02 [9da4a971] (06/45) Accurately ripped
03 [c6066bfa] (05/44) Accurately ripped
04 [485d4771] (05/43) Accurately ripped
05 [0aa960b3] (06/44) Accurately ripped
06 [d96f56b0] (06/44) Accurately ripped
07 [ca1535bf] (06/44) Accurately ripped
Offsetted by 649:
01 [20e771c0] (05/44) Accurately ripped
02 [3ba329a1] (05/45) Accurately ripped
03 [d58667df] (05/44) Accurately ripped
04 [01c0a033] (04/43) Accurately ripped
05 [4986c6d3] (04/44) Accurately ripped
06 [7adc4f58] (04/44) Accurately ripped
07 [53ca0c98] (04/44) Accurately ripped

Track Peak [ CRC32 ] [W/O NULL] [ LOG ]
– 100,0 [18D54AD9] [E5AB7A67] CRC32
01 100,0 [8DC43CAD] [89F2E0D6]
02 25,5 [EF114016] [5A9539CE]
03 67,9 [ACD1B702] [5F1D88D1]
04 100,0 [D9EC527F] [3A18CA90]
05 75,0 [904FB19A] [698169BD]
06 87,7 [2954291A] [9E438E47]
07 16,3 [AD0C96D4] [BBA9EAD7]

Holst, Saint Louis Symphony Orchestra, Walter Susskind ‎- The Planets (1975) [MFSL UDSACD 4005]

All thanks go to the original releaser

Holst, Saint Louis Symphony Orchestra, Walter Susskind ‎- The Planets (1975):