Tags
Language
Tags

Henri Salvador - Reverence (2006) Japanese Edition

Posted By: Designol
Henri Salvador - Reverence (2006) Japanese Edition

Henri Salvador - Révérence (2006) Japanese Edition
EAC | FLAC | Tracks (Cue&Log) ~ 342 Mb | Mp3 (CBR320) ~ 148 Mb | Scans included
Vocal Jazz, Cool, Bossa Nova, French Pop, Chanson | Label: V2 | # V2CP-323 | 00:51:18

Henri Salvador is an 89-year-old with an extraordinary history. Born in French Guyana, he moved to France as a child, joined a dance orchestra as guitarist, and ended up working in Brazil, where his songs would later influence the work of the great Tom Jobim - the greatest composer of the bossa nova era of the late 1950s. Salvador also became a celebrity, and a TV personality back in France, and he now seems poised for unlikely international success. This new set was recorded in Paris, New York and (of course) Rio, where his producer was the great Jacques Morelenbaum, who has worked with everyone from Jobim to Mariza; they were joined by Brazilian stars Caetano Veloso and Gilberto Gil. It's remarkable for Salvador's effortlessly clear, perfect vocals and equally unexpected range. Many of the songs are gently charming laid-back ballads, but there's also a swinging French-language treatment of Ray Charles, with Alleluia! Je l'Ai Dans la Peau. Alleluia, indeed.

Review by Robin Denselow, The Guardian

Henri Salvador - Reverence (2006) Japanese Edition



Tracklist:

01. La vie c'est la vie (2:25)
02. Mourir a Honfleur (3:50)
03. Dans mon ile (4:58)
04. Cherche la rose (con Caetano Veloso) (4:57)
05. L'amour se trouve au coin de la rue (3:28)
06. Tu sais je vais t'aimer (4:06)
07. J'aurais aime (2:37)
08. Italie (un tableau de maitre) (3:12)
09. D'abord (2:58)
10. Les amours qu'on delaisse (5:18)
11. Alleluia! Je l'ai dans la peau (2:52)
12. Les dernieres hirondelles (3:24)
13. Tu sais je vais t'aimer (con Gilberto Gil) (4:07)
14. Tu sais je vais t'aimer (edit) (3:08)


Exact Audio Copy V1.0 beta 3 from 29. August 2011

EAC extraction logfile from 11. April 2014, 5:04

Henri Salvador / Révérence

Used drive : HL-DT-STDVDRAM GH24NS50 Adapter: 2 ID: 1

Read mode : Secure
Utilize accurate stream : Yes
Defeat audio cache : Yes
Make use of C2 pointers : No

Read offset correction : 667
Overread into Lead-In and Lead-Out : No
Fill up missing offset samples with silence : Yes
Delete leading and trailing silent blocks : No
Null samples used in CRC calculations : Yes
Used interface : Native Win32 interface for Win NT & 2000
Gap handling : Appended to previous track

Used output format : User Defined Encoder
Selected bitrate : 1024 kBit/s
Quality : High
Add ID3 tag : No
Command line compressor : D:\Program Files\FLAC\flac.exe
Additional command line options : -8 -V -T "ARTIST=%artist%" -T "TITLE=%title%" -T "ALBUM=%albumtitle%" -T "DATE=%year%" -T "TRACKNUMBER=%tracknr%" -T "GENRE=%genre%" -T "PERFORMER=%albuminterpret%" -T "COMPOSER=%composer%" %haslyrics%–tag-from-file=LYRICS="%lyricsfile%"%haslyrics% -T "ALBUMARTIST=%albumartist%" -T "DISCNUMBER=%cdnumber%" -T "TOTALDISCS=%totalcds%" -T "TOTALTRACKS=%numtracks%" -T "COMMENT=%comment%" %source% -o %dest%


TOC of the extracted CD

Track | Start | Length | Start sector | End sector
––––––––––––––––––––––––––––-
1 | 0:00.00 | 2:24.66 | 0 | 10865
2 | 2:24.66 | 3:50.04 | 10866 | 28119
3 | 6:14.70 | 4:57.54 | 28120 | 50448
4 | 11:12.49 | 4:57.26 | 50449 | 72749
5 | 16:10.00 | 3:27.71 | 72750 | 88345
6 | 19:37.71 | 4:05.56 | 88346 | 106776
7 | 23:43.52 | 2:37.12 | 106777 | 118563
8 | 26:20.64 | 3:11.49 | 118564 | 132937
9 | 29:32.38 | 2:57.49 | 132938 | 146261
10 | 32:30.12 | 5:17.65 | 146262 | 170101
11 | 37:48.02 | 2:51.60 | 170102 | 182986
12 | 40:39.62 | 3:23.39 | 182987 | 198250
13 | 44:03.26 | 4:06.53 | 198251 | 216753
14 | 48:10.04 | 3:07.52 | 216754 | 230830
15 | 53:49.56 | 18:35.12 | 242231 | 325867


Track 1

Filename D:\01 - La vie c'est la vie.wav

Pre-gap length 0:00:02.00

Peak level 100.0 %
Extraction speed 1.0 X
Track quality 100.0 %
Test CRC ED5C13E5
Copy CRC ED5C13E5
Track not present in AccurateRip database
Copy OK

Track 2

Filename D:\02 - Mourir à Honfleur.wav

Pre-gap length 0:00:00.42

Peak level 100.0 %
Extraction speed 1.0 X
Track quality 99.9 %
Test CRC 51107DB7
Copy CRC 51107DB7
Track not present in AccurateRip database
Copy OK

Track 3

Filename D:\03 - Dans mon île.wav

Pre-gap length 0:00:01.54

Peak level 100.0 %
Extraction speed 1.3 X
Track quality 100.0 %
Test CRC AA8D8F85
Copy CRC AA8D8F85
Track not present in AccurateRip database
Copy OK

Track 4

Filename D:\04 - Cherche la rose.wav

Pre-gap length 0:00:01.28

Peak level 100.0 %
Extraction speed 1.5 X
Track quality 100.0 %
Test CRC A7AC1C4D
Copy CRC A7AC1C4D
Track not present in AccurateRip database
Copy OK

Track 5

Filename D:\05 - L'amour se trouve au coin d' la rue.wav

Pre-gap length 0:00:00.33

Peak level 100.0 %
Extraction speed 1.5 X
Track quality 100.0 %
Test CRC B3227B8D
Copy CRC B3227B8D
Track not present in AccurateRip database
Copy OK

Track 6

Filename D:\06 - Tu sais je vais t'aimer.wav

Pre-gap length 0:00:00.36

Peak level 100.0 %
Extraction speed 1.6 X
Track quality 100.0 %
Test CRC 7A32547A
Copy CRC 7A32547A
Track not present in AccurateRip database
Copy OK

Track 7

Filename D:\07 - J'aurai aimé.wav

Pre-gap length 0:00:01.44

Peak level 100.0 %
Extraction speed 1.6 X
Track quality 100.0 %
Test CRC C1689FDF
Copy CRC C1689FDF
Track not present in AccurateRip database
Copy OK

Track 8

Filename D:\08 - Italie (un tableau de maître).wav

Peak level 100.0 %
Extraction speed 1.7 X
Track quality 100.0 %
Test CRC A802944D
Copy CRC A802944D
Track not present in AccurateRip database
Copy OK

Track 9

Filename D:\09 - D'abord.wav

Pre-gap length 0:00:00.68

Peak level 100.0 %
Extraction speed 1.7 X
Track quality 100.0 %
Test CRC 16D21D0B
Copy CRC 16D21D0B
Track not present in AccurateRip database
Copy OK

Track 10

Filename D:\10 - Les amours qu'on délaisse.wav

Pre-gap length 0:00:00.49

Peak level 100.0 %
Extraction speed 2.0 X
Track quality 100.0 %
Test CRC EDF23D69
Copy CRC EDF23D69
Track not present in AccurateRip database
Copy OK

Track 11

Filename D:\11 - Alléluia ! Je l'ai dans la peau.wav

Pre-gap length 0:00:01.05

Peak level 100.0 %
Extraction speed 1.9 X
Track quality 100.0 %
Test CRC 759129CC
Copy CRC 759129CC
Track not present in AccurateRip database
Copy OK

Track 12

Filename D:\12 - Les dernières hirondelles.wav

Pre-gap length 0:00:01.20

Peak level 100.0 %
Extraction speed 1.7 X
Track quality 99.9 %
Test CRC EA2C3F73
Copy CRC EA2C3F73
Track not present in AccurateRip database
Copy OK

Track 13

Filename D:\13 - Tu sais je vais t'aimer (duo avec Gilberto Gil).wav

Pre-gap length 0:00:02.40

Peak level 100.0 %
Extraction speed 2.1 X
Track quality 100.0 %
Test CRC 2621B1EB
Copy CRC 2621B1EB
Track not present in AccurateRip database
Copy OK

Track 14

Filename D:\14 - Tu sais je vais t'aimer (edit).wav

Pre-gap length 0:00:01.31

Peak level 81.2 %
Extraction speed 2.1 X
Track quality 100.0 %
Test CRC FA399501
Copy CRC FA399501
Track not present in AccurateRip database
Copy OK


None of the tracks are present in the AccurateRip database

No errors occurred

End of status report

–– CUETools DB Plugin V2.1.3

[CTDB TOCID: P8xsQzBqkK.PSAFyIOFnX6R6zMw-] disk not present in database, Submit result: P8xsQzBqkK.PSAFyIOFnX6R6zMw- has been uploaded


==== Log checksum 001050346138742142967C1102A00F364AFD136AD495760309E5379B82E16A8D ====

[CUETools log; Date: 25.09.2018 23:28:09; Version: 2.1.5]
CD-Extra data track length 18:35:12.
[CTDB TOCID: P8xsQzBqkK.PSAFyIOFnX6R6zMw-] found.
Track | CTDB Status
1 | (1/1) Accurately ripped
2 | (1/1) Accurately ripped
3 | (1/1) Accurately ripped
4 | (1/1) Accurately ripped
5 | (1/1) Accurately ripped
6 | (1/1) Accurately ripped
7 | (1/1) Accurately ripped
8 | (1/1) Accurately ripped
9 | (1/1) Accurately ripped
10 | (1/1) Accurately ripped
11 | (1/1) Accurately ripped
12 | (1/1) Accurately ripped
13 | (1/1) Accurately ripped
14 | (1/1) Accurately ripped
[AccurateRip ID: 001c36ca-01330f8d-d710f80f] found.
Track [ CRC | V2 ] Status
01 [33bca2bc|8d41e7a0] (0+1/1) Accurately ripped
02 [06c47aff|e1308830] (0+1/1) Accurately ripped
03 [f5f1f494|62dd54bc] (0+1/1) Accurately ripped
04 [054ee719|a7a925f7] (0+1/1) Accurately ripped
05 [e508145d|aca79ecf] (0+1/1) Accurately ripped
06 [a7b41e16|a6afca53] (0+1/1) Accurately ripped
07 [28901ba0|b858a58e] (0+1/1) Accurately ripped
08 [4e30a582|4ef0692a] (0+1/1) Accurately ripped
09 [e6804a1b|0bf245c6] (0+1/1) Accurately ripped
10 [865c259d|359cea0c] (0+1/1) Accurately ripped
11 [fda657ef|0cc67a0e] (0+1/1) Accurately ripped
12 [85a42249|ca71f90c] (0+1/1) Accurately ripped
13 [8206a22e|40e83b25] (0+1/1) Accurately ripped
14 [1a71c474|3d509a86] (0+1/1) Accurately ripped

Track Peak [ CRC32 ] [W/O NULL] [ LOG ]
– 100,0 [94F917AC] [62B3978E]
01 100,0 [ED5C13E5] [F7A40B9D] CRC32
02 100,0 [51107DB7] [339B9532] CRC32
03 100,0 [AA8D8F85] [B3F9DFD2] CRC32
04 100,0 [A7AC1C4D] [AFB953CC] CRC32
05 100,0 [B3227B8D] [427230B9] CRC32
06 100,0 [7A32547A] [B498F24A] CRC32
07 100,0 [C1689FDF] [37641A72] CRC32
08 100,0 [A802944D] [0D0AC622] CRC32
09 100,0 [16D21D0B] [31172B94] CRC32
10 100,0 [EDF23D69] [607BBE6F] CRC32
11 100,0 [759129CC] [C31825BE] CRC32
12 100,0 [EA2C3F73] [A2E96A6D] CRC32
13 100,0 [2621B1EB] [0315F6AD] CRC32
14 81,2 [FA399501] [4EF74176] CRC32

foobar2000 1.2 / Dynamic Range Meter 1.1.1
log date: 2018-09-26 22:26:03

––––––––––––––––––––––––––––––––––––––––
Analyzed: Henri Salvador / Reverence
––––––––––––––––––––––––––––––––––––––––

DR Peak RMS Duration Track
––––––––––––––––––––––––––––––––––––––––
DR7 0.00 dB -8.48 dB 2:25 01-La vie c'est la vie
DR9 0.00 dB -10.65 dB 3:50 02-Mourir a Honfleur
DR9 0.00 dB -10.09 dB 4:58 03-Dans mon ile
DR9 0.00 dB -10.63 dB 4:57 04-Cherche la rose (con Caetano Veloso)
DR7 0.00 dB -8.76 dB 3:28 05-L'amour se trouve au coin de la rue
DR9 0.00 dB -10.85 dB 4:06 06-Tu sais je vais t'aimer
DR7 0.00 dB -9.49 dB 2:37 07-J'aurais aime
DR9 0.00 dB -10.24 dB 3:12 08-Italie (un tableau de maitre)
DR9 0.00 dB -10.74 dB 2:58 09-D'abord
DR8 0.00 dB -9.93 dB 5:18 10-Les amours qu'on delaisse
DR8 0.00 dB -9.51 dB 2:52 11-Alleluia! Je l'ai dans la peau
DR7 0.00 dB -9.39 dB 3:24 12-Les dernieres hirondelles
DR9 0.00 dB -10.96 dB 4:07 13-Tu sais je vais t'aimer (con Gilberto Gil)
DR7 -1.80 dB -10.60 dB 3:08 14-Tu sais je vais t'aimer (edit)
––––––––––––––––––––––––––––––––––––––––

Number of tracks: 14
Official DR value: DR8

Samplerate: 44100 Hz
Channels: 2
Bits per sample: 16
Bitrate: 929 kbps
Codec: FLAC
================================================================================

Henri Salvador - Reverence (2006) Japanese Edition

All thanks to original releaser - JJKWCD

More interesting music in My Blog